<?xml version="1.0" standalone="no"?>
<!DOCTYPE svg PUBLIC "-//W3C//DTD SVG 1.1//EN" "http://www.w3.org/Graphics/SVG/1.1/DTD/svg11.dtd" >
<svg xmlns="http://www.w3.org/2000/svg" xmlns:xlink="http://www.w3.org/1999/xlink" version="1.1">
<metadata>
Created by FontForge 20201107 at Thu Sep 26 06:14:37 2024
 By 
Modern and elegant sans serif font family.
</metadata>
<defs>
<font id="Mont-Heavy" horiz-adv-x="0" >
  <font-face 
    font-family="Mont Heavy"
    font-weight="900"
    font-stretch="normal"
    units-per-em="2048"
    panose-1="0 0 10 0 0 0 0 0 0 0"
    ascent="1638"
    descent="-410"
    x-height="1106"
    cap-height="1434"
    bbox="-1656 -671 2575 2052"
    underline-thickness="102"
    underline-position="-204"
    unicode-range="U+0020-25CA"
  />
<missing-glyph horiz-adv-x="952" 
d="M781 1505v-1904h-604v1904h604zM634 1378h-314v-63h124v-71h-126v-63h316v63h-125v71h125v63zM509 1132h-191v-198h316v65h-125v133zM444 1067v-68h-63v68h63zM634 882h-316v-62h126v-71h-126v-63h191v134h125v62zM634 768h-63v-126h-253v-64h316v190zM634 536h-190v-107
h65v44h62v-90h-190v153h-63v-215h316v215zM634 206h-316v-215h316v215zM571 143v-89h-190v89h190zM634 -53h-316v-63h133l-133 -89v-63h316v63h-194l133 89h61v63z" />
    <glyph glyph-name="f_f.liga" unicode="ff" horiz-adv-x="1685" 
d="M1662 1088v-299h-248v-789h-381v789h-422v-789h-381v789h-183v299h188v106q0 168 91 259.5t265 91.5h258v-292h-160q-43 0 -66.5 -23.5t-23.5 -66.5v-75h439v106q0 168 91 259.5t265 91.5h266v-292h-168q-43 0 -66.5 -23.5t-23.5 -66.5v-75h260z" />
    <glyph glyph-name="f_f_t.liga" unicode="fft" horiz-adv-x="2553" 
d="M2366 343h125v-343h-196q-227 0 -348.5 122t-121.5 349v318h-407v-789h-381v789h-426v-789h-381v789h-183v299h188v106q0 168 91 259.5t265 91.5h258v-292h-160q-43 0 -66.5 -23.5t-23.5 -66.5v-75h443v106q0 168 91 259.5t265 91.5h241v-292h-143q-43 0 -67 -23.5
t-24 -66.5v-75h420v322h381v-322h282v-299h-282v-286q0 -160 160 -160z" />
    <glyph glyph-name="f_t.liga" unicode="ft" horiz-adv-x="1785" 
d="M1598 343h124v-343h-195q-227 0 -348.5 122t-121.5 349v319h-446v-790h-381v790h-183v300h188v103q0 168 91 259.5t265 91.5h266v-292h-168q-43 0 -66.5 -23.5t-23.5 -66.5v-72h458v320h381v-320h282v-300h-282v-287q0 -160 160 -160z" />
    <glyph glyph-name="f_t_t.liga" unicode="ftt" horiz-adv-x="2637" 
d="M2450 343h125v-343h-196q-227 0 -348.5 122t-121.5 349v320h-494v-288q0 -160 160 -160h125v-343h-196q-227 0 -348 122t-121 349v320h-424v-791h-381v791h-183v299h188v104q0 168 91 259.5t265 91.5h266v-292h-168q-43 0 -66.5 -23.5t-23.5 -66.5v-73h436v320h380v-320
h494v320h381v-320h282v-299h-282v-288q0 -160 160 -160z" />
    <glyph glyph-name="r_f.liga" unicode="rf" horiz-adv-x="1734" 
d="M1711 1106v-306h-248v-800h-381v800h-183v306h188v88q0 168 91 259.5t265 91.5h266v-283h-168q-43 0 -67 -23.5t-24 -66.5v-66h261zM434 983q58 67 131.5 97.5t173.5 30.5h74v-341h-121q-101 0 -146 -47.5t-45 -153.5v-569h-381v1106h255z" />
    <glyph glyph-name="t_f.liga" unicode="tf" horiz-adv-x="1718" 
d="M1693 1090v-300h-248v-790h-381v790h-473v-329q0 -59 34 -93t94 -34h135v-334h-250q-184 0 -289 105.5t-105 289.5v395h-202v88l506 557h68v-345h487v111q0 168 91 259.5t265 91.5h266v-292h-168q-43 0 -67 -23.5t-24 -66.5v-80h261z" />
    <glyph glyph-name=".notdef" horiz-adv-x="952" 
d="M781 1505v-1904h-604v1904h604zM634 1378h-314v-63h124v-71h-126v-63h316v63h-125v71h125v63zM509 1132h-191v-198h316v65h-125v133zM444 1067v-68h-63v68h63zM634 882h-316v-62h126v-71h-126v-63h191v134h125v62zM634 768h-63v-126h-253v-64h316v190zM634 536h-190v-107
h65v44h62v-90h-190v153h-63v-215h316v215zM634 206h-316v-215h316v215zM571 143v-89h-190v89h190zM634 -53h-316v-63h133l-133 -89v-63h316v63h-194l133 89h61v63z" />
    <glyph glyph-name=".null" 
 />
    <glyph glyph-name="nonmarkingreturn" horiz-adv-x="682" 
 />
    <glyph glyph-name="space" unicode=" " horiz-adv-x="444" 
 />
    <glyph glyph-name="exclam" unicode="!" horiz-adv-x="645" 
d="M145 477v998h356v-998h-356zM137 0v354h370v-354h-370z" />
    <glyph glyph-name="quotedbl" unicode="&#x22;" horiz-adv-x="1001" 
d="M109 885v553h322v-553h-322zM571 885v553h322v-553h-322z" />
    <glyph glyph-name="numbersign" unicode="#" horiz-adv-x="1341" 
d="M1258 817h-151l-29 -206h132v-303h-182l-45 -306h-319l45 306h-183l-49 -306h-321l49 306h-123v303h172l33 206h-158v292h205l49 325h321l-49 -325h175l49 325h319l-49 -325h109v-292zM760 611l30 206h-184l-34 -206h188z" />
    <glyph glyph-name="dollar" unicode="$" horiz-adv-x="1247" 
d="M1177 422q0 -179 -105.5 -291t-288.5 -146v-143h-306v143q-190 35 -297 154t-107 304h391q0 -66 46.5 -102.5t114.5 -36.5q64 0 109.5 30t45.5 81q0 21 -7.5 38t-26 30.5t-34.5 23t-50.5 20t-54 15.5t-63.5 16q-45 11 -68.5 17t-68 20t-70 25.5t-63.5 31.5t-60.5 40.5
t-48.5 51t-40.5 64t-24 78t-9.5 95.5q0 165 97.5 271t274.5 138v135h306v-137q175 -34 269.5 -145t94.5 -282l-380 -1q0 58 -40.5 89t-102.5 31q-55 0 -94.5 -22.5t-39.5 -64.5q0 -23 13 -42t30 -31t53.5 -25t61.5 -20t76 -20q175 -45 255 -86q203 -104 212 -326v-21z" />
    <glyph glyph-name="percent" unicode="%" horiz-adv-x="1773" 
d="M404 707q-156 0 -254 95t-98 246t98 246t254 95q157 0 254 -94.5t97 -246.5t-97.5 -246.5t-253.5 -94.5zM337 0l821 1362h269l-821 -1362h-269zM404 943q45 0 74 29.5t29 75.5q0 47 -29 76t-74 29t-74.5 -29.5t-29.5 -75.5t29.5 -75.5t74.5 -29.5zM1371 -23
q-156 0 -254 95t-98 246t98.5 246.5t253.5 95.5t253 -95.5t98 -246.5t-98 -246t-253 -95zM1371 213q46 0 74.5 29.5t28.5 75.5q0 47 -28.5 76t-74.5 29q-45 0 -74.5 -29.5t-29.5 -75.5t29.5 -75.5t74.5 -29.5z" />
    <glyph glyph-name="ampersand" unicode="&#x26;" horiz-adv-x="1357" 
d="M1371 0h-376q-45 49 -69 76q-175 -108 -394 -108q-207 0 -336.5 117.5t-129.5 306.5q0 134 67 230t182 173q-79 113 -107.5 186t-28.5 141q0 169 123 265t312 96q186 0 308.5 -96.5t122.5 -263.5q0 -57 -17.5 -108.5t-43.5 -90t-68.5 -77t-80.5 -65.5t-91 -59
q73 -88 173 -203q37 78 44 167h311q-10 -235 -138 -416q141 -160 237 -271zM614 1216q-48 0 -78 -28t-30 -76q0 -60 69 -166q71 42 108 81t37 85q0 47 -30 75.5t-76 28.5zM562 270q80 0 154 37q-139 157 -220 255q-86 -76 -86 -159q0 -60 41.5 -96.5t110.5 -36.5z" />
    <glyph glyph-name="quotesingle" unicode="'" horiz-adv-x="540" 
d="M109 885v553h322v-553h-322z" />
    <glyph glyph-name="parenleft" unicode="(" horiz-adv-x="761" 
d="M371 -335q-141 205 -219 456t-78 526q0 276 77.5 528t219.5 459h406q-60 -77 -116 -177t-106.5 -226t-81 -278.5t-30.5 -305.5q0 -152 29.5 -304t79 -277t105 -225t116.5 -176h-402z" />
    <glyph glyph-name="parenright" unicode=")" horiz-adv-x="761" 
d="M392 -335h-402q61 76 116.5 176t105 225t79 277t29.5 304q0 153 -30.5 305.5t-81 278.5t-106.5 226t-116 177h406q142 -207 219.5 -459t77.5 -528q0 -275 -78 -526t-219 -456z" />
    <glyph glyph-name="asterisk" unicode="*" horiz-adv-x="882" 
d="M824 1115l-169 -59l119 -138l-197 -166l-136 163l-135 -163l-197 166l117 137l-167 60l85 241l170 -62v185h255v-185l169 62z" />
    <glyph glyph-name="plus" unicode="+" horiz-adv-x="1120" 
d="M1056 832v-322h-324v-349h-344v349h-325v322h325v340h344v-340h324z" />
    <glyph glyph-name="comma" unicode="," horiz-adv-x="583" 
d="M121 -358v189q79 7 121 54t42 115h-178v354h372v-324q0 -165 -98 -269.5t-259 -118.5z" />
    <glyph glyph-name="hyphen" unicode="-" horiz-adv-x="972" 
d="M112 394v346h750v-346h-750z" />
    <glyph glyph-name="period" unicode="." horiz-adv-x="581" 
d="M106 0v354h369v-354h-369z" />
    <glyph glyph-name="slash" unicode="/" horiz-adv-x="1103" 
d="M37 -172l629 1731h399l-628 -1731h-400z" />
    <glyph glyph-name="zero" unicode="0" horiz-adv-x="1351" 
d="M676 -36q-272 0 -434.5 194.5t-162.5 520.5q0 327 162.5 521.5t434.5 194.5t434 -194.5t162 -521.5q0 -326 -162 -520.5t-434 -194.5zM676 289q107 0 164.5 100.5t57.5 288.5t-57.5 290t-164.5 102t-165 -101.5t-58 -289.5t58 -289t165 -101z" />
    <glyph glyph-name="one" unicode="1" horiz-adv-x="772" 
d="M61 1362h568v-1362h-366v1053h-202v309z" />
    <glyph glyph-name="two" unicode="2" horiz-adv-x="1157" 
d="M689 323h379v-323h-1013v83q176 208 277 329.5t178 219t109 151.5t46 92.5t14 75.5q0 55 -33 89t-86 34q-57 0 -90 -36t-33 -98v-26h-360v25q0 208 128.5 333t350.5 125q217 0 352.5 -121t135.5 -313q0 -132 -71 -262.5t-284 -377.5z" />
    <glyph glyph-name="three" unicode="3" horiz-adv-x="1161" 
d="M765 862q147 -37 233.5 -149t86.5 -269q0 -208 -145 -342t-369 -134q-219 0 -357.5 130.5t-144.5 342.5h350q3 -72 44.5 -115.5t108.5 -43.5q70 0 114.5 46.5t44.5 121.5t-47 118t-127 43h-218v76l221 364h-457v311h935v-63z" />
    <glyph glyph-name="four" unicode="4" horiz-adv-x="1200" 
d="M1150 550v-305h-123v-245h-350v245h-654v66l437 1051h361l-337 -812h218l80 300h245v-300h123z" />
    <glyph glyph-name="five" unicode="5" horiz-adv-x="1155" 
d="M572 896q228 0 371 -126.5t143 -327.5q0 -208 -143 -341t-366 -133t-364.5 132.5t-141.5 339.5h350q0 -69 43.5 -113.5t112.5 -44.5q67 0 111 45.5t44 114.5q0 74 -46.5 119.5t-121.5 45.5h-424l-35 45l76 710h807v-310h-526l-17 -156h127z" />
    <glyph glyph-name="six" unicode="6" horiz-adv-x="1193" 
d="M691 919q205 0 334 -124.5t129 -321.5q0 -224 -150 -364.5t-390 -140.5q-241 0 -391.5 140t-150.5 363q0 107 36 218t120 251l250 422h393l-270 -450q51 7 90 7zM613 281q84 0 137 53.5t53 138.5q0 86 -53 139.5t-137 53.5q-83 0 -136.5 -53.5t-53.5 -139.5
q0 -85 53.5 -138.5t136.5 -53.5z" />
    <glyph glyph-name="seven" unicode="7" horiz-adv-x="1126" 
d="M50 1362h1046v-53l-516 -1309h-385l417 1043h-562v319z" />
    <glyph glyph-name="eight" unicode="8" horiz-adv-x="1232" 
d="M974 721q182 -116 182 -319q0 -193 -149.5 -313.5t-390.5 -120.5t-389.5 120t-148.5 314q0 205 181 319q-143 116 -143 280q0 177 138 286.5t363 109.5t363 -109.5t138 -286.5q0 -165 -144 -280zM618 1126q-69 0 -113 -38.5t-44 -97.5t44 -97.5t113 -38.5t111.5 38
t42.5 98t-42.5 98t-111.5 38zM618 252q82 0 131.5 45t49.5 117t-49.5 117t-131.5 45t-133 -45t-51 -117t51 -117t133 -45z" />
    <glyph glyph-name="nine" unicode="9" horiz-adv-x="1193" 
d="M581 1397q241 0 391.5 -140t150.5 -363q0 -107 -36.5 -217.5t-119.5 -251.5l-251 -425h-393q45 75 135.5 226.5t135.5 226.5q-44 -6 -90 -6q-205 0 -334 124t-129 321q0 224 150 364.5t390 140.5zM582 697q88 0 144 54.5t56 140.5t-56.5 140t-143.5 54q-88 0 -144 -54
t-56 -140q0 -87 56 -141t144 -54z" />
    <glyph glyph-name="colon" unicode=":" horiz-adv-x="591" 
d="M112 739v354h369v-354h-369zM112 0v354h369v-354h-369z" />
    <glyph glyph-name="semicolon" unicode=";" horiz-adv-x="595" 
d="M114 740v354h369v-354h-369zM127 -358v189q79 7 121 54t42 115h-178v354h371v-324q0 -165 -97.5 -269.5t-258.5 -118.5z" />
    <glyph glyph-name="less" unicode="&#x3c;" horiz-adv-x="1069" 
d="M930 1273v-399l-415 -209l415 -205v-399l-881 542v117z" />
    <glyph glyph-name="equal" unicode="=" horiz-adv-x="1196" 
d="M117 738v310h960v-310h-960zM117 284v310h960v-310h-960z" />
    <glyph glyph-name="greater" unicode="&#x3e;" horiz-adv-x="1069" 
d="M139 1273l880 -553v-117l-880 -542v399l414 205l-414 209v399z" />
    <glyph glyph-name="question" unicode="?" horiz-adv-x="1144" 
d="M366 457v39q0 67 14 123.5t31.5 92t51 71.5t54.5 53t60 45q33 24 50 37.5t38 35.5t29.5 46t8.5 54q0 64 -41.5 103t-101.5 39q-62 0 -107 -40t-45 -109h-358q0 148 70 256t184 160.5t257 52.5q222 0 366.5 -126t144.5 -332q0 -56 -13 -105t-30 -81.5t-49 -67t-53 -52.5
t-60 -48q-38 -29 -56.5 -45t-43 -43t-35 -56t-10.5 -64v-39h-356zM358 0v354h370v-354h-370z" />
    <glyph glyph-name="at" unicode="@" horiz-adv-x="2078" 
d="M1042 1401q157 0 301.5 -38t265 -113t210.5 -179.5t140 -246t50 -303.5q0 -117 -35 -212.5t-94 -156t-135.5 -93t-162.5 -32.5q-96 0 -170.5 34.5t-117.5 97.5q-122 -132 -308 -132q-203 0 -333 131t-130 335t130 334.5t333 130.5q174 0 294 -117l33 54h159v-464
q0 -61 32.5 -96t82.5 -35q61 0 102 57t41 164q0 176 -86 315t-241 217.5t-353 78.5q-201 0 -361.5 -82t-251 -227.5t-90.5 -327.5q0 -178 82 -319t229 -219.5t333 -78.5q164 0 317 63v-264q-186 -67 -359 -67q-251 0 -453 113.5t-317 316t-115 455.5q0 209 79 382
t213.5 286.5t311 175.5t374.5 62zM1016 313q79 0 130 51.5t51 130.5t-51 130t-130 51t-130 -51t-51 -130t51 -130.5t130 -51.5z" />
    <glyph glyph-name="A" unicode="A" horiz-adv-x="1523" 
d="M1089 0l-79 233h-508l-79 -233h-423l563 1434h386l575 -1434h-435zM914 542l-159 444l-157 -444h316z" />
    <glyph glyph-name="B" unicode="B" horiz-adv-x="1333" 
d="M1045 757q102 -48 160.5 -140.5t58.5 -208.5q0 -174 -133 -291t-332 -117h-660v1434h647q191 0 315.5 -104t124.5 -263q0 -95 -49 -177.5t-132 -132.5zM851 1001q0 56 -36 90.5t-98 34.5h-199v-250h199q62 0 98 34.5t36 90.5zM732 324q64 0 103 36.5t39 94.5
q0 57 -39 93.5t-103 36.5h-214v-261h214z" />
    <glyph glyph-name="C" unicode="C" horiz-adv-x="1605" 
d="M826 -36q-215 0 -389.5 98t-273.5 270t-99 384q0 213 99 385.5t273.5 270.5t389.5 98q282 0 481.5 -169.5t243.5 -442.5h-400q-37 111 -124 177t-200 66q-152 0 -252 -109t-100 -276q0 -166 100 -274t252 -108q119 0 206.5 71.5t117.5 191.5h404q-41 -283 -242 -458
t-487 -175z" />
    <glyph glyph-name="D" unicode="D" horiz-adv-x="1525" 
d="M719 1434q214 0 383 -91t263 -254.5t94 -370.5t-94 -370.5t-263 -255.5t-383 -92h-580v1434h580zM700 362q159 0 256.5 98.5t97.5 257.5q0 160 -97.5 257t-256.5 97h-165v-710h165z" />
    <glyph glyph-name="E" unicode="E" horiz-adv-x="1161" 
d="M532 343h541v-343h-934v1434h917v-342h-524v-211h471v-324h-471v-214z" />
    <glyph glyph-name="F" unicode="F" horiz-adv-x="1122" 
d="M1051 1076h-514v-228h461v-346h-461v-502h-398v1434h912v-358z" />
    <glyph glyph-name="G" unicode="G" horiz-adv-x="1644" 
d="M798 766h786q0 -174 -55.5 -323t-154 -254.5t-239.5 -165t-307 -59.5q-162 0 -304 56.5t-242.5 155.5t-158.5 239t-58 301t57 301t157 239.5t241.5 156.5t304.5 57q282 0 490 -159t254 -409h-414q-39 91 -127.5 144.5t-198.5 53.5q-161 0 -260.5 -106t-99.5 -278
q0 -171 99 -276.5t261 -105.5q113 0 202 50t123 133h-356v249z" />
    <glyph glyph-name="H" unicode="H" horiz-adv-x="1503" 
d="M967 1434h399v-1434h-399v550h-430v-550h-398v1434h398v-518h430v518z" />
    <glyph glyph-name="I" unicode="I" horiz-adv-x="677" 
d="M139 0v1434h400v-1434h-400z" />
    <glyph glyph-name="J" unicode="J" horiz-adv-x="1273" 
d="M593 -36q-248 0 -404.5 147t-156.5 381v56h398v-36q0 -82 44.5 -131.5t118.5 -49.5q70 0 114 49.5t44 131.5v922h397v-942q0 -234 -153.5 -381t-401.5 -147z" />
    <glyph glyph-name="K" unicode="K" horiz-adv-x="1386" 
d="M1413 0h-468l-411 633v-633h-395v1434h395v-605l378 605h458l-459 -695z" />
    <glyph glyph-name="L" unicode="L" horiz-adv-x="1087" 
d="M539 362h510v-362h-910v1434h400v-1072z" />
    <glyph glyph-name="M" unicode="M" horiz-adv-x="2011" 
d="M1955 0h-399l-112 826l-380 -828h-117l-380 827l-110 -825h-400l217 1434h394l338 -780l340 780h394z" />
    <glyph glyph-name="N" unicode="N" horiz-adv-x="1556" 
d="M1035 1434h382v-1434h-326l-570 778v-778h-382v1434h345l551 -753v753z" />
    <glyph glyph-name="O" unicode="O" horiz-adv-x="1703" 
d="M853 -36q-228 0 -408 96.5t-280.5 268.5t-100.5 388t100.5 388t280.5 268.5t408 96.5q170 0 316.5 -56.5t250 -155t162.5 -239t59 -302.5t-59 -302.5t-162.5 -239t-250 -155t-316.5 -56.5zM853 331q164 0 270 109t106 277t-106 276.5t-270 108.5t-271 -109t-107 -276
t107 -276.5t271 -109.5z" />
    <glyph glyph-name="P" unicode="P" horiz-adv-x="1320" 
d="M749 1434q229 0 380 -146.5t151 -371.5t-151 -372.5t-380 -147.5h-215v-396h-395v1434h610zM702 741q77 0 124.5 48.5t47.5 125.5t-47.5 125.5t-124.5 48.5h-168v-348h168z" />
    <glyph glyph-name="Q" unicode="Q" horiz-adv-x="1705" 
d="M1706 -195h-420l-161 199q-128 -40 -272 -40q-228 0 -408 96.5t-280.5 268.5t-100.5 388t100.5 388t280.5 268.5t408 96.5q170 0 316.5 -56.5t250 -155t162.5 -239t59 -302.5q0 -166 -61 -308t-172 -244zM475 717q0 -167 107 -276.5t271 -109.5t270 109t106 277
t-106 276.5t-270 108.5t-271 -109t-107 -276z" />
    <glyph glyph-name="R" unicode="R" horiz-adv-x="1384" 
d="M909 0l-232 439h-143v-439h-395v1434h621q233 0 383 -142t150 -366q0 -130 -60 -235t-168 -170l285 -521h-441zM534 1083v-312h180q81 0 127.5 43.5t46.5 112.5t-46.5 112.5t-127.5 43.5h-180z" />
    <glyph glyph-name="S" unicode="S" horiz-adv-x="1288" 
d="M647 -35q-265 0 -421.5 133t-156.5 365h407q0 -73 48.5 -112.5t120.5 -39.5q66 0 114 33t48 89q0 22 -7.5 39.5t-27.5 32t-36.5 24t-53 20.5t-56.5 16.5t-67 16.5q-172 43 -248 80q-193 93 -220 291q-4 33 -4 70q0 210 145.5 327t400.5 117q257 0 399 -124t142 -344h-397
q0 65 -42 99.5t-107 34.5q-57 0 -97.5 -25.5t-40.5 -72.5q0 -20 7.5 -36t26.5 -29.5t36 -23t51.5 -20t55.5 -16.5t66 -17q47 -12 73 -19t73 -22t75 -27.5t68.5 -34.5t65 -44t52.5 -54.5t43.5 -68t26 -82.5t10.5 -100q0 -228 -157.5 -352t-415.5 -124z" />
    <glyph glyph-name="T" unicode="T" horiz-adv-x="1251" 
d="M1214 1434v-356h-390v-1078h-396v1078h-390v356h1176z" />
    <glyph glyph-name="U" unicode="U" horiz-adv-x="1499" 
d="M749 -36q-275 0 -450.5 164t-175.5 427v879h404v-872q0 -105 61.5 -168t160.5 -63t160.5 63t61.5 168v872h404v-879q0 -263 -175.5 -427t-450.5 -164z" />
    <glyph glyph-name="V" unicode="V" horiz-adv-x="1482" 
d="M1029 1434h448l-549 -1434h-367l-561 1434h451l292 -892z" />
    <glyph glyph-name="W" unicode="W" horiz-adv-x="2150" 
d="M1718 1434h420l-442 -1434h-347l-275 692l-270 -692h-348l-449 1434h425l232 -827l342 820h136l348 -820z" />
    <glyph glyph-name="X" unicode="X" horiz-adv-x="1359" 
d="M1365 0h-447l-236 440l-238 -440h-448l431 746l-407 688h445l215 -406l217 406h439l-402 -695z" />
    <glyph glyph-name="Y" unicode="Y" horiz-adv-x="1431" 
d="M1417 1434l-501 -873v-561h-402v562l-497 872h438l262 -518l262 518h438z" />
    <glyph glyph-name="Z" unicode="Z" horiz-adv-x="1234" 
d="M629 368h553v-368h-1135v82l531 984h-496v368h1076v-90z" />
    <glyph glyph-name="bracketleft" unicode="[" horiz-adv-x="743" 
d="M142 -334v1987h532v-290h-199v-1404h203v-293h-536z" />
    <glyph glyph-name="backslash" unicode="\" horiz-adv-x="1103" 
d="M1067 -172h-399l-628 1731h399z" />
    <glyph glyph-name="bracketright" unicode="]" horiz-adv-x="743" 
d="M602 -334h-535v293h202v1404h-198v290h531v-1987z" />
    <glyph glyph-name="asciicircum" unicode="^" horiz-adv-x="1189" 
d="M52 694l489 744h110l488 -744h-395l-150 274l-147 -274h-395z" />
    <glyph glyph-name="underscore" unicode="_" horiz-adv-x="1073" 
d="M0 -409v333h1074v-333h-1074z" />
    <glyph glyph-name="grave" unicode="`" horiz-adv-x="1095" 
d="M719 1228h-279l-225 340h388z" />
    <glyph glyph-name="a" unicode="a" horiz-adv-x="1417" 
d="M1013 1107h284v-1106h-294l-33 78q-143 -115 -334 -115q-167 0 -299.5 75.5t-206.5 210t-74 304.5q0 257 163 421.5t417 164.5q195 0 338 -118zM687 301q107 0 177.5 72t70.5 180t-70.5 180t-177.5 72t-177 -71.5t-70 -180.5q0 -108 70 -180t177 -72z" />
    <glyph glyph-name="b" unicode="b" horiz-adv-x="1406" 
d="M771 1140q256 0 418.5 -165t162.5 -423t-162.5 -423t-418.5 -165q-191 0 -333 118l-36 -82h-282v1505h376v-441q123 76 275 76zM720 301q106 0 177 72t71 179q0 108 -70.5 180t-177.5 72t-177 -72t-70 -180t70 -179.5t177 -71.5z" />
    <glyph glyph-name="c" unicode="c" horiz-adv-x="1302" 
d="M667 -36q-131 0 -245 44.5t-194 122t-126 187.5t-46 236q0 256 172 421t440 165q233 0 393.5 -134.5t192.5 -355.5h-371q-24 68 -83 108.5t-133 40.5q-101 0 -165 -69t-64 -177t64.5 -178t164.5 -70q76 0 134.5 43.5t81.5 117.5h375q-32 -225 -195 -363.5t-396 -138.5z
" />
    <glyph glyph-name="d" unicode="d" horiz-adv-x="1406" 
d="M911 1505h377v-1505h-282l-36 82q-141 -119 -334 -119q-254 0 -417.5 166t-163.5 424t163.5 423.5t417.5 165.5q151 0 275 -77v440zM687 300q107 0 177.5 72.5t70.5 180.5t-70.5 180.5t-177.5 72.5t-177 -72.5t-70 -180.5t70 -180.5t177 -72.5z" />
    <glyph glyph-name="e" unicode="e" horiz-adv-x="1312" 
d="M1259 563q0 -52 -7 -100h-822q19 -95 77 -144t149 -49q67 0 119.5 27.5t80.5 76.5h379q-58 -189 -214.5 -299.5t-364.5 -110.5q-170 0 -307.5 76.5t-215.5 211.5t-78 302q0 254 170.5 421t430.5 167q131 0 244 -45t191.5 -122.5t123 -184.5t44.5 -227zM656 844
q-83 0 -139.5 -43.5t-79.5 -126.5h447q-51 170 -228 170z" />
    <glyph glyph-name="f" unicode="f" horiz-adv-x="884" 
d="M859 1088v-299h-248v-789h-381v789h-183v299h188v106q0 168 91 259.5t265 91.5h266v-292h-168q-43 0 -66.5 -23.5t-23.5 -66.5v-75h260z" />
    <glyph glyph-name="g" unicode="g" horiz-adv-x="1384" 
d="M1006 1106h258v-983q0 -261 -159.5 -412t-433.5 -151q-235 0 -391 111.5t-194 308.5h368q19 -53 79 -83t134 -30q99 0 165 58t66 154v33q-130 -83 -289 -83q-156 0 -283 72t-198.5 199t-71.5 285q0 156 71.5 283t198.5 200t283 73q199 0 349 -128zM672 343q103 0 169 68
t66 174q0 105 -66 173t-169 68t-169.5 -68t-66.5 -173q0 -106 66.5 -174t169.5 -68z" />
    <glyph glyph-name="h" unicode="h" horiz-adv-x="1320" 
d="M796 1139q190 0 303.5 -129t113.5 -344v-666h-381v622q0 192 -144 192q-87 0 -137 -58.5t-50 -164.5v-591h-381v1505h381v-472q130 106 295 106z" />
    <glyph glyph-name="i" unicode="i" horiz-adv-x="620" 
d="M123 1244v324h375v-324h-375zM120 0v1106h381v-1106h-381z" />
    <glyph glyph-name="j" unicode="j" horiz-adv-x="645" 
d="M147 1244v324h375v-324h-375zM-87 -421v336h94q67 0 102 37.5t35 108.5v1045h381v-1076q0 -213 -123.5 -332t-345.5 -119h-143z" />
    <glyph glyph-name="k" unicode="k" horiz-adv-x="1222" 
d="M1243 0h-449l-277 468v-468h-381v1505h381v-832l264 433h427l-344 -527z" />
    <glyph glyph-name="l" unicode="l" horiz-adv-x="620" 
d="M120 0v1505h381v-1505h-381z" />
    <glyph glyph-name="m" unicode="m" horiz-adv-x="1923" 
d="M1422 1139q177 0 285.5 -124.5t108.5 -320.5v-694h-381v647q0 171 -123 171q-158 0 -158 -212v-606h-371v647q0 171 -122 171q-77 0 -118.5 -54.5t-41.5 -157.5v-606h-381v1106h268l54 -119q61 71 145 111.5t178 40.5q100 0 182.5 -43t134.5 -120q60 76 149 119.5
t191 43.5z" />
    <glyph glyph-name="n" unicode="n" horiz-adv-x="1320" 
d="M788 1139q193 0 309 -127t116 -338v-674h-381v622q0 192 -144 192q-89 0 -138 -58.5t-49 -164.5v-591h-381v1106h267l52 -114q62 70 152.5 108.5t196.5 38.5z" />
    <glyph glyph-name="o" unicode="o" horiz-adv-x="1351" 
d="M675 -36q-178 0 -320 75.5t-221 210t-79 303.5q0 257 174.5 423t445.5 166q177 0 319 -75t222 -210t80 -304t-80 -303.5t-222 -210t-319 -75.5zM675 306q105 0 172 69t67 178t-67.5 178t-171.5 69q-105 0 -171.5 -69t-66.5 -178t66.5 -178t171.5 -69z" />
    <glyph glyph-name="p" unicode="p" horiz-adv-x="1400" 
d="M766 1142q254 0 417 -165.5t163 -423.5q0 -170 -74 -305t-206.5 -210t-299.5 -75q-149 0 -270 73v-435h-376v1505h259l48 -88q143 124 339 124zM715 300q107 0 177.5 72t70.5 181t-70.5 181t-177.5 72t-177.5 -72t-70.5 -181t70.5 -181t177.5 -72z" />
    <glyph glyph-name="q" unicode="q" horiz-adv-x="1400" 
d="M1023 1106h259v-1505h-377v435q-121 -73 -270 -73q-167 0 -299.5 75t-206.5 210t-74 305q0 258 163 423.5t417 165.5q196 0 339 -124zM686 300q107 0 177.5 72.5t70.5 180.5t-70.5 180.5t-177.5 72.5t-177 -72.5t-70 -180.5t70.5 -180.5t176.5 -72.5z" />
    <glyph glyph-name="r" unicode="r" horiz-adv-x="864" 
d="M739 1111h101v-348h-148q-101 0 -146 -47.5t-45 -153.5v-562h-381v1106h255l59 -123q58 67 131.5 97.5t173.5 30.5z" />
    <glyph glyph-name="s" unicode="s" horiz-adv-x="1093" 
d="M546 -36q-224 0 -355 108.5t-133 290.5h367q0 -58 36 -88.5t93 -30.5q45 0 76.5 22.5t31.5 63.5q0 43 -46.5 63.5t-143.5 36.5q-44 7 -76.5 14t-77 20.5t-76 29.5t-65.5 42.5t-55.5 59t-35 79t-13.5 102.5q0 166 130 265.5t343 99.5q210 0 337.5 -102.5t130.5 -271.5
h-357q0 52 -31 78t-85 26q-46 0 -74 -22t-28 -60q0 -18 10 -32t24.5 -23t41 -16.5t48.5 -12t59 -11.5q4 -1 6 -1q154 -27 222 -56q179 -77 185 -277v-15q0 -173 -134 -277.5t-355 -104.5z" />
    <glyph glyph-name="t" unicode="t" horiz-adv-x="923" 
d="M719 334h147v-334h-262q-184 0 -289 105.5t-105 289.5v418h-202v89l495 527h79v-323h278v-293h-269v-352q0 -59 34 -93t94 -34z" />
    <glyph glyph-name="u" unicode="u" horiz-adv-x="1300" 
d="M651 -36q-246 0 -396 140t-150 371v631h381v-615q0 -87 44 -136t121 -49t120 49t43 136v615h381v-631q0 -231 -149 -371t-395 -140z" />
    <glyph glyph-name="v" unicode="v" horiz-adv-x="1243" 
d="M834 1106h407l-445 -1106h-345l-450 1106h417l209 -655z" />
    <glyph glyph-name="w" unicode="w" horiz-adv-x="1775" 
d="M1376 1106h389l-352 -1106h-307l-219 495l-214 -495h-307l-361 1106h399l167 -581l262 577h102l276 -582z" />
    <glyph glyph-name="x" unicode="x" horiz-adv-x="1187" 
d="M1201 0h-426l-182 328l-185 -328h-421l367 574l-340 532h420l160 -279l167 279h415l-343 -522z" />
    <glyph glyph-name="y" unicode="y" horiz-adv-x="1269" 
d="M867 1106h409l-463 -1057q-77 -174 -152.5 -271.5t-175.5 -143.5t-244 -46h-131v328h105q108 0 155 35t87 140l-457 1015h413l235 -609z" />
    <glyph glyph-name="z" unicode="z" horiz-adv-x="1056" 
d="M575 339h422v-339h-955v57l423 713h-386v336h913v-62z" />
    <glyph glyph-name="braceleft" unicode="{" horiz-adv-x="796" 
d="M564 898q0 -91 -45.5 -162.5t-121.5 -100.5q75 -29 119 -100t44 -163v-420h156v-302h-238q-111 0 -189.5 78t-78.5 190v472q0 46 -33 78.5t-80 32.5h-42v266h42q47 0 80 33t33 80v477q0 110 79 188t189 78h238v-300h-152v-425z" />
    <glyph glyph-name="bar" unicode="|" horiz-adv-x="649" 
d="M143 -389v2109h362v-2109h-362z" />
    <glyph glyph-name="braceright" unicode="}" horiz-adv-x="796" 
d="M699 767h42v-266h-42q-47 0 -80 -32.5t-33 -78.5v-472q0 -112 -78.5 -190t-189.5 -78h-238v302h156v420q0 92 44 163t119 100q-76 29 -121.5 100.5t-45.5 162.5v425h-152v300h238q110 0 189 -78t79 -188v-477q0 -47 33 -80t80 -33z" />
    <glyph glyph-name="asciitilde" unicode="~" horiz-adv-x="1206" 
d="M793 457q-53 0 -103.5 14t-77.5 28t-67 39q-73 42 -107 42q-36 0 -59.5 -25t-23.5 -65v-29h-255v37q0 168 85.5 267t240.5 99q52 0 100.5 -14.5t71 -27t64.5 -39.5q28 -18 40.5 -25t34.5 -15t42 -8q38 0 60 25t22 69v33h255v-37q0 -172 -86.5 -270t-236.5 -98z" />
    <glyph glyph-name="uni00A0" unicode="&#xa0;" horiz-adv-x="444" 
 />
    <glyph glyph-name="exclamdown" unicode="&#xa1;" horiz-adv-x="624" 
d="M498 1106v-354h-369v354h369zM491 629v-998h-356v998h356z" />
    <glyph glyph-name="cent" unicode="&#xa2;" horiz-adv-x="1267" 
d="M1214 445q-25 -173 -135.5 -293.5t-275.5 -159.5v-150h-306v151q-191 45 -307 190.5t-116 345.5q0 201 115.5 345.5t307.5 189.5v171h306v-170q165 -39 273.5 -156.5t133.5 -287.5h-355q-23 62 -78.5 99t-123.5 37q-94 0 -154 -63.5t-60 -165.5q0 -100 60.5 -165
t153.5 -65q71 0 125.5 40t77.5 107h358z" />
    <glyph glyph-name="sterling" unicode="&#xa3;" horiz-adv-x="1257" 
d="M868 429h313v-429h-1100v219l123 56v257h-99v260h99v195q0 188 130 301t346 113q210 0 331.5 -111.5t121.5 -302.5v-31h-328v25q0 63 -34 99t-91 36q-58 0 -93 -36.5t-35 -98.5v-189h246v-260h-246v-242h316v139z" />
    <glyph glyph-name="currency" unicode="&#xa4;" horiz-adv-x="1275" 
d="M1207 264l-214 -212l-144 146q-101 -52 -212 -52t-212 52l-141 -145l-214 213l141 144q-52 102 -52 213q0 117 57 223l-139 142l212 213l147 -147q98 46 201 46q107 0 202 -46l146 147l213 -213l-141 -142q57 -106 57 -223q0 -111 -52 -213zM453 625q0 -75 54.5 -130
t129.5 -54t127.5 54.5t52.5 129.5q0 74 -52.5 127.5t-127.5 53.5t-129.5 -52.5t-54.5 -128.5z" />
    <glyph glyph-name="yen" unicode="&#xa5;" horiz-adv-x="1423" 
d="M1375 1362l-465 -743h305v-200h-323v-91h323v-188h-323v-140h-362v140h-323v188h323v91h-323v200h302l-460 743h390l271 -490l275 490h390z" />
    <glyph glyph-name="brokenbar" unicode="&#xa6;" horiz-adv-x="649" 
d="M143 819v901h362v-901h-362zM143 -389v921h362v-921h-362z" />
    <glyph glyph-name="section" unicode="&#xa7;" horiz-adv-x="1107" 
d="M1032 654q0 -158 -123 -261q76 -81 76 -196q0 -164 -114.5 -254.5t-312.5 -90.5q-202 0 -320 98.5t-118 267.5h314q0 -48 36.5 -73.5t88.5 -25.5q44 0 74 19.5t30 53.5q0 19 -11 35t-25.5 26t-45 21t-51.5 16.5l-63 16.5q-37 9 -58.5 14.5t-58.5 17t-60 21.5t-55 26.5
t-52 34t-42 43t-34.5 53.5t-21 65t-8.5 79q0 164 127 262q-80 78 -80 195q0 165 113.5 256t310.5 91q200 0 317.5 -100t117.5 -269h-314q0 48 -35.5 74t-86.5 26q-43 0 -72 -19.5t-29 -53.5q0 -19 11 -35t26 -26.5t45 -21.5t52 -17t63 -16q48 -12 76 -19.5t74.5 -24t75 -33
t63 -44t54 -58.5t33 -76t13.5 -98zM398 678q1 -49 54.5 -78.5t157.5 -54.5q8 -2 26 -8q77 32 74 103q-1 54 -56 84.5t-164 56.5l-7.5 2.5t-6.5 2.5q-37 -15 -58 -43t-20 -65z" />
    <glyph glyph-name="dieresis" unicode="&#xa8;" horiz-adv-x="1288" 
d="M885 1563v-321h-382v321h382z" />
    <glyph glyph-name="copyright" unicode="&#xa9;" horiz-adv-x="1701" 
d="M851 -30q-221 0 -398.5 94.5t-278.5 265t-101 385.5t101 386t278.5 266t398.5 95q220 0 398 -95t279 -266t101 -386t-101 -385.5t-278.5 -265t-398.5 -94.5zM851 172q244 0 400 152t156 391q0 240 -156.5 392.5t-399.5 152.5t-399.5 -152.5t-156.5 -392.5
q0 -239 156 -391t400 -152zM855 330q-177 0 -292 110t-115 278q0 171 113.5 279.5t292.5 108.5q154 0 259.5 -88t126.5 -234h-246q-16 44 -53 69.5t-86 25.5q-67 0 -110.5 -45t-43.5 -116q0 -69 43.5 -114t110.5 -45q50 0 87 27.5t53 74.5h248q-22 -149 -128.5 -240
t-259.5 -91z" />
    <glyph glyph-name="ordfeminine" unicode="&#xaa;" horiz-adv-x="935" 
d="M644 1451h179v-678h-185l-24 56q-88 -72 -206 -72q-149 0 -248.5 101t-99.5 255q0 153 99.5 254.5t248.5 101.5q118 0 209 -76zM445 964q63 0 104.5 42.5t41.5 106.5t-41.5 106.5t-104.5 42.5t-105 -43t-42 -106q0 -64 42 -106.5t105 -42.5z" />
    <glyph glyph-name="guillemotleft" unicode="&#xab;" horiz-adv-x="1482" 
d="M375 91l-321 437v37l321 437h424l-328 -455l328 -456h-424zM1002 91l-322 437v37l322 437h423l-328 -455l328 -456h-423z" />
    <glyph glyph-name="logicalnot" unicode="&#xac;" horiz-adv-x="1245" 
d="M89 913h1032v-668h-351v336h-681v332z" />
    <glyph glyph-name="registered" unicode="&#xae;" horiz-adv-x="1048" 
d="M524 1462q195 0 323 -128.5t128 -323.5t-128 -323.5t-323 -128.5t-323 128.5t-128 323.5t128 323.5t323 128.5zM524 696q135 0 224 88.5t89 225.5q0 136 -89 225t-224 89q-137 0 -225 -89t-88 -225t89 -225t224 -89zM715 1067q0 -83 -63 -123l76 -140h-141l-61 115h-37
v-115h-133v419h204q69 0 112 -43.5t43 -112.5zM489 1109v-81h47q45 0 45 41q0 40 -45 40h-47z" />
    <glyph glyph-name="macron" unicode="&#xaf;" horiz-adv-x="1044" 
d="M179 1259v265h686v-265h-686z" />
    <glyph glyph-name="degree" unicode="&#xb0;" horiz-adv-x="796" 
d="M397 1049q-146 0 -247.5 98t-101.5 238q0 139 101.5 237.5t247.5 98.5t249 -98.5t103 -237.5q0 -140 -103 -238t-249 -98zM399 1276q48 0 79.5 31.5t31.5 77.5t-31.5 77.5t-79.5 31.5t-79.5 -31.5t-31.5 -77.5t31.5 -77.5t79.5 -31.5z" />
    <glyph glyph-name="plusminus" unicode="&#xb1;" horiz-adv-x="1181" 
d="M419 439v276h-309v321h309v291h343v-291h309v-321h-309v-276h-343zM104 283h975v-307h-975v307z" />
    <glyph glyph-name="acute" unicode="&#xb4;" horiz-adv-x="1103" 
d="M193 1228l117 340h388l-225 -340h-280z" />
    <glyph glyph-name="paragraph" unicode="&#xb6;" horiz-adv-x="1474" 
d="M1398 1434v-334h-188v-1278h-324v1278h-147v-1278h-323v698q-164 41 -264 162t-100 282q0 203 145 336.5t373 133.5h828z" />
    <glyph glyph-name="periodcentered" unicode="&#xb7;" horiz-adv-x="591" 
d="M112 559v354h369v-354h-369z" />
    <glyph glyph-name="cedilla" unicode="&#xb8;" horiz-adv-x="978" 
d="M422 -67q91 -10 144.5 -62t53.5 -134q0 -95 -73.5 -154t-189.5 -59h-159v167h132q29 0 46.5 16t17.5 41t-17.5 41t-46.5 16h-94l-19 25l80 285h177z" />
    <glyph glyph-name="ordmasculine" unicode="&#xba;" horiz-adv-x="876" 
d="M438 758q-166 0 -272 99.5t-106 255.5t106 256t272 100t271.5 -100t105.5 -256t-105.5 -255.5t-271.5 -99.5zM438 973q60 0 98.5 39t38.5 101q0 61 -38.5 100.5t-98.5 39.5q-61 0 -99.5 -39.5t-38.5 -100.5q0 -62 38.5 -101t99.5 -39z" />
    <glyph glyph-name="guillemotright" unicode="&#xbb;" horiz-adv-x="1482" 
d="M482 91h-424l328 456l-328 455h424l321 -437v-37zM1108 91h-424l328 456l-328 455h424l321 -437v-37z" />
    <glyph glyph-name="onequarter" unicode="&#xbc;" horiz-adv-x="1583" 
d="M986 1499h259l-828 -1556h-258zM169 609v624h-130v201h377v-825h-247zM1543 337v-194h-76v-144h-227v144h-399v53l263 627h236l-200 -486h117l57 186h153v-186h76z" />
    <glyph glyph-name="onehalf" unicode="&#xbd;" horiz-adv-x="1626" 
d="M986 1499h259l-828 -1556h-258zM169 609v624h-130v201h377v-825h-247zM1339 208h226v-208h-630v66q172 198 247.5 291t102 138.5t26.5 79.5q0 32 -17 51.5t-46 19.5q-33 0 -52 -20.5t-19 -56.5v-20h-230v15q0 134 79 209.5t221 75.5q133 0 217.5 -73t84.5 -190
q0 -79 -46 -159t-164 -219z" />
    <glyph glyph-name="threequarters" unicode="&#xbe;" horiz-adv-x="1787" 
d="M1189 1499h259l-828 -1556h-258zM675 880q0 -127 -89 -208t-228 -81q-136 0 -221 79.5t-89 208.5h216q2 -43 27.5 -69.5t67.5 -26.5q41 0 68 28t27 72t-28 70t-76 26h-133v48l128 211h-274v196h577v-39l-165 -263q88 -23 140 -90.5t52 -161.5zM1746 337v-194h-76v-144
h-227v144h-399v53l264 627h235l-200 -486h117l58 186h152v-186h76z" />
    <glyph glyph-name="questiondown" unicode="&#xbf;" horiz-adv-x="1128" 
d="M776 1106v-354h-370v354h370zM768 649v-39q0 -67 -14 -123.5t-31.5 -92t-51 -71.5t-54.5 -53t-60 -45q-33 -24 -50 -37.5t-38 -35.5t-29.5 -46t-8.5 -54q0 -64 41.5 -103t101.5 -39q62 0 107 40t45 109h358q0 -148 -70 -256t-184 -160.5t-257 -52.5q-222 0 -366.5 126
t-144.5 332q0 56 13 105t30 81.5t49 67t53 52.5t60 48t57 45.5t43 42.5t35 56t10 64v39h356z" />
    <glyph glyph-name="Agrave" unicode="&#xc0;" horiz-adv-x="1523" 
d="M629 1560l-263 318h397l145 -318h-279zM1089 0l-79 233h-508l-79 -233h-423l563 1434h386l575 -1434h-435zM914 542l-159 444l-157 -444h316z" />
    <glyph glyph-name="Aacute" unicode="&#xc1;" horiz-adv-x="1523" 
d="M1144 1878l-264 -318h-279l145 318h398zM1089 0l-79 233h-508l-79 -233h-423l563 1434h386l575 -1434h-435zM914 542l-159 444l-157 -444h316z" />
    <glyph glyph-name="Acircumflex" unicode="&#xc2;" horiz-adv-x="1523" 
d="M754 1705l-146 -145h-298l243 318h401l244 -318h-296zM1089 0l-79 233h-508l-79 -233h-423l563 1434h386l575 -1434h-435zM914 542l-159 444l-157 -444h316z" />
    <glyph glyph-name="Atilde" unicode="&#xc3;" horiz-adv-x="1523" 
d="M903 1552q-12 0 -25 1.5t-22.5 2.5t-22.5 5t-20.5 5.5t-21 7.5l-18 8t-19 9t-17 8.5t-17 9.5t-15.5 8q-65 35 -89 36q-29 1 -48 -20t-19 -54v-20h-207v25q0 139 68.5 220t194.5 81q88 0 191 -65q62 -40 95 -40q31 0 48.5 20t17.5 55v24h208v-27q0 -140 -70 -220t-192 -80
zM1089 0l-79 233h-508l-79 -233h-423l563 1434h386l575 -1434h-435zM914 542l-159 444l-157 -444h316z" />
    <glyph glyph-name="Adieresis" unicode="&#xc4;" horiz-adv-x="1523" 
d="M319 1560v318h351v-318h-351zM841 1560v318h350v-318h-350zM1089 0l-79 233h-508l-79 -233h-423l563 1434h386l575 -1434h-435zM914 542l-159 444l-157 -444h316z" />
    <glyph glyph-name="Aring" unicode="&#xc5;" horiz-adv-x="1523" 
d="M754 1504q-127 0 -208 76t-81 198t81 198t208 76t207.5 -76t80.5 -198t-80.5 -198t-207.5 -76zM754 1669q48 0 80.5 31t32.5 78t-32.5 77.5t-80.5 30.5q-49 0 -80.5 -30.5t-31.5 -77.5t31.5 -78t80.5 -31zM1089 0l-79 233h-508l-79 -233h-423l563 1434h386l575 -1434
h-435zM914 542l-159 444l-157 -444h316z" />
    <glyph glyph-name="AE" unicode="&#xc6;" horiz-adv-x="1941" 
d="M1326 343h527v-343h-908v231h-423l-129 -231h-436l824 1434h1055v-341h-510v-212h456v-324h-456v-214zM692 538h253v453z" />
    <glyph glyph-name="Ccedilla" unicode="&#xc7;" horiz-adv-x="1605" 
d="M1555 597q-37 -260 -212 -431t-429 -198l-8 -31q87 -19 135.5 -72t48.5 -132q0 -94 -73.5 -155.5t-195.5 -61.5h-187v173h155q30 0 48.5 16.5t18.5 42.5t-18.5 42t-48.5 16h-106l-16 20l36 147q-185 27 -330.5 129.5t-227 262.5t-81.5 351q0 213 99 385.5t273.5 270.5
t389.5 98q282 0 481.5 -169.5t243.5 -442.5h-400q-37 111 -124 177t-200 66q-152 0 -252 -109t-100 -276q0 -166 100 -274t252 -108q119 0 206.5 71.5t117.5 191.5h404z" />
    <glyph glyph-name="Egrave" unicode="&#xc8;" horiz-adv-x="1161" 
d="M475 1560l-263 318h398l145 -318h-280zM532 343h541v-343h-934v1434h917v-342h-524v-211h471v-324h-471v-214z" />
    <glyph glyph-name="Eacute" unicode="&#xc9;" horiz-adv-x="1161" 
d="M990 1878l-263 -318h-279l144 318h398zM532 343h541v-343h-934v1434h917v-342h-524v-211h471v-324h-471v-214z" />
    <glyph glyph-name="Ecircumflex" unicode="&#xca;" horiz-adv-x="1161" 
d="M600 1705l-146 -145h-297l243 318h401l244 -318h-297zM532 343h541v-343h-934v1434h917v-342h-524v-211h471v-324h-471v-214z" />
    <glyph glyph-name="Edieresis" unicode="&#xcb;" horiz-adv-x="1161" 
d="M166 1560v318h350v-318h-350zM688 1560v318h350v-318h-350zM532 343h541v-343h-934v1434h917v-342h-524v-211h471v-324h-471v-214z" />
    <glyph glyph-name="Igrave" unicode="&#xcc;" horiz-adv-x="677" 
d="M481 1560h-286l-177 318h390zM139 0v1434h400v-1434h-400z" />
    <glyph glyph-name="Iacute" unicode="&#xcd;" horiz-adv-x="677" 
d="M192 1560l114 318h389l-228 -318h-275zM139 0v1434h400v-1434h-400z" />
    <glyph glyph-name="Icircumflex" unicode="&#xce;" horiz-adv-x="677" 
d="M338 1699l-121 -139h-289l222 318h376l223 -318h-289zM139 0v1434h400v-1434h-400z" />
    <glyph glyph-name="Idieresis" unicode="&#xcf;" horiz-adv-x="677" 
d="M-78 1560v318h348v-318h-348zM405 1560v318h347v-318h-347zM139 0v1434h400v-1434h-400z" />
    <glyph glyph-name="Eth" unicode="&#xd0;" horiz-adv-x="1599" 
d="M793 1434q214 0 383 -91t263 -254.5t94 -370.5t-94 -370.5t-263 -255.5t-383 -92h-581v560h-171v316h171v558h581zM774 362q159 0 256.5 98.5t97.5 257.5q0 160 -97.5 257t-256.5 97h-165v-196h238v-316h-238v-198h165z" />
    <glyph glyph-name="Ntilde" unicode="&#xd1;" horiz-adv-x="1556" 
d="M577 1579v-20h-207v25q0 139 68.5 220t194.5 81q88 0 191 -65q62 -40 95 -40q31 0 48.5 20t17.5 55v24h208v-27q0 -140 -70 -220t-192 -80q-12 0 -25 1.5t-22.5 2.5t-22.5 5t-20.5 5.5t-21 7.5l-18 8t-19 9t-17 8.5t-17 9.5t-15.5 8q-65 35 -89 36q-29 1 -48 -20t-19 -54
zM1035 1434h382v-1434h-326l-570 778v-778h-382v1434h345l551 -753v753z" />
    <glyph glyph-name="Ograve" unicode="&#xd2;" horiz-adv-x="1703" 
d="M728 1560l-263 318h397l145 -318h-279zM853 -36q-228 0 -408 96.5t-280.5 268.5t-100.5 388t100.5 388t280.5 268.5t408 96.5q170 0 316.5 -56.5t250 -155t162.5 -239t59 -302.5t-59 -302.5t-162.5 -239t-250 -155t-316.5 -56.5zM853 331q164 0 270 109t106 277
t-106 276.5t-270 108.5t-271 -109t-107 -276t107 -276.5t271 -109.5z" />
    <glyph glyph-name="Oacute" unicode="&#xd3;" horiz-adv-x="1703" 
d="M700 1560l145 318h398l-264 -318h-279zM853 -36q-228 0 -408 96.5t-280.5 268.5t-100.5 388t100.5 388t280.5 268.5t408 96.5q170 0 316.5 -56.5t250 -155t162.5 -239t59 -302.5t-59 -302.5t-162.5 -239t-250 -155t-316.5 -56.5zM853 331q164 0 270 109t106 277
t-106 276.5t-270 108.5t-271 -109t-107 -276t107 -276.5t271 -109.5z" />
    <glyph glyph-name="Ocircumflex" unicode="&#xd4;" horiz-adv-x="1703" 
d="M1297 1560h-296l-148 145l-146 -145h-298l243 318h401zM853 -36q-228 0 -408 96.5t-280.5 268.5t-100.5 388t100.5 388t280.5 268.5t408 96.5q170 0 316.5 -56.5t250 -155t162.5 -239t59 -302.5t-59 -302.5t-162.5 -239t-250 -155t-316.5 -56.5zM853 331q164 0 270 109
t106 277t-106 276.5t-270 108.5t-271 -109t-107 -276t107 -276.5t271 -109.5z" />
    <glyph glyph-name="Otilde" unicode="&#xd5;" horiz-adv-x="1703" 
d="M1002 1552q-12 0 -25 1.5t-22.5 2.5t-22.5 5t-20.5 5.5t-21 7.5l-18 8t-19 9t-17 8.5t-17 9.5t-15.5 8q-65 35 -89 36q-29 1 -48 -20t-19 -54v-20h-207v25q0 139 68.5 220t194.5 81q88 0 191 -65q62 -40 95 -40q31 0 48.5 20t17.5 55v24h208v-27q0 -140 -70 -220
t-192 -80zM853 -36q-228 0 -408 96.5t-280.5 268.5t-100.5 388t100.5 388t280.5 268.5t408 96.5q170 0 316.5 -56.5t250 -155t162.5 -239t59 -302.5t-59 -302.5t-162.5 -239t-250 -155t-316.5 -56.5zM853 331q164 0 270 109t106 277t-106 276.5t-270 108.5t-271 -109
t-107 -276t107 -276.5t271 -109.5z" />
    <glyph glyph-name="Odieresis" unicode="&#xd6;" horiz-adv-x="1703" 
d="M418 1560v318h351v-318h-351zM940 1560v318h350v-318h-350zM853 -36q-228 0 -408 96.5t-280.5 268.5t-100.5 388t100.5 388t280.5 268.5t408 96.5q170 0 316.5 -56.5t250 -155t162.5 -239t59 -302.5t-59 -302.5t-162.5 -239t-250 -155t-316.5 -56.5zM853 331
q164 0 270 109t106 277t-106 276.5t-270 108.5t-271 -109t-107 -276t107 -276.5t271 -109.5z" />
    <glyph glyph-name="multiply" unicode="&#xd7;" horiz-adv-x="1155" 
d="M1082 939l-269 -271l269 -272l-236 -233l-268 269l-268 -269l-237 233l270 272l-270 271l239 235l266 -268l265 268z" />
    <glyph glyph-name="Oslash" unicode="&#xd8;" horiz-adv-x="1742" 
d="M1391 1284q133 -105 209.5 -258t76.5 -324q0 -213 -99.5 -381.5t-278.5 -262.5t-406 -94q-130 0 -258 37l-75 -121h-384l171 271q-131 104 -207 256t-76 319q0 214 100.5 384t280 265t406.5 95q126 0 251 -37l70 118h384zM852 1118q-170 0 -280 -111.5t-110 -283.5
q0 -143 94 -250l373 637q-40 8 -77 8zM888 314q170 0 280.5 111t110.5 283q0 145 -96 254l-373 -639q45 -9 78 -9z" />
    <glyph glyph-name="Ugrave" unicode="&#xd9;" horiz-adv-x="1499" 
d="M624 1560l-264 318h398l145 -318h-279zM749 -36q-275 0 -450.5 164t-175.5 427v879h404v-872q0 -105 61.5 -168t160.5 -63t160.5 63t61.5 168v872h404v-879q0 -263 -175.5 -427t-450.5 -164z" />
    <glyph glyph-name="Uacute" unicode="&#xda;" horiz-adv-x="1499" 
d="M596 1560l145 318h398l-264 -318h-279zM749 -36q-275 0 -450.5 164t-175.5 427v879h404v-872q0 -105 61.5 -168t160.5 -63t160.5 63t61.5 168v872h404v-879q0 -263 -175.5 -427t-450.5 -164z" />
    <glyph glyph-name="Ucircumflex" unicode="&#xdb;" horiz-adv-x="1499" 
d="M1193 1560h-296l-149 145l-145 -145h-298l243 318h401zM749 -36q-275 0 -450.5 164t-175.5 427v879h404v-872q0 -105 61.5 -168t160.5 -63t160.5 63t61.5 168v872h404v-879q0 -263 -175.5 -427t-450.5 -164z" />
    <glyph glyph-name="Udieresis" unicode="&#xdc;" horiz-adv-x="1499" 
d="M314 1560v318h350v-318h-350zM836 1560v318h350v-318h-350zM749 -36q-275 0 -450.5 164t-175.5 427v879h404v-872q0 -105 61.5 -168t160.5 -63t160.5 63t61.5 168v872h404v-879q0 -263 -175.5 -427t-450.5 -164z" />
    <glyph glyph-name="Yacute" unicode="&#xdd;" horiz-adv-x="1431" 
d="M1106 1878l-263 -318h-279l144 318h398zM1417 1434l-501 -873v-561h-402v562l-497 872h438l262 -518l262 518h438z" />
    <glyph glyph-name="Thorn" unicode="&#xde;" horiz-adv-x="1337" 
d="M749 1238q230 0 380.5 -147t150.5 -372q0 -226 -150.5 -373.5t-380.5 -147.5h-215v-198h-395v1434h395v-196h215zM702 544q77 0 124.5 48.5t47.5 125.5t-47.5 125.5t-124.5 48.5h-168v-348h168z" />
    <glyph glyph-name="germandbls" unicode="&#xdf;" horiz-adv-x="1312" 
d="M1042 796q214 -116 214 -347q0 -205 -154.5 -327t-412.5 -122h-90v319h88q91 0 141.5 41t50.5 115t-52 115.5t-145 41.5h-73v296h56q82 0 132.5 43t50.5 111q0 67 -47.5 109t-122.5 42q-84 0 -130.5 -56.5t-46.5 -151.5v-1025h-381v977q0 262 147 410.5t405 148.5
q233 0 379 -121t146 -315q0 -184 -155 -304z" />
    <glyph glyph-name="agrave" unicode="&#xe0;" horiz-adv-x="1417" 
d="M860 1228h-280l-225 340h389zM1013 1107h284v-1106h-295l-32 78q-143 -115 -334 -115q-167 0 -299.5 75.5t-206.5 210t-74 304.5q0 257 163 421.5t417 164.5q195 0 338 -118zM687 301q107 0 177.5 72t70.5 180t-70.5 180t-177.5 72t-177 -71.5t-70 -180.5q0 -108 70 -180
t177 -72z" />
    <glyph glyph-name="aacute" unicode="&#xe1;" horiz-adv-x="1417" 
d="M1039 1568l-225 -340h-279l116 340h388zM1013 1107h284v-1106h-295l-32 78q-143 -115 -334 -115q-167 0 -299.5 75.5t-206.5 210t-74 304.5q0 257 163 421.5t417 164.5q195 0 338 -118zM687 301q107 0 177.5 72t70.5 180t-70.5 180t-177.5 72t-177 -71.5t-70 -180.5
q0 -108 70 -180t177 -72z" />
    <glyph glyph-name="acircumflex" unicode="&#xe2;" horiz-adv-x="1417" 
d="M703 1384l-146 -156h-298l243 340h402l245 -340h-297zM1013 1107h284v-1106h-295l-32 78q-143 -115 -334 -115q-167 0 -299.5 75.5t-206.5 210t-74 304.5q0 257 163 421.5t417 164.5q195 0 338 -118zM687 301q107 0 177.5 72t70.5 180t-70.5 180t-177.5 72t-177 -71.5
t-70 -180.5q0 -108 70 -180t177 -72z" />
    <glyph glyph-name="atilde" unicode="&#xe3;" horiz-adv-x="1417" 
d="M499 1259v-20h-207v25q0 137 69 217t195 80q89 0 190 -64q62 -40 95 -40q31 0 48.5 20t17.5 55v23h208v-26q0 -139 -69.5 -218t-191.5 -79q-39 0 -80.5 12.5t-59 21.5t-59.5 31q-63 34 -89 34q-29 0 -48 -20t-19 -52zM1013 1107h284v-1106h-295l-32 78
q-143 -115 -334 -115q-167 0 -299.5 75.5t-206.5 210t-74 304.5q0 257 163 421.5t417 164.5q195 0 338 -118zM687 301q107 0 177.5 72t70.5 180t-70.5 180t-177.5 72q-108 0 -178 -72t-70 -180t70.5 -180t177.5 -72z" />
    <glyph glyph-name="adieresis" unicode="&#xe4;" horiz-adv-x="1417" 
d="M612 1563v-321h-345v321h345zM1133 1563v-321h-345v321h345zM1013 1107h284v-1106h-294l-33 78q-143 -115 -334 -115q-167 0 -299.5 75.5t-206.5 210t-74 304.5q0 257 163 421.5t417 164.5q195 0 338 -118zM687 301q107 0 177.5 72t70.5 180t-70.5 180t-177.5 72
t-177 -71.5t-70 -180.5q0 -108 70 -180t177 -72z" />
    <glyph glyph-name="aring" unicode="&#xe5;" horiz-adv-x="1417" 
d="M691 1191q-120 0 -195.5 71t-75.5 186t75.5 186t195.5 71t196 -71t76 -186t-76 -186t-196 -71zM691 1550q-46 0 -75.5 -29t-29.5 -73t29.5 -73t75.5 -29t76 29t30 73t-30 73t-76 29zM1013 1107h284v-1106h-294l-33 78q-143 -115 -334 -115q-167 0 -299.5 75.5t-206.5 210
t-74 304.5q0 257 163 421.5t417 164.5q195 0 338 -118zM687 301q107 0 177.5 72t70.5 180t-70.5 180t-177.5 72t-177 -71.5t-70 -180.5q0 -108 70 -180t177 -72z" />
    <glyph glyph-name="ae" unicode="&#xe6;" horiz-adv-x="2183" 
d="M2130 559q0 -48 -7 -98h-832q20 -91 80.5 -138.5t153.5 -47.5q69 0 123 26t81 73h379q-57 -184 -209 -296t-348 -112q-213 0 -354 130l-12 -96h-218l-13 97q-144 -133 -345 -133q-155 0 -282 77t-199 212t-72 299q0 254 158.5 420.5t394.5 166.5q205 0 350 -137l16 104
h203l15 -100q143 134 358 134q248 0 413.5 -167t165.5 -414zM1526 844q-86 0 -144.5 -44t-83.5 -125h458q-25 82 -84.5 125.5t-145.5 43.5zM685 301q106 0 176 72t70 179q0 108 -70 179.5t-176 71.5t-176 -71.5t-70 -179.5q0 -107 70 -179t176 -72z" />
    <glyph glyph-name="ccedilla" unicode="&#xe7;" horiz-adv-x="1302" 
d="M1258 466q-31 -213 -179 -349.5t-364 -151.5l-9 -32q91 -10 144.5 -62t53.5 -134q0 -95 -73.5 -154t-189.5 -59h-159v167h132q29 0 46.5 16t17.5 41t-17.5 41t-46.5 16h-94l-19 25l40 145q-217 38 -351 196.5t-134 382.5q0 256 172 421t440 165q233 0 393.5 -134.5
t192.5 -355.5h-371q-24 68 -83 108.5t-133 40.5q-101 0 -165 -69t-64 -177t64.5 -178t164.5 -70q76 0 134.5 43.5t81.5 117.5h375z" />
    <glyph glyph-name="egrave" unicode="&#xe8;" horiz-adv-x="1312" 
d="M815 1228h-280l-225 340h389zM1259 563q0 -46 -8 -100h-821q19 -95 77 -144t149 -49q67 0 119.5 27.5t80.5 76.5h379q-58 -189 -214.5 -299.5t-364.5 -110.5q-170 0 -307.5 76.5t-215.5 211.5t-78 302q0 254 170.5 421t430.5 167q131 0 244 -45t191.5 -122.5t123 -184.5
t44.5 -227zM656 844q-83 0 -139.5 -43.5t-79.5 -126.5h447q-51 170 -228 170z" />
    <glyph glyph-name="eacute" unicode="&#xe9;" horiz-adv-x="1312" 
d="M995 1568l-226 -340h-279l116 340h389zM1259 563q0 -46 -8 -100h-821q19 -95 77 -144t149 -49q67 0 119.5 27.5t80.5 76.5h379q-58 -189 -214.5 -299.5t-364.5 -110.5q-170 0 -307.5 76.5t-215.5 211.5t-78 302q0 254 170.5 421t430.5 167q131 0 244 -45t191.5 -122.5
t123 -184.5t44.5 -227zM656 844q-83 0 -139.5 -44t-79.5 -127h447q-25 83 -83.5 127t-144.5 44z" />
    <glyph glyph-name="ecircumflex" unicode="&#xea;" horiz-adv-x="1312" 
d="M658 1384l-146 -156h-297l243 340h401l245 -340h-297zM1259 563q0 -46 -8 -100h-821q19 -95 77 -144t149 -49q67 0 119.5 27.5t80.5 76.5h379q-58 -189 -214.5 -299.5t-364.5 -110.5q-170 0 -307.5 76.5t-215.5 211.5t-78 302q0 254 170.5 421t430.5 167q131 0 244 -45
t191.5 -122.5t123 -184.5t44.5 -227zM656 844q-83 0 -139.5 -44t-79.5 -127h447q-25 83 -83.5 127t-144.5 44z" />
    <glyph glyph-name="edieresis" unicode="&#xeb;" horiz-adv-x="1312" 
d="M567 1563v-321h-345v321h345zM1088 1563v-321h-345v321h345zM1259 563q0 -52 -7 -100h-822q19 -95 77 -144t149 -49q67 0 119.5 27.5t80.5 76.5h379q-58 -189 -214.5 -299.5t-364.5 -110.5q-170 0 -307.5 76.5t-215.5 211.5t-78 302q0 254 170.5 421t430.5 167
q131 0 244 -45t191.5 -122.5t123 -184.5t44.5 -227zM656 844q-83 0 -139.5 -43.5t-79.5 -126.5h447q-51 170 -228 170z" />
    <glyph glyph-name="igrave" unicode="&#xec;" horiz-adv-x="620" 
d="M455 1228h-286l-177 340h390zM120 0v1106h381v-1106h-381z" />
    <glyph glyph-name="iacute" unicode="&#xed;" horiz-adv-x="620" 
d="M152 1228l73 340h390l-177 -340h-286zM120 0v1106h381v-1106h-381z" />
    <glyph glyph-name="icircumflex" unicode="&#xee;" horiz-adv-x="620" 
d="M309 1377l-121 -149h-289l221 340h378l224 -340h-290zM120 0v1106h381v-1106h-381z" />
    <glyph glyph-name="idieresis" unicode="&#xef;" horiz-adv-x="620" 
d="M-89 1237v331h346v-331h-346zM390 1237v331h346v-331h-346zM120 0v1106h381v-1106h-381z" />
    <glyph glyph-name="eth" unicode="&#xf0;" horiz-adv-x="1347" 
d="M889 1487q188 -118 286 -323.5t98 -489.5q0 -327 -166 -518.5t-449 -191.5q-268 0 -435.5 158.5t-167.5 413.5q0 232 153 384t387 152q185 0 321 -122q-29 216 -247 317l-178 -178l-126 118l116 116q-88 15 -185 15v296q242 0 429 -68l138 138l126 -117zM658 301
q101 0 167 67t66 169q0 103 -65.5 170t-167.5 67q-101 0 -167.5 -67.5t-66.5 -169.5t66.5 -169t167.5 -67z" />
    <glyph glyph-name="ntilde" unicode="&#xf1;" horiz-adv-x="1320" 
d="M472 1259v-20h-207v25q0 137 69 217t195 80q89 0 190 -64q62 -40 95 -40q31 0 48.5 20t17.5 55v23h208v-26q0 -139 -70 -218t-192 -79q-12 0 -25 1.5t-22.5 2.5t-22.5 5t-20.5 5.5t-21 7.5l-18 8t-19 9t-17 8.5t-17 9.5t-15.5 8q-63 34 -89 34q-29 0 -48 -20t-19 -52z
M788 1139q193 0 309 -127t116 -338v-674h-381v622q0 192 -144 192q-89 0 -138 -58.5t-49 -164.5v-591h-381v1106h267l52 -114q62 70 152.5 108.5t196.5 38.5z" />
    <glyph glyph-name="ograve" unicode="&#xf2;" horiz-adv-x="1351" 
d="M833 1228h-279l-225 340h388zM675 -36q-178 0 -320 75.5t-221 210t-79 303.5q0 257 174.5 423t445.5 166q177 0 319 -75t222 -210t80 -304t-80 -303.5t-222 -210t-319 -75.5zM675 306q105 0 172 69t67 178t-67.5 178t-171.5 69q-105 0 -171.5 -69t-66.5 -178t66.5 -178
t171.5 -69z" />
    <glyph glyph-name="oacute" unicode="&#xf3;" horiz-adv-x="1351" 
d="M508 1228l116 340h389l-225 -340h-280zM675 -36q-178 0 -320 75.5t-221 210t-79 303.5q0 257 174.5 423t445.5 166q177 0 319 -75t222 -210t80 -304t-80 -303.5t-222 -210t-319 -75.5zM675 306q105 0 172 69t67 178t-67.5 178t-171.5 69q-105 0 -171.5 -69t-66.5 -178
t66.5 -178t171.5 -69z" />
    <glyph glyph-name="ocircumflex" unicode="&#xf4;" horiz-adv-x="1351" 
d="M1122 1228h-297l-149 156l-146 -156h-297l243 340h401zM675 -36q-178 0 -320 75.5t-221 210t-79 303.5q0 257 174.5 423t445.5 166q177 0 319 -75t222 -210t80 -304t-80 -303.5t-222 -210t-319 -75.5zM675 306q105 0 172 69t67 178t-67.5 178t-171.5 69
q-105 0 -171.5 -69t-66.5 -178t66.5 -178t171.5 -69z" />
    <glyph glyph-name="otilde" unicode="&#xf5;" horiz-adv-x="1351" 
d="M827 1232q-12 0 -25 1.5t-22.5 2.5t-22.5 5t-20.5 5.5t-21 7.5l-18 8t-19 9t-17 8.5t-17 9.5t-15.5 8q-63 34 -89 34q-29 0 -48 -20t-19 -52v-20h-208v25q0 137 69 217t195 80q89 0 190 -64q62 -40 95 -40q31 0 48.5 20t17.5 55v23h209v-26q0 -139 -70 -218t-192 -79z
M675 -36q-178 0 -320 75.5t-221 210t-79 303.5q0 257 174.5 423t445.5 166q133 0 248 -44t197 -121.5t128.5 -187t46.5 -236.5q0 -256 -175.5 -422.5t-444.5 -166.5zM675 306q105 0 172 69t67 178t-67.5 178t-171.5 69q-105 0 -171.5 -69t-66.5 -178t66.5 -178t171.5 -69z
" />
    <glyph glyph-name="odieresis" unicode="&#xf6;" horiz-adv-x="1351" 
d="M241 1242v321h344v-321h-344zM762 1242v321h344v-321h-344zM675 -36q-178 0 -320 75.5t-221 210t-79 303.5q0 257 174.5 423t445.5 166q177 0 319 -75t222 -210t80 -304t-80 -303.5t-222 -210t-319 -75.5zM675 306q105 0 172 69t67 178t-67.5 178t-171.5 69
q-105 0 -171.5 -69t-66.5 -178t66.5 -178t171.5 -69z" />
    <glyph glyph-name="divide" unicode="&#xf7;" horiz-adv-x="1105" 
d="M553 914q-75 0 -126.5 51.5t-51.5 126.5q0 74 51.5 125.5t126.5 51.5t126 -51.5t51 -125.5q0 -75 -51 -126.5t-126 -51.5zM65 516v303h975v-303h-975zM553 66q-75 0 -126.5 51.5t-51.5 126.5q0 74 51.5 125.5t126.5 51.5q74 0 125.5 -51.5t51.5 -125.5q0 -75 -51 -126.5
t-126 -51.5z" />
    <glyph glyph-name="oslash" unicode="&#xf8;" horiz-adv-x="1372" 
d="M1082 1013q111 -79 172.5 -199t61.5 -267q0 -168 -78.5 -301.5t-219 -207.5t-318.5 -74q-97 0 -189 25l-64 -114h-288l125 220q-107 79 -167 198t-60 264q0 126 46 234.5t127 185t196 120t248 43.5q96 0 177 -22l62 113h287zM674 809q-113 0 -184 -70.5t-71 -181.5
q0 -96 55 -162l232 412q-20 2 -32 2zM700 295q112 0 182.5 70.5t70.5 181.5q0 98 -57 166l-233 -416q24 -2 37 -2z" />
    <glyph glyph-name="ugrave" unicode="&#xf9;" horiz-adv-x="1300" 
d="M810 1228h-280l-225 340h389zM651 -36q-246 0 -396 140t-150 371v631h381v-615q0 -87 44 -136t121 -49t120 49t43 136v615h381v-631q0 -231 -149 -371t-395 -140z" />
    <glyph glyph-name="uacute" unicode="&#xfa;" horiz-adv-x="1300" 
d="M485 1228l116 340h388l-225 -340h-279zM651 -36q-246 0 -396 140t-150 371v631h381v-615q0 -87 44 -136t121 -49t120 49t43 136v615h381v-631q0 -231 -149 -371t-395 -140z" />
    <glyph glyph-name="ucircumflex" unicode="&#xfb;" horiz-adv-x="1300" 
d="M1099 1228h-297l-149 156l-146 -156h-298l243 340h402zM651 -36q-246 0 -396 140t-150 371v631h381v-615q0 -87 44 -136t121 -49t120 49t43 136v615h381v-631q0 -231 -149 -371t-395 -140z" />
    <glyph glyph-name="udieresis" unicode="&#xfc;" horiz-adv-x="1300" 
d="M217 1242v321h345v-321h-345zM738 1242v321h345v-321h-345zM651 -36q-246 0 -396 140t-150 371v631h381v-615q0 -87 44 -136t121 -49t120 49t43 136v615h381v-631q0 -231 -149 -371t-395 -140z" />
    <glyph glyph-name="yacute" unicode="&#xfd;" horiz-adv-x="1269" 
d="M979 1568l-225 -340h-279l116 340h388zM867 1106h409l-463 -1057q-77 -174 -152.5 -271.5t-175.5 -143.5t-244 -46h-131v328h105q108 0 155 35t87 140l-457 1015h413l235 -609z" />
    <glyph glyph-name="thorn" unicode="&#xfe;" horiz-adv-x="1404" 
d="M773 1140q251 0 413.5 -166t162.5 -422t-161.5 -422.5t-409.5 -166.5q-156 0 -282 79v-441h-376v1898h376v-437q123 78 277 78zM719 300q106 0 176.5 72t70.5 180t-70 180t-177 72t-177.5 -72t-70.5 -180t70.5 -180t177.5 -72z" />
    <glyph glyph-name="ydieresis" unicode="&#xff;" horiz-adv-x="1269" 
d="M207 1242v321h344v-321h-344zM728 1242v321h344v-321h-344zM867 1106h409l-463 -1057q-77 -174 -152.5 -271.5t-175.5 -143.5t-244 -46h-131v328h105q108 0 155 35t87 140l-457 1015h413l235 -609z" />
    <glyph glyph-name="Amacron" unicode="&#x100;" horiz-adv-x="1523" 
d="M410 1573v282h686v-282h-686zM1089 0l-79 233h-508l-79 -233h-423l563 1434h386l575 -1434h-435zM914 542l-159 444l-157 -444h316z" />
    <glyph glyph-name="amacron" unicode="&#x101;" horiz-adv-x="1417" 
d="M1043 1524v-265h-686v265h686zM1013 1107h284v-1106h-295l-32 78q-143 -115 -334 -115q-167 0 -299.5 75.5t-206.5 210t-74 304.5q0 257 163 421.5t417 164.5q195 0 338 -118zM687 301q107 0 177.5 72t70.5 180t-70.5 180t-177.5 72t-177 -71.5t-70 -180.5
q0 -108 70 -180t177 -72z" />
    <glyph glyph-name="Abreve" unicode="&#x102;" horiz-adv-x="1523" 
d="M754 1543q-170 0 -273.5 92.5t-103.5 242.5h264v-11q0 -46 31 -73.5t81 -27.5t80.5 27.5t30.5 73.5v11h268q0 -150 -104 -242.5t-274 -92.5zM1089 0l-79 233h-508l-79 -233h-423l563 1434h386l575 -1434h-435zM914 542l-159 444l-157 -444h316z" />
    <glyph glyph-name="abreve" unicode="&#x103;" horiz-adv-x="1417" 
d="M701 1214q-178 0 -286.5 97.5t-108.5 256.5h270v-12q0 -52 34.5 -83t90.5 -31t89 31t33 83v12h273q0 -159 -108.5 -256.5t-286.5 -97.5zM1013 1107h284v-1106h-294l-33 78q-143 -115 -334 -115q-167 0 -299.5 75.5t-206.5 210t-74 304.5q0 257 163 421.5t417 164.5
q195 0 338 -118zM687 301q107 0 177.5 72t70.5 180t-70.5 180t-177.5 72t-177 -71.5t-70 -180.5q0 -108 70 -180t177 -72z" />
    <glyph glyph-name="Aogonek" unicode="&#x104;" horiz-adv-x="1521" 
d="M1178 -183q0 -41 33 -64.5t91 -23.5q61 0 121 24v-186q-107 -61 -224 -61q-126 0 -207.5 63.5t-81.5 166.5q0 167 172 281l-73 216h-508l-79 -233h-424l564 1434h386l573 -1429l5 -5q-171 -7 -259.5 -54.5t-88.5 -128.5zM913 542l-159 444l-157 -444h316z" />
    <glyph glyph-name="aogonek" unicode="&#x105;" horiz-adv-x="1417" 
d="M1191 -270q55 0 119 26v-186q-105 -62 -223 -62q-116 0 -194.5 61t-78.5 167q0 170 178 291l-22 52q-143 -115 -334 -115q-167 0 -299.5 75.5t-206.5 210t-74 304.5q0 257 163 421.5t417 164.5q195 0 338 -118l39 85h284v-1107q-215 -66 -215 -180q0 -45 29.5 -67.5
t79.5 -22.5zM687 301q107 0 177.5 72t70.5 180t-70.5 180t-177.5 72t-177 -71.5t-70 -180.5q0 -108 70 -180t177 -72z" />
    <glyph glyph-name="Cacute" unicode="&#x106;" horiz-adv-x="1605" 
d="M665 1560l145 318h398l-264 -318h-279zM826 -36q-215 0 -389.5 98t-273.5 270t-99 384q0 213 99 385.5t273.5 270.5t389.5 98q282 0 481.5 -169.5t243.5 -442.5h-400q-37 111 -124 177t-200 66q-152 0 -252 -109t-100 -276q0 -166 100 -274t252 -108q119 0 206.5 71.5
t117.5 191.5h404q-41 -283 -242 -458t-487 -175z" />
    <glyph glyph-name="cacute" unicode="&#x107;" horiz-adv-x="1302" 
d="M501 1228l116 340h388l-225 -340h-279zM667 -36q-131 0 -245 44.5t-194 122t-126 187.5t-46 236q0 256 172 421t440 165q233 0 393.5 -134.5t192.5 -355.5h-371q-24 68 -83 108.5t-133 40.5q-101 0 -165 -69t-64 -177t64.5 -178t164.5 -70q76 0 134.5 43.5t81.5 117.5
h375q-32 -225 -195 -363.5t-396 -138.5z" />
    <glyph glyph-name="Ccircumflex" unicode="&#x108;" horiz-adv-x="1605" 
d="M1262 1560h-296l-148 145l-146 -145h-298l243 318h401zM826 -36q-215 0 -389.5 98t-273.5 270t-99 384q0 213 99 385.5t273.5 270.5t389.5 98q282 0 481.5 -169.5t243.5 -442.5h-400q-37 111 -124 177t-200 66q-152 0 -252 -109t-100 -276q0 -166 100 -274t252 -108
q119 0 206.5 71.5t117.5 191.5h404q-41 -283 -242 -458t-487 -175z" />
    <glyph glyph-name="ccircumflex" unicode="&#x109;" horiz-adv-x="1302" 
d="M1115 1228h-297l-149 156l-146 -156h-298l243 340h402zM667 -36q-131 0 -245 44.5t-194 122t-126 187.5t-46 236q0 256 172 421t440 165q233 0 393.5 -134.5t192.5 -355.5h-371q-24 68 -83 108.5t-133 40.5q-101 0 -165 -69t-64 -177t64.5 -178t164.5 -70
q76 0 134.5 43.5t81.5 117.5h375q-32 -225 -195 -363.5t-396 -138.5z" />
    <glyph glyph-name="Cdotaccent" unicode="&#x10a;" horiz-adv-x="1605" 
d="M632 1561v317h373v-317h-373zM826 -36q-215 0 -389.5 98t-273.5 270t-99 384q0 213 99 385.5t273.5 270.5t389.5 98q282 0 481.5 -169.5t243.5 -442.5h-400q-37 111 -124 177t-200 66q-152 0 -252 -109t-100 -276q0 -166 100 -274t252 -108q119 0 206.5 71.5t117.5 191.5
h404q-41 -283 -242 -458t-487 -175z" />
    <glyph glyph-name="cdotaccent" unicode="&#x10b;" horiz-adv-x="1302" 
d="M478 1237v331h375v-331h-375zM667 -36q-131 0 -245 44.5t-194 122t-126 187.5t-46 236q0 256 172 421t440 165q233 0 393.5 -134.5t192.5 -355.5h-371q-24 68 -83 108.5t-133 40.5q-101 0 -165 -69t-64 -177t64.5 -178t164.5 -70q76 0 134.5 43.5t81.5 117.5h375
q-32 -225 -195 -363.5t-396 -138.5z" />
    <glyph glyph-name="Ccaron" unicode="&#x10c;" horiz-adv-x="1605" 
d="M966 1878h296l-244 -318h-401l-243 318h298l146 -146zM826 -36q-215 0 -389.5 98t-273.5 270t-99 384q0 213 99 385.5t273.5 270.5t389.5 98q282 0 481.5 -169.5t243.5 -442.5h-400q-37 111 -124 177t-200 66q-152 0 -252 -109t-100 -276q0 -166 100 -274t252 -108
q119 0 206.5 71.5t117.5 191.5h404q-41 -283 -242 -458t-487 -175z" />
    <glyph glyph-name="ccaron" unicode="&#x10d;" horiz-adv-x="1302" 
d="M814 1568h298l-245 -340h-402l-243 340h298l146 -156zM667 -36q-131 0 -245 44.5t-194 122t-126 187.5t-46 236q0 256 172 421t440 165q233 0 393.5 -134.5t192.5 -355.5h-371q-24 68 -83 108.5t-133 40.5q-101 0 -165 -69t-64 -177t64.5 -178t164.5 -70q77 0 135.5 43.5
t81.5 117.5h374q-32 -225 -195 -363.5t-396 -138.5z" />
    <glyph glyph-name="Dcaron" unicode="&#x10e;" horiz-adv-x="1525" 
d="M792 1560h-401l-243 318h298l146 -146l148 146h296zM719 1434q214 0 383 -91t263 -254.5t94 -370.5t-94 -370.5t-263 -255.5t-383 -92h-580v1434h580zM700 362q159 0 256.5 98.5t97.5 257.5q0 160 -97.5 257t-256.5 97h-165v-710h165z" />
    <glyph glyph-name="dcaron" unicode="&#x10f;" horiz-adv-x="1488" 
d="M911 1065v440h377v-1505h-282l-36 82q-141 -119 -334 -119q-254 0 -417.5 166t-163.5 424t163.5 423.5t417.5 165.5q151 0 275 -77zM1371 1505h315v-254q0 -131 -81.5 -213.5t-220.5 -93.5v157q62 3 96.5 36.5t34.5 87.5h-144v280zM687 300q107 0 177.5 72.5t70.5 180.5
t-70.5 180.5t-177.5 72.5t-177 -72.5t-70 -180.5t70 -180.5t177 -72.5z" />
    <glyph glyph-name="Dcroat" unicode="&#x110;" horiz-adv-x="1599" 
d="M793 1434q214 0 383 -91t263 -254.5t94 -370.5t-94 -370.5t-263 -255.5t-383 -92h-581v560h-171v316h171v558h581zM774 362q159 0 256.5 98.5t97.5 257.5q0 160 -97.5 257t-256.5 97h-165v-196h238v-316h-238v-198h165z" />
    <glyph glyph-name="dcroat" unicode="&#x111;" horiz-adv-x="1409" 
d="M1434 1417v-209h-146v-1208h-282l-36 82q-141 -119 -334 -119q-254 0 -417.5 166t-163.5 424t163.5 423.5t417.5 165.5q151 0 275 -77v143h-318v209h318v88h377v-88h146zM687 300q107 0 177.5 72.5t70.5 180.5t-70.5 180.5t-177.5 72.5t-177 -72.5t-70 -180.5t70 -180.5
t177 -72.5z" />
    <glyph glyph-name="Emacron" unicode="&#x112;" horiz-adv-x="1161" 
d="M257 1573v282h686v-282h-686zM532 343h541v-343h-934v1434h917v-342h-524v-211h471v-324h-471v-214z" />
    <glyph glyph-name="emacron" unicode="&#x113;" horiz-adv-x="1312" 
d="M998 1524v-265h-686v265h686zM1259 563q0 -52 -7 -100h-822q19 -95 77 -144t149 -49q67 0 119.5 27.5t80.5 76.5h379q-58 -189 -214.5 -299.5t-364.5 -110.5q-170 0 -307.5 76.5t-215.5 211.5t-78 302q0 254 170.5 421t430.5 167q131 0 244 -45t191.5 -122.5t123 -184.5
t44.5 -227zM656 844q-83 0 -139.5 -43.5t-79.5 -126.5h447q-51 170 -228 170z" />
    <glyph glyph-name="Ebreve" unicode="&#x114;" horiz-adv-x="1161" 
d="M601 1543q-170 0 -274 92.5t-104 242.5h265v-11q0 -46 31 -73.5t81 -27.5t80.5 27.5t30.5 73.5v11h268q0 -150 -104 -242.5t-274 -92.5zM532 343h541v-343h-934v1434h917v-342h-524v-211h471v-324h-471v-214z" />
    <glyph glyph-name="ebreve" unicode="&#x115;" horiz-adv-x="1312" 
d="M656 1214q-178 0 -286.5 97.5t-108.5 256.5h270v-12q0 -52 34.5 -83t90.5 -31t89 31t33 83v12h273q0 -159 -108.5 -256.5t-286.5 -97.5zM1259 563q0 -52 -7 -100h-822q19 -95 77 -144t149 -49q67 0 119.5 27.5t80.5 76.5h379q-58 -189 -214.5 -299.5t-364.5 -110.5
q-170 0 -307.5 76.5t-215.5 211.5t-78 302q0 254 170.5 421t430.5 167q131 0 244 -45t191.5 -122.5t123 -184.5t44.5 -227zM656 844q-83 0 -139.5 -43.5t-79.5 -126.5h447q-51 170 -228 170z" />
    <glyph glyph-name="Edotaccent" unicode="&#x116;" horiz-adv-x="1161" 
d="M414 1561v317h374v-317h-374zM532 343h541v-343h-934v1434h917v-342h-524v-211h471v-324h-471v-214z" />
    <glyph glyph-name="edotaccent" unicode="&#x117;" horiz-adv-x="1312" 
d="M842 1568v-331h-375v331h375zM1259 563q0 -52 -7 -100h-822q19 -95 77 -144t149 -49q67 0 119.5 27.5t80.5 76.5h379q-58 -189 -214.5 -299.5t-364.5 -110.5q-170 0 -307.5 76.5t-215.5 211.5t-78 302q0 254 170.5 421t430.5 167q131 0 244 -45t191.5 -122.5t123 -184.5
t44.5 -227zM656 844q-83 0 -139.5 -43.5t-79.5 -126.5h447q-51 170 -228 170z" />
    <glyph glyph-name="Eogonek" unicode="&#x118;" horiz-adv-x="1161" 
d="M959 -270q60 0 127 26v-186q-110 -62 -228 -62q-122 0 -199 62t-77 166q0 149 156 264h-599v1434h917v-342h-524v-211h471v-324h-471v-214h541v-343q-108 -26 -166 -75t-58 -108q0 -42 29 -64.5t81 -22.5z" />
    <glyph glyph-name="eogonek" unicode="&#x119;" horiz-adv-x="1312" 
d="M1259 557q0 -52 -7 -97h-825q19 -90 79 -135.5t152 -45.5q67 0 119.5 25.5t78.5 71.5h379q-20 -64 -50 -117t-73 -97.5t-72.5 -69t-80.5 -63.5q-42 -32 -62 -49t-46 -44.5t-36.5 -53.5t-10.5 -57q0 -46 29.5 -70.5t80.5 -24.5q59 0 118 28v-186q-101 -64 -221 -64
q-124 0 -199 62.5t-75 163.5q0 125 118 234q-258 1 -429 167.5t-171 418.5q0 166 77.5 299t215.5 208t310 75t309 -74t214.5 -206t77.5 -299zM658 833q-84 0 -141.5 -39.5t-81.5 -116.5h446q-25 75 -82 115.5t-141 40.5z" />
    <glyph glyph-name="Ecaron" unicode="&#x11a;" horiz-adv-x="1161" 
d="M801 1560h-401l-243 318h297l146 -146l148 146h297zM532 343h541v-343h-934v1434h917v-342h-524v-211h471v-324h-471v-214z" />
    <glyph glyph-name="ecaron" unicode="&#x11b;" horiz-adv-x="1312" 
d="M856 1228h-402l-243 340h298l146 -156l149 156h297zM1259 563q0 -52 -7 -100h-822q19 -95 77 -144t149 -49q67 0 119.5 27.5t80.5 76.5h379q-58 -189 -214.5 -299.5t-364.5 -110.5q-170 0 -307.5 76.5t-215.5 211.5t-78 302q0 254 170.5 421t430.5 167q131 0 244 -45
t191.5 -122.5t123 -184.5t44.5 -227zM656 844q-83 0 -139.5 -43.5t-79.5 -126.5h447q-51 170 -228 170z" />
    <glyph glyph-name="Gcircumflex" unicode="&#x11c;" horiz-adv-x="1644" 
d="M834 1705l-146 -145h-297l243 318h400l244 -318h-296zM798 766h786q0 -174 -55.5 -323t-154 -254.5t-239.5 -165t-307 -59.5q-162 0 -304 56.5t-242.5 155.5t-158.5 239t-58 301t57 301t157 239.5t241.5 156.5t304.5 57q282 0 490 -159t254 -409h-414q-39 90 -128 144
t-199 54q-161 0 -260 -106t-99 -278q0 -171 98.5 -276.5t260.5 -105.5q114 0 203 50t123 133h-356v249z" />
    <glyph glyph-name="gcircumflex" unicode="&#x11d;" horiz-adv-x="1384" 
d="M648 1384l-147 -156h-297l243 340h401l245 -340h-297zM1006 1106h258v-983q0 -261 -159.5 -412t-433.5 -151q-235 0 -391 111.5t-194 308.5h368q19 -53 79 -83t134 -30q99 0 164.5 57.5t65.5 154.5v33q-130 -83 -288 -83q-156 0 -283 72t-198.5 199t-71.5 285
q0 156 71.5 283t198.5 200t283 73q199 0 349 -128zM672 343q103 0 169 68t66 174q0 105 -66 173t-169 68t-169.5 -68t-66.5 -173q0 -106 66.5 -174t169.5 -68z" />
    <glyph glyph-name="Gbreve" unicode="&#x11e;" horiz-adv-x="1644" 
d="M835 1543q-170 0 -274 92.5t-104 242.5h264v-11q0 -46 31 -73.5t81 -27.5t80.5 27.5t30.5 73.5v11h268q0 -150 -103.5 -242.5t-273.5 -92.5zM798 766h786q0 -232 -94.5 -414.5t-267 -285t-393.5 -102.5q-217 0 -391.5 96.5t-273.5 268.5t-99 387q0 161 57 301t157 239.5
t241.5 156.5t304.5 57q282 0 490 -159t254 -409h-414q-39 91 -127.5 144.5t-198.5 53.5q-161 0 -260.5 -106t-99.5 -278q0 -171 99 -276.5t261 -105.5q113 0 202 50t123 133h-356v249z" />
    <glyph glyph-name="gbreve" unicode="&#x11f;" horiz-adv-x="1384" 
d="M645 1214q-178 0 -286.5 97.5t-108.5 256.5h270v-12q0 -52 35 -83t91 -31t88.5 31t32.5 83v12h274q0 -159 -109 -256.5t-287 -97.5zM1006 1106h258v-983q0 -261 -159.5 -412t-433.5 -151q-235 0 -391 111.5t-194 308.5h368q19 -53 79 -83t134 -30q99 0 165 58t66 154v33
q-130 -83 -289 -83q-156 0 -283 72t-198.5 199t-71.5 285q0 156 71.5 283t198.5 200t283 73q199 0 349 -128zM672 343q103 0 169 68t66 174q0 105 -66 173t-169 68t-169.5 -68t-66.5 -173q0 -106 66.5 -174t169.5 -68z" />
    <glyph glyph-name="Gdotaccent" unicode="&#x120;" horiz-adv-x="1644" 
d="M1021 1878v-317h-373v317h373zM798 766h786q0 -232 -94.5 -414.5t-267 -285t-393.5 -102.5q-217 0 -391.5 96.5t-273.5 268.5t-99 387q0 161 57 301t157 239.5t241.5 156.5t304.5 57q282 0 490 -159t254 -409h-414q-39 91 -127.5 144.5t-198.5 53.5q-161 0 -260.5 -106
t-99.5 -278q0 -171 99 -276.5t261 -105.5q113 0 202 50t123 133h-356v249z" />
    <glyph glyph-name="gdotaccent" unicode="&#x121;" horiz-adv-x="1384" 
d="M831 1568v-331h-375v331h375zM1006 1106h258v-983q0 -261 -159.5 -412t-433.5 -151q-235 0 -391 111.5t-194 308.5h368q19 -53 79 -83t134 -30q99 0 165 58t66 154v33q-130 -83 -289 -83q-156 0 -283 72t-198.5 199t-71.5 285q0 156 71.5 283t198.5 200t283 73
q199 0 349 -128zM672 343q103 0 169 68t66 174q0 105 -66 173t-169 68t-169.5 -68t-66.5 -173q0 -106 66.5 -174t169.5 -68z" />
    <glyph glyph-name="uni0122" unicode="&#x122;" horiz-adv-x="1644" 
d="M798 766h786q0 -174 -55.5 -323t-154 -254.5t-239.5 -165t-307 -59.5q-162 0 -304 56.5t-242.5 155.5t-158.5 239t-58 301t57 301t157 239.5t241.5 156.5t304.5 57q282 0 490 -159t254 -409h-414q-39 91 -127.5 144.5t-198.5 53.5q-161 0 -260.5 -106t-99.5 -278
q0 -171 99 -276.5t261 -105.5q113 0 202 50t123 133h-356v249zM679 -359v281h315v-254q0 -130 -81.5 -213t-221.5 -94v157q62 3 97 36t35 87h-144z" />
    <glyph glyph-name="uni0123" unicode="&#x123;" horiz-adv-x="1384" 
d="M801 1518v-280h-315v254q0 130 81.5 213t221.5 94v-157q-62 -2 -97 -35.5t-35 -88.5h144zM1006 1106h258v-983q0 -261 -159.5 -412t-433.5 -151q-235 0 -391 111.5t-194 308.5h368q19 -53 79 -83t134 -30q99 0 165 58t66 154v33q-130 -83 -289 -83q-156 0 -283 72
t-198.5 199t-71.5 285q0 156 71.5 283t198.5 200t283 73q199 0 349 -128zM672 343q103 0 169 68t66 174q0 105 -66 173t-169 68t-169.5 -68t-66.5 -173q0 -106 66.5 -174t169.5 -68z" />
    <glyph glyph-name="Hcircumflex" unicode="&#x124;" horiz-adv-x="1503" 
d="M751 1705l-145 -145h-298l243 318h401l244 -318h-296zM967 1434h399v-1434h-399v550h-430v-550h-398v1434h398v-518h430v518z" />
    <glyph glyph-name="hcircumflex" unicode="&#x125;" horiz-adv-x="1320" 
d="M310 1773l-145 -146h-298l243 318h401l244 -318h-296zM796 1139q190 0 303.5 -129t113.5 -344v-666h-381v622q0 192 -144 192q-87 0 -137 -58.5t-50 -164.5v-591h-381v1505h381v-472q130 106 295 106z" />
    <glyph glyph-name="Hbar" unicode="&#x126;" horiz-adv-x="1552" 
d="M1510 1314v-251h-120v-1063h-399v550h-430v-550h-398v1063h-121v251h121v120h398v-120h430v120h399v-120h120zM991 908v155h-430v-155h430z" />
    <glyph glyph-name="hbar" unicode="&#x127;" horiz-adv-x="1320" 
d="M796 1139q190 0 303.5 -129t113.5 -344v-666h-381v622q0 192 -144 192q-87 0 -137 -58.5t-50 -164.5v-591h-381v1208h-150v209h150v88h381v-88h310v-209h-310v-175q130 106 295 106z" />
    <glyph glyph-name="Itilde" unicode="&#x128;" horiz-adv-x="677" 
d="M477 1557q-82 0 -180 63q-54 34 -79 34q-27 0 -43.5 -20.5t-16.5 -51.5v-18h-202v24q0 134 63.5 211.5t178.5 77.5q36 0 71 -11.5t52.5 -21.5t48.5 -30q58 -38 86 -38t43.5 19t15.5 54v22h203v-25q0 -135 -65 -212t-176 -77zM139 0v1434h400v-1434h-400z" />
    <glyph glyph-name="itilde" unicode="&#x129;" horiz-adv-x="620" 
d="M451 1231q-35 0 -72 11.5t-56.5 22.5t-52.5 31q-63 35 -85 35q-29 0 -45 -20t-16 -53v-19h-207v24q0 137 65 217t183 80q37 0 73 -11.5t53 -21.5t50 -31q60 -40 88 -40q60 0 60 75v23h208v-26q0 -138 -66 -217.5t-180 -79.5zM120 0v1106h381v-1106h-381z" />
    <glyph glyph-name="Imacron" unicode="&#x12a;" horiz-adv-x="677" 
d="M34 1573v282h611v-282h-611zM139 0v1434h400v-1434h-400z" />
    <glyph glyph-name="imacron" unicode="&#x12b;" horiz-adv-x="620" 
d="M18 1259v265h584v-265h-584zM120 0v1106h381v-1106h-381z" />
    <glyph glyph-name="Ibreve" unicode="&#x12c;" horiz-adv-x="677" 
d="M341 1543q-160 0 -258.5 92.5t-98.5 242.5h264v-11q0 -46 25.5 -73.5t66.5 -27.5t65.5 27.5t24.5 73.5v11h268q0 -150 -98 -242.5t-259 -92.5zM139 0v1434h400v-1434h-400z" />
    <glyph glyph-name="ibreve" unicode="&#x12d;" horiz-adv-x="620" 
d="M311 1214q-169 0 -271.5 97.5t-102.5 256.5h269v-12q0 -52 29.5 -83t75.5 -31t74 31t28 83v12h273q0 -159 -103 -256.5t-272 -97.5zM120 0v1106h381v-1106h-381z" />
    <glyph glyph-name="Iogonek" unicode="&#x12e;" horiz-adv-x="677" 
d="M478 -270q60 0 127 26v-186q-110 -62 -229 -62q-122 0 -198.5 62t-76.5 166q0 145 153 264h-115v1434h400v-1434q-171 -81 -171 -183q0 -42 29 -64.5t81 -22.5z" />
    <glyph glyph-name="iogonek" unicode="&#x12f;" horiz-adv-x="620" 
d="M496 1568v-331h-375v331h375zM399 -270q57 0 121 26v-186q-105 -62 -222 -62q-116 0 -194.5 60.5t-78.5 167.5q0 146 152 264h-57v1106h381v-1106q-104 -34 -156.5 -81.5t-52.5 -101.5q0 -44 29 -65.5t78 -21.5z" />
    <glyph glyph-name="Idotaccent" unicode="&#x130;" horiz-adv-x="677" 
d="M152 1561v317h373v-317h-373zM139 0v1434h400v-1434h-400z" />
    <glyph glyph-name="dotlessi" unicode="&#x131;" horiz-adv-x="620" 
d="M120 0v1106h381v-1106h-381z" />
    <glyph glyph-name="IJ" unicode="&#x132;" horiz-adv-x="1904" 
d="M139 0v1434h400v-1434h-400zM1224 -36q-248 0 -404.5 147t-156.5 381v56h398v-36q0 -82 44.5 -131.5t118.5 -49.5q70 0 114 49.5t44 131.5v922h397v-942q0 -234 -153.5 -381t-401.5 -147z" />
    <glyph glyph-name="ij" unicode="&#x133;" horiz-adv-x="1280" 
d="M123 1244v324h375v-324h-375zM783 1244v324h375v-324h-375zM120 0v1106h381v-1106h-381zM548 -421v336h94q67 0 102.5 37.5t35.5 108.5v1045h381v-1076q0 -213 -123.5 -332t-345.5 -119h-144z" />
    <glyph glyph-name="Jcircumflex" unicode="&#x134;" horiz-adv-x="1273" 
d="M942 1699l-121 -139h-289l221 318h377l223 -318h-289zM751 512v922h397v-942q0 -234 -153.5 -381t-401.5 -147t-404.5 147t-156.5 381v56h398v-36q0 -82 44.5 -131.5t118.5 -49.5q70 0 114 49.5t44 131.5z" />
    <glyph glyph-name="jcircumflex" unicode="&#x135;" horiz-adv-x="645" 
d="M332 1377l-121 -149h-289l221 340h378l224 -340h-290zM144 67v1039h381v-1070q0 -213 -123.5 -332t-345.5 -119h-143v336h94q67 0 102 37.5t35 108.5z" />
    <glyph glyph-name="uni0136" unicode="&#x136;" horiz-adv-x="1386" 
d="M911 739l502 -739h-468l-411 633v-633h-395v1434h395v-605l378 605h458zM562 -359v281h315v-254q0 -130 -81.5 -213t-221.5 -94v157q62 3 97 36t35 87h-144z" />
    <glyph glyph-name="uni0137" unicode="&#x137;" horiz-adv-x="1222" 
d="M517 468v-468h-381v1505h381v-832l264 433h427l-344 -527l379 -579h-449zM496 -376v280h315v-254q0 -130 -81.5 -213t-221.5 -94v157q62 3 97 36.5t35 87.5h-144z" />
    <glyph glyph-name="kgreenlandic" unicode="&#x138;" horiz-adv-x="1206" 
d="M1227 0h-448l-278 468v-468h-381v1106h381v-434l266 434h425l-345 -529z" />
    <glyph glyph-name="Lacute" unicode="&#x139;" horiz-adv-x="1087" 
d="M732 1878l-264 -318h-279l145 318h398zM539 362h510v-362h-910v1434h400v-1072z" />
    <glyph glyph-name="lacute" unicode="&#x13a;" horiz-adv-x="620" 
d="M159 1631l145 318h398l-263 -318h-280zM120 0v1505h381v-1505h-381z" />
    <glyph glyph-name="uni013B" unicode="&#x13b;" horiz-adv-x="1087" 
d="M539 362h510v-362h-910v1434h400v-1072zM436 -359v281h315v-254q0 -130 -81.5 -213t-221.5 -94v157q62 3 97 36t35 87h-144z" />
    <glyph glyph-name="uni013C" unicode="&#x13c;" horiz-adv-x="620" 
d="M120 0v1505h381v-1505h-381zM164 -657v157q62 3 97 36.5t35 87.5h-144v280h315v-254q0 -130 -81.5 -213t-221.5 -94z" />
    <glyph glyph-name="Lcaron" unicode="&#x13d;" horiz-adv-x="1097" 
d="M711 1101q62 3 97 36.5t35 87.5h-144v280h314v-254q0 -131 -81.5 -213.5t-220.5 -93.5v157zM539 362h510v-362h-910v1434h400v-1072z" />
    <glyph glyph-name="lcaron" unicode="&#x13e;" horiz-adv-x="620" 
d="M120 0v1505h381v-1505h-381zM607 944v157q62 3 97 36.5t35 87.5h-144v280h314v-254q0 -131 -81.5 -213.5t-220.5 -93.5z" />
    <glyph glyph-name="Ldot" unicode="&#x13f;" horiz-adv-x="1105" 
d="M539 362h510v-362h-910v1434h400v-1072zM1031 868v-349h-352v349h352z" />
    <glyph glyph-name="ldot" unicode="&#x140;" horiz-adv-x="991" 
d="M120 0v1505h381v-1505h-381zM627 559v354h369v-354h-369z" />
    <glyph glyph-name="Lslash" unicode="&#x141;" horiz-adv-x="1087" 
d="M539 362h510v-362h-910v450l-139 -64v319l139 65v664h400v-476l264 125v-326l-264 -122v-273z" />
    <glyph glyph-name="lslash" unicode="&#x142;" horiz-adv-x="620" 
d="M659 1152v-334l-158 -77v-741h-381v557l-157 -76v334l157 76v614h381v-430z" />
    <glyph glyph-name="Nacute" unicode="&#x143;" horiz-adv-x="1556" 
d="M1172 1878l-264 -318h-279l145 318h398zM1035 1434h382v-1434h-326l-570 778v-778h-382v1434h345l551 -753v753z" />
    <glyph glyph-name="nacute" unicode="&#x144;" horiz-adv-x="1320" 
d="M1012 1568l-225 -340h-279l116 340h388zM788 1139q193 0 309 -127t116 -338v-674h-381v622q0 192 -144 192q-89 0 -138 -58.5t-49 -164.5v-591h-381v1106h267l52 -114q62 70 152.5 108.5t196.5 38.5z" />
    <glyph glyph-name="uni0145" unicode="&#x145;" horiz-adv-x="1556" 
d="M1035 1434h382v-1434h-326l-570 778v-778h-382v1434h345l551 -753v753zM647 -359v281h315v-254q0 -131 -81.5 -213.5t-220.5 -93.5v157q62 3 96.5 36t34.5 87h-144z" />
    <glyph glyph-name="uni0146" unicode="&#x146;" horiz-adv-x="1320" 
d="M788 1139q193 0 309 -127t116 -338v-674h-381v622q0 192 -144 192q-89 0 -138 -58.5t-49 -164.5v-591h-381v1106h267l52 -114q62 70 152.5 108.5t196.5 38.5zM504 -376v280h314v-254q0 -131 -81.5 -213.5t-220.5 -93.5v157q62 3 96.5 36.5t34.5 87.5h-143z" />
    <glyph glyph-name="Ncaron" unicode="&#x147;" horiz-adv-x="1556" 
d="M982 1560h-401l-243 318h298l145 -146l149 146h296zM1035 1434h382v-1434h-326l-570 778v-778h-382v1434h345l551 -753v753z" />
    <glyph glyph-name="ncaron" unicode="&#x148;" horiz-adv-x="1320" 
d="M873 1228h-401l-243 340h297l147 -156l148 156h298zM788 1139q193 0 309 -127t116 -338v-674h-381v622q0 192 -144 192q-89 0 -138 -58.5t-49 -164.5v-591h-381v1106h267l52 -114q62 70 152.5 108.5t196.5 38.5z" />
    <glyph glyph-name="Eng" unicode="&#x14a;" horiz-adv-x="1556" 
d="M866 -407v327h80q62 0 96.5 34t34.5 94l-556 731v-779h-382v1434h345l551 -755v755h382v-1381q0 -213 -122.5 -336.5t-333.5 -123.5h-95z" />
    <glyph glyph-name="eng" unicode="&#x14b;" horiz-adv-x="1320" 
d="M786 1136q194 0 310.5 -127t116.5 -338v-654q0 -197 -116 -313t-313 -116h-124v312h52q57 0 88.5 32.5t31.5 90.5v597q0 193 -144 193q-89 0 -138 -59t-49 -165v-589h-381v1106h267l54 -117q62 70 151 108.5t194 38.5z" />
    <glyph glyph-name="Omacron" unicode="&#x14c;" horiz-adv-x="1703" 
d="M509 1573v282h686v-282h-686zM853 -36q-228 0 -408 96.5t-280.5 268.5t-100.5 388t100.5 388t280.5 268.5t408 96.5q170 0 316.5 -56.5t250 -155t162.5 -239t59 -302.5t-59 -302.5t-162.5 -239t-250 -155t-316.5 -56.5zM853 331q164 0 270 109t106 277t-106 276.5
t-270 108.5t-271 -109t-107 -276t107 -276.5t271 -109.5z" />
    <glyph glyph-name="omacron" unicode="&#x14d;" horiz-adv-x="1351" 
d="M330 1259v265h686v-265h-686zM675 -36q-178 0 -320 75.5t-221 210t-79 303.5q0 257 174.5 423t445.5 166q177 0 319 -75t222 -210t80 -304t-80 -303.5t-222 -210t-319 -75.5zM675 306q105 0 172 69t67 178t-67.5 178t-171.5 69q-105 0 -171.5 -69t-66.5 -178t66.5 -178
t171.5 -69z" />
    <glyph glyph-name="Obreve" unicode="&#x14e;" horiz-adv-x="1703" 
d="M853 1543q-170 0 -273.5 92.5t-103.5 242.5h264v-11q0 -46 31 -73.5t81 -27.5t80.5 27.5t30.5 73.5v11h268q0 -150 -104 -242.5t-274 -92.5zM853 -36q-228 0 -408 96.5t-280.5 268.5t-100.5 388t100.5 388t280.5 268.5t408 96.5q170 0 316.5 -56.5t250 -155t162.5 -239
t59 -302.5t-59 -302.5t-162.5 -239t-250 -155t-316.5 -56.5zM853 331q164 0 270 109t106 277t-106 276.5t-270 108.5t-271 -109t-107 -276t107 -276.5t271 -109.5z" />
    <glyph glyph-name="obreve" unicode="&#x14f;" horiz-adv-x="1351" 
d="M674 1214q-178 0 -286.5 97.5t-108.5 256.5h270v-12q0 -52 34.5 -83t90.5 -31t89 31t33 83v12h273q0 -159 -108.5 -256.5t-286.5 -97.5zM675 -36q-178 0 -320 75.5t-221 210t-79 303.5q0 257 174.5 423t445.5 166q177 0 319 -75t222 -210t80 -304t-80 -303.5t-222 -210
t-319 -75.5zM675 306q105 0 172 69t67 178t-67.5 178t-171.5 69q-105 0 -171.5 -69t-66.5 -178t66.5 -178t171.5 -69z" />
    <glyph glyph-name="Ohungarumlaut" unicode="&#x150;" horiz-adv-x="1703" 
d="M485 1557l101 318h348l-182 -318h-267zM907 1557l154 318h362l-243 -318h-273zM853 -36q-228 0 -408 96.5t-280.5 268.5t-100.5 388t100.5 388t280.5 268.5t408 96.5q170 0 316.5 -56.5t250 -155t162.5 -239t59 -302.5t-59 -302.5t-162.5 -239t-250 -155t-316.5 -56.5z
M853 331q164 0 270 109t106 277t-106 276.5t-270 108.5t-271 -109t-107 -276t107 -276.5t271 -109.5z" />
    <glyph glyph-name="ohungarumlaut" unicode="&#x151;" horiz-adv-x="1351" 
d="M295 1228l99 340h359l-179 -340h-279zM726 1228l155 340h359l-230 -340h-284zM675 -36q-178 0 -320 75.5t-221 210t-79 303.5q0 257 174.5 423t445.5 166q177 0 319 -75t222 -210t80 -304t-80 -303.5t-222 -210t-319 -75.5zM675 306q105 0 172 69t67 178t-67.5 178
t-171.5 69q-105 0 -171.5 -69t-66.5 -178t66.5 -178t171.5 -69z" />
    <glyph glyph-name="OE" unicode="&#x152;" horiz-adv-x="1988" 
d="M1901 343v-343h-844q-119 -36 -244 -36q-157 0 -295 56t-238 154.5t-158 239.5t-58 304q0 214 96.5 385.5t267.5 268.5t385 97q127 0 244 -35h826v-342h-511v-211h458v-324h-458v-214h529zM475 719q0 -180 106 -282t281 -102q61 0 124 10v744q-76 16 -133 16
q-163 0 -270.5 -109.5t-107.5 -276.5z" />
    <glyph glyph-name="oe" unicode="&#x153;" horiz-adv-x="2152" 
d="M2099 560q0 -45 -8 -98h-824q19 -93 78 -141.5t152 -48.5q67 0 119.5 28t80.5 79h379q-58 -191 -214.5 -303t-364.5 -112q-119 0 -222 43.5t-179 123.5q-78 -80 -186 -123.5t-235 -43.5q-271 0 -445.5 165.5t-174.5 422.5q0 258 174 423t446 165q258 0 420 -165
q159 165 402 165q263 0 432.5 -164.5t169.5 -415.5zM1497 840q-85 0 -142 -43t-81 -123h451q-25 81 -83.5 123.5t-144.5 42.5zM675 305q105 0 172 69t67 178t-67 178t-172 69t-171.5 -69t-66.5 -178t66.5 -178t171.5 -69z" />
    <glyph glyph-name="Racute" unicode="&#x154;" horiz-adv-x="1384" 
d="M1027 1878l-263 -318h-279l144 318h398zM909 0l-232 439h-143v-439h-395v1434h621q233 0 383 -142t150 -366q0 -130 -60 -235t-168 -170l285 -521h-441zM534 1083v-312h180q81 0 127.5 43.5t46.5 112.5t-46.5 112.5t-127.5 43.5h-180z" />
    <glyph glyph-name="racute" unicode="&#x155;" horiz-adv-x="864" 
d="M819 1569l-225 -339h-280l116 339h389zM739 1111h101v-348h-148q-101 0 -146 -47.5t-45 -153.5v-562h-381v1106h255l59 -123q58 67 131.5 97.5t173.5 30.5z" />
    <glyph glyph-name="uni0156" unicode="&#x156;" horiz-adv-x="1384" 
d="M1065 521l285 -521h-441l-232 439h-143v-439h-395v1434h621q233 0 383 -142t150 -366q0 -130 -60 -235t-168 -170zM534 1083v-312h180q81 0 127.5 43.5t46.5 112.5t-46.5 112.5t-127.5 43.5h-180zM557 -359v281h315v-254q0 -130 -81.5 -213t-221.5 -94v157q62 3 97 36
t35 87h-144z" />
    <glyph glyph-name="uni0157" unicode="&#x157;" horiz-adv-x="864" 
d="M739 1111h101v-348h-148q-101 0 -146 -47.5t-45 -153.5v-562h-381v1106h255l59 -123q58 67 131.5 97.5t173.5 30.5zM154 -376v280h315v-254q0 -130 -81.5 -213t-221.5 -94v157q62 3 97 36.5t35 87.5h-144z" />
    <glyph glyph-name="Rcaron" unicode="&#x158;" horiz-adv-x="1384" 
d="M838 1560h-401l-243 318h297l146 -146l148 146h297zM909 0l-232 439h-143v-439h-395v1434h621q233 0 383 -142t150 -366q0 -130 -60 -235t-168 -170l285 -521h-441zM534 1083v-312h180q81 0 127.5 43.5t46.5 112.5t-46.5 112.5t-127.5 43.5h-180z" />
    <glyph glyph-name="rcaron" unicode="&#x159;" horiz-adv-x="864" 
d="M680 1230h-401l-243 339h297l146 -156l149 156h297zM434 983q58 67 131.5 97.5t173.5 30.5h101v-348h-148q-101 0 -146 -47.5t-45 -153.5v-562h-381v1106h255z" />
    <glyph glyph-name="Sacute" unicode="&#x15a;" horiz-adv-x="1288" 
d="M463 1560l144 318h398l-263 -318h-279zM647 -35q-265 0 -421.5 133t-156.5 365h407q0 -73 48.5 -112.5t120.5 -39.5q66 0 114 33t48 89q0 22 -7.5 39.5t-27.5 32t-36.5 24t-53 20.5t-56.5 16.5t-67 16.5q-172 43 -248 80q-193 93 -220 291q-4 33 -4 70q0 210 145.5 327
t400.5 117q257 0 399 -124t142 -344h-397q0 65 -42 99.5t-107 34.5q-57 0 -97.5 -25.5t-40.5 -72.5q0 -20 7.5 -36t26.5 -29.5t36 -23t51.5 -20t55.5 -16.5t66 -17q47 -12 73 -19t73 -22t75 -27.5t68.5 -34.5t65 -44t52.5 -54.5t43.5 -68t26 -82.5t10.5 -100
q0 -228 -157.5 -352t-415.5 -124z" />
    <glyph glyph-name="sacute" unicode="&#x15b;" horiz-adv-x="1093" 
d="M375 1228l116 340h389l-225 -340h-280zM546 -36q-224 0 -355 108.5t-133 290.5h367q0 -58 36 -88.5t93 -30.5q45 0 76.5 22.5t31.5 63.5q0 43 -46.5 63.5t-143.5 36.5q-44 7 -76.5 14t-77 20.5t-76 29.5t-65.5 42.5t-55.5 59t-35 79t-13.5 102.5q0 166 130 265.5
t343 99.5q210 0 337.5 -102.5t130.5 -271.5h-357q0 52 -31 78t-85 26q-46 0 -74 -22t-28 -60q0 -18 10 -32t24.5 -23t41 -16.5t48.5 -12t59 -11.5q4 -1 6 -1q154 -27 222 -56q179 -77 185 -277v-15q0 -173 -134 -277.5t-355 -104.5z" />
    <glyph glyph-name="Scircumflex" unicode="&#x15c;" horiz-adv-x="1288" 
d="M1060 1560h-297l-148 145l-145 -145h-298l243 318h401zM647 -35q-265 0 -421.5 133t-156.5 365h407q0 -73 48.5 -112.5t120.5 -39.5q66 0 114 33t48 89q0 22 -7.5 39.5t-27.5 32t-36.5 24t-53 20.5t-56.5 16.5t-67 16.5q-172 43 -248 80q-193 93 -220 291q-4 33 -4 70
q0 210 145.5 327t400.5 117q257 0 399 -124t142 -344h-397q0 65 -42 99.5t-107 34.5q-57 0 -97.5 -25.5t-40.5 -72.5q0 -20 7.5 -36t26.5 -29.5t36 -23t51.5 -20t55.5 -16.5t66 -17q47 -12 73 -19t73 -22t75 -27.5t68.5 -34.5t65 -44t52.5 -54.5t43.5 -68t26 -82.5
t10.5 -100q0 -228 -157.5 -352t-415.5 -124z" />
    <glyph glyph-name="scircumflex" unicode="&#x15d;" horiz-adv-x="1093" 
d="M989 1228h-297l-149 156l-146 -156h-297l243 340h401zM546 -36q-224 0 -355 108.5t-133 290.5h367q0 -58 36 -88.5t93 -30.5q45 0 76.5 22.5t31.5 63.5q0 43 -46.5 63.5t-143.5 36.5q-44 7 -76.5 14t-77 20.5t-76 29.5t-65.5 42.5t-55.5 59t-35 79t-13.5 102.5
q0 166 130 265.5t343 99.5q210 0 337.5 -102.5t130.5 -271.5h-357q0 52 -31 78t-85 26q-46 0 -74 -22t-28 -60q0 -18 10 -32t24.5 -23t41 -16.5t48.5 -12t59 -11.5q4 -1 6 -1q154 -27 222 -56q179 -77 185 -277v-15q0 -173 -134 -277.5t-355 -104.5z" />
    <glyph glyph-name="Scedilla" unicode="&#x15e;" horiz-adv-x="1288" 
d="M1220 441q0 -204 -128 -326t-344 -145l-11 -45q87 -19 135 -71.5t48 -131.5q0 -94 -73.5 -156t-195.5 -62h-187v173h156q30 0 48 16.5t18 42.5t-18 42t-48 16h-106l-17 20l39 158q-218 27 -342.5 156t-124.5 335h407q0 -73 48.5 -112.5t120.5 -39.5q66 0 114 33t48 89
q0 22 -7.5 39.5t-27.5 32t-36.5 24t-53 20.5t-56.5 16.5t-67 16.5q-172 43 -248 80q-193 93 -220 291q-4 33 -4 70q0 210 145.5 327t400.5 117q257 0 399 -124t142 -344h-397q0 65 -42 99.5t-107 34.5q-57 0 -97.5 -25.5t-40.5 -72.5q0 -20 7.5 -36t26.5 -29.5t36 -23
t51.5 -20t55.5 -16.5t66 -17q47 -12 73 -19t73 -22t75 -27.5t68.5 -34.5t65 -44t52.5 -54.5t43.5 -68t26 -82.5t10.5 -100z" />
    <glyph glyph-name="scedilla" unicode="&#x15f;" horiz-adv-x="1093" 
d="M1035 346h1q0 -156 -110.5 -257t-296.5 -121l-14 -49q91 -10 144.5 -62t53.5 -134q0 -95 -73 -154t-189 -59h-159v166h131q29 0 46.5 16t17.5 41q0 26 -18 42t-46 16h-93l-20 25l43 153q-183 22 -288 127.5t-107 266.5h367q0 -58 36 -88.5t93 -30.5q45 0 76.5 22.5
t31.5 63.5q0 43 -46.5 63.5t-143.5 36.5q-44 7 -76.5 14t-77 20.5t-76 29.5t-65.5 42.5t-55.5 59t-35 79t-13.5 102.5q0 166 130 265.5t343 99.5q210 0 337.5 -102.5t130.5 -271.5h-357q0 52 -31 78t-85 26q-46 0 -74 -22t-28 -60q0 -18 10 -32t24.5 -23t41 -16.5t48.5 -12
t59 -11.5q4 -1 6 -1q154 -27 222 -56q179 -77 185 -277v-15z" />
    <glyph glyph-name="Scaron" unicode="&#x160;" horiz-adv-x="1288" 
d="M763 1878h297l-244 -318h-401l-243 318h298l145 -146zM647 -35q-265 0 -421.5 133t-156.5 365h407q0 -73 48.5 -112.5t120.5 -39.5q66 0 114 33t48 89q0 22 -7.5 39.5t-27.5 32t-36.5 24t-53 20.5t-56.5 16.5t-67 16.5q-172 43 -248 80q-193 93 -220 291q-4 33 -4 70
q0 210 145.5 327t400.5 117q257 0 399 -124t142 -344h-397q0 65 -42 99.5t-107 34.5q-57 0 -97.5 -25.5t-40.5 -72.5q0 -20 7.5 -36t26.5 -29.5t36 -23t51.5 -20t55.5 -16.5t66 -17q47 -12 73 -19t73 -22t75 -27.5t68.5 -34.5t65 -44t52.5 -54.5t43.5 -68t26 -82.5
t10.5 -100q0 -228 -157.5 -352t-415.5 -124z" />
    <glyph glyph-name="scaron" unicode="&#x161;" horiz-adv-x="1093" 
d="M689 1568h297l-245 -340h-401l-243 340h297l146 -156zM546 -36q-224 0 -355 108.5t-133 290.5h367q0 -58 36 -88.5t93 -30.5q45 0 76.5 22.5t31.5 63.5q0 43 -46.5 63.5t-143.5 36.5q-44 7 -76.5 14t-77 20.5t-76 29.5t-65.5 42.5t-55.5 59t-35 79t-13.5 102.5
q0 166 130 265.5t343 99.5q210 0 337.5 -102.5t130.5 -271.5h-357q0 52 -31 78t-85 26q-46 0 -74 -22t-28 -60q0 -18 10 -32t24.5 -23t41 -16.5t48.5 -12t59 -11.5q4 -1 6 -1q154 -27 222 -56q179 -77 185 -277v-15q0 -173 -134 -277.5t-355 -104.5z" />
    <glyph glyph-name="uni0162" unicode="&#x162;" horiz-adv-x="1251" 
d="M824 0h-99l-17 -67q89 -18 137 -69.5t48 -130.5q0 -94 -73.5 -155.5t-195.5 -61.5h-187v173h155q30 0 48.5 16.5t18.5 42.5t-18.5 42t-48.5 16h-108l-17 20l43 174h-82v1078h-390v356h1176v-356h-390v-1078z" />
    <glyph glyph-name="uni0163" unicode="&#x163;" horiz-adv-x="923" 
d="M866 0h-219l-19 -67q91 -10 144.5 -62t53.5 -134q0 -95 -73 -154t-189 -59h-159v167h131q29 0 46.5 16t17.5 41t-17.5 41t-46.5 16h-93l-20 25l52 186q-126 33 -195.5 132t-69.5 247v418h-202v89l495 527h79v-323h278v-293h-269v-352q0 -59 34 -93t94 -34h147v-334z" />
    <glyph glyph-name="Tcaron" unicode="&#x164;" horiz-adv-x="1251" 
d="M826 1560h-401l-243 318h297l146 -146l148 146h297zM1214 1434v-356h-390v-1078h-396v1078h-390v356h1176z" />
    <glyph glyph-name="tcaron" unicode="&#x165;" horiz-adv-x="1087" 
d="M890 1505h315v-254q0 -131 -81.5 -213.5t-220.5 -93.5v157q62 3 96.5 36.5t34.5 87.5h-144v280zM591 461q0 -59 34 -93t94 -34h147v-334h-262q-184 0 -289 105.5t-105 289.5v418h-202v89l495 527h79v-323h255v-293h-246v-352z" />
    <glyph glyph-name="Tbar" unicode="&#x166;" horiz-adv-x="1251" 
d="M1214 1078h-390v-256h220v-317h-220v-505h-396v505h-200v317h200v256h-390v356h1176v-356z" />
    <glyph glyph-name="tbar" unicode="&#x167;" horiz-adv-x="960" 
d="M745 332h150v-332h-228q-199 0 -314 115.5t-115 315.5v33h-208v224h208v125h-203v89l496 527h78v-323h278v-293h-271v-125h278v-224h-279v-8q0 -124 130 -124z" />
    <glyph glyph-name="Utilde" unicode="&#x168;" horiz-adv-x="1499" 
d="M898 1552q-12 0 -25 1.5t-22.5 2.5t-22.5 5t-20.5 5.5t-21 7.5l-18 8t-19 9t-17 8.5t-17 9.5t-15.5 8q-65 35 -89 36q-29 1 -48 -20t-19 -54v-20h-207v25q0 139 68.5 220t194.5 81q88 0 191 -65q62 -40 95 -40q31 0 48.5 20t17.5 55v24h208v-27q0 -140 -70 -220t-192 -80
zM749 -36q-275 0 -450.5 164t-175.5 427v879h404v-872q0 -105 61.5 -168t160.5 -63t160.5 63t61.5 168v872h404v-879q0 -263 -175.5 -427t-450.5 -164z" />
    <glyph glyph-name="utilde" unicode="&#x169;" horiz-adv-x="1300" 
d="M804 1232q-39 0 -80.5 12.5t-59 21.5t-59.5 31q-63 34 -89 34q-29 0 -48 -20t-19 -52v-20h-207v25q0 137 69 217t195 80q89 0 190 -64q62 -40 95 -40q31 0 48.5 20t17.5 55v23h208v-26q0 -139 -69.5 -218t-191.5 -79zM651 -36q-246 0 -396 140t-150 371v631h381v-615
q0 -87 44 -136t121 -49t120 49t43 136v615h381v-631q0 -231 -149 -371t-395 -140z" />
    <glyph glyph-name="Umacron" unicode="&#x16a;" horiz-adv-x="1499" 
d="M405 1573v282h686v-282h-686zM749 -36q-275 0 -450.5 164t-175.5 427v879h404v-872q0 -105 61.5 -168t160.5 -63t160.5 63t61.5 168v872h404v-879q0 -263 -175.5 -427t-450.5 -164z" />
    <glyph glyph-name="umacron" unicode="&#x16b;" horiz-adv-x="1300" 
d="M307 1259v265h686v-265h-686zM651 -36q-246 0 -396 140t-150 371v631h381v-615q0 -87 44 -136t121 -49t120 49t43 136v615h381v-631q0 -231 -149 -371t-395 -140z" />
    <glyph glyph-name="Ubreve" unicode="&#x16c;" horiz-adv-x="1499" 
d="M749 1543q-170 0 -273.5 92.5t-103.5 242.5h264v-11q0 -46 31 -73.5t81 -27.5t80.5 27.5t30.5 73.5v11h268q0 -150 -104 -242.5t-274 -92.5zM749 -36q-275 0 -450.5 164t-175.5 427v879h404v-872q0 -105 61.5 -168t160.5 -63t160.5 63t61.5 168v872h404v-879
q0 -263 -175.5 -427t-450.5 -164z" />
    <glyph glyph-name="ubreve" unicode="&#x16d;" horiz-adv-x="1300" 
d="M651 1214q-178 0 -286.5 97.5t-108.5 256.5h269v-12q0 -52 35 -83t91 -31t89 31t33 83v12h273q0 -159 -108.5 -256.5t-286.5 -97.5zM651 -36q-246 0 -396 140t-150 371v631h381v-615q0 -87 44 -136t121 -49t120 49t43 136v615h381v-631q0 -231 -149 -371t-395 -140z" />
    <glyph glyph-name="Uring" unicode="&#x16e;" horiz-adv-x="1499" 
d="M749 1504q-127 0 -208 76t-81 198t81 198t208 76t207.5 -76t80.5 -198t-80.5 -198t-207.5 -76zM749 1669q48 0 80.5 31t32.5 78t-32.5 77.5t-80.5 30.5q-49 0 -81 -30.5t-32 -77.5t32 -78t81 -31zM749 -36q-275 0 -450.5 164t-175.5 427v879h404v-872q0 -105 61.5 -168
t160.5 -63t160.5 63t61.5 168v872h404v-879q0 -263 -175.5 -427t-450.5 -164z" />
    <glyph glyph-name="uring" unicode="&#x16f;" horiz-adv-x="1300" 
d="M651 1191q-120 0 -195.5 71t-75.5 186t75.5 186t195.5 71t195.5 -71t75.5 -186t-75.5 -186t-195.5 -71zM651 1346q46 0 75.5 29t29.5 73t-29.5 73t-75.5 29t-75.5 -29t-29.5 -73t29.5 -73t75.5 -29zM651 -36q-246 0 -396 140t-150 371v631h381v-615q0 -87 44 -136
t121 -49t120 49t43 136v615h381v-631q0 -231 -149 -371t-395 -140z" />
    <glyph glyph-name="Uhungarumlaut" unicode="&#x170;" horiz-adv-x="1499" 
d="M380 1557l101 318h348l-181 -318h-268zM803 1557l154 318h362l-243 -318h-273zM749 -36q-275 0 -450.5 164t-175.5 427v879h404v-872q0 -105 61.5 -168t160.5 -63t160.5 63t61.5 168v872h404v-879q0 -263 -175.5 -427t-450.5 -164z" />
    <glyph glyph-name="uhungarumlaut" unicode="&#x171;" horiz-adv-x="1300" 
d="M272 1228l98 340h360l-179 -340h-279zM703 1228l154 340h359l-229 -340h-284zM651 -36q-246 0 -396 140t-150 371v631h381v-615q0 -87 44 -136t121 -49t120 49t43 136v615h381v-631q0 -231 -149 -371t-395 -140z" />
    <glyph glyph-name="Uogonek" unicode="&#x172;" horiz-adv-x="1499" 
d="M971 1434h404v-875q0 -69 -12.5 -130t-30.5 -106.5t-50.5 -89.5t-58 -71t-69.5 -60t-68.5 -48.5t-70.5 -43.5q-39 -23 -58.5 -35t-47.5 -33t-41.5 -37.5t-24 -39.5t-10.5 -47q0 -45 32 -67t84 -22q56 0 121 27v-189q-113 -60 -234 -60q-123 0 -205 61.5t-82 171.5
q0 58 32 120.5t90 110.5q-245 24 -396.5 184.5t-151.5 403.5v875h404v-867q0 -105 61.5 -168t160.5 -63t160.5 63t61.5 168v867z" />
    <glyph glyph-name="uogonek" unicode="&#x173;" horiz-adv-x="1298" 
d="M812 1106h381v-630q0 -78 -18 -143t-55 -118.5t-80.5 -95.5t-108.5 -91q-81 -61 -116.5 -102t-35.5 -92q0 -45 30 -69t80 -24q51 0 118 27v-190q-106 -59 -219 -59q-118 0 -196 63t-78 171t95 215q-229 13 -366.5 152.5t-137.5 360.5v625h381v-613q0 -86 42.5 -134.5
t118.5 -48.5q77 0 121 48.5t44 134.5v613z" />
    <glyph glyph-name="Wcircumflex" unicode="&#x174;" horiz-adv-x="2150" 
d="M1072 1705l-146 -145h-297l243 318h400l245 -318h-297zM1718 1434h420l-442 -1434h-347l-275 692l-270 -692h-348l-449 1434h425l232 -827l342 820h136l348 -820z" />
    <glyph glyph-name="wcircumflex" unicode="&#x175;" horiz-adv-x="1775" 
d="M888 1384l-147 -156h-297l243 340h401l245 -340h-297zM1376 1106h389l-352 -1106h-307l-219 495l-214 -495h-307l-361 1106h399l167 -581l262 577h102l276 -582z" />
    <glyph glyph-name="Ycircumflex" unicode="&#x176;" horiz-adv-x="1431" 
d="M716 1705l-146 -145h-297l243 318h401l244 -318h-297zM1417 1434l-501 -873v-561h-402v562l-497 872h438l262 -518l262 518h438z" />
    <glyph glyph-name="ycircumflex" unicode="&#x177;" horiz-adv-x="1269" 
d="M643 1384l-147 -156h-297l243 340h401l246 -340h-298zM867 1106h409l-463 -1057q-77 -174 -152.5 -271.5t-175.5 -143.5t-244 -46h-131v328h105q108 0 155 35t87 140l-457 1015h413l235 -609z" />
    <glyph glyph-name="Ydieresis" unicode="&#x178;" horiz-adv-x="1431" 
d="M282 1560v318h350v-318h-350zM804 1560v318h350v-318h-350zM1417 1434l-501 -873v-561h-402v562l-497 872h438l262 -518l262 518h438z" />
    <glyph glyph-name="Zacute" unicode="&#x179;" horiz-adv-x="1234" 
d="M1025 1878l-263 -318h-280l145 318h398zM629 368h553v-368h-1135v82l531 984h-496v368h1076v-90z" />
    <glyph glyph-name="zacute" unicode="&#x17a;" horiz-adv-x="1056" 
d="M875 1568l-225 -340h-279l116 340h388zM575 339h422v-339h-955v57l423 713h-386v336h913v-62z" />
    <glyph glyph-name="Zdotaccent" unicode="&#x17b;" horiz-adv-x="1234" 
d="M822 1878v-317h-373v317h373zM629 368h553v-368h-1135v82l531 984h-496v368h1076v-90z" />
    <glyph glyph-name="zdotaccent" unicode="&#x17c;" horiz-adv-x="1056" 
d="M722 1568v-331h-375v331h375zM575 339h422v-339h-955v57l423 713h-386v336h913v-62z" />
    <glyph glyph-name="Zcaron" unicode="&#x17d;" horiz-adv-x="1234" 
d="M835 1560h-400l-243 318h297l146 -146l148 146h297zM629 368h553v-368h-1135v82l531 984h-496v368h1076v-90z" />
    <glyph glyph-name="zcaron" unicode="&#x17e;" horiz-adv-x="1056" 
d="M736 1228h-401l-243 340h297l146 -156l149 156h297zM575 339h422v-339h-955v57l423 713h-386v336h913v-62z" />
    <glyph glyph-name="longs" unicode="&#x17f;" horiz-adv-x="663" 
d="M120 0v1154q0 170 92 260t263 90h274v-325h-151q-96 0 -96 -95v-1084h-382z" />
    <glyph glyph-name="florin" unicode="&#x192;" horiz-adv-x="964" 
d="M764 1100q-98 0 -112 -96l-13 -92h235l-41 -284h-227l-111 -768q-22 -158 -125 -247.5t-259 -89.5h-217l42 310h81q61 0 100.5 35t48.5 97l96 663h-182l41 284h183l25 175q19 139 110.5 213.5t235.5 74.5h262l-38 -275h-135z" />
    <glyph glyph-name="AEacute" unicode="&#x1fc;" horiz-adv-x="1941" 
d="M1522 1878l-263 -318h-279l144 318h398zM1326 343h527v-343h-908v231h-423l-129 -231h-436l824 1434h1055v-341h-510v-212h456v-324h-456v-214zM692 538h253v453z" />
    <glyph glyph-name="aeacute" unicode="&#x1fd;" horiz-adv-x="2183" 
d="M1422 1568l-225 -340h-280l116 340h389zM2130 559q0 -48 -7 -98h-832q20 -91 80.5 -138.5t153.5 -47.5q69 0 123 26t81 73h379q-57 -184 -209 -296t-348 -112q-213 0 -354 130l-12 -96h-218l-13 97q-144 -133 -345 -133q-155 0 -282 77t-199 212t-72 299
q0 254 158.5 420.5t394.5 166.5q205 0 350 -137l16 104h203l15 -100q143 134 358 134q248 0 413.5 -167t165.5 -414zM1526 844q-86 0 -144.5 -44t-83.5 -125h458q-25 82 -84.5 125.5t-145.5 43.5zM685 301q106 0 176 72t70 179q0 108 -70 179.5t-176 71.5t-176 -71.5
t-70 -179.5q0 -107 70 -179t176 -72z" />
    <glyph glyph-name="Oslashacute" unicode="&#x1fe;" horiz-adv-x="1742" 
d="M1247 1878l-263 -318h-280l145 318h398zM1391 1284q133 -105 209.5 -258t76.5 -324q0 -213 -99.5 -381.5t-278.5 -262.5t-406 -94q-130 0 -258 37l-75 -121h-384l171 271q-131 104 -207 256t-76 319q0 214 100.5 384t280 265t406.5 95q126 0 251 -37l70 118h384z
M852 1118q-170 0 -280 -111.5t-110 -283.5q0 -143 94 -250l373 637q-40 8 -77 8zM888 314q170 0 280.5 111t110.5 283q0 145 -96 254l-373 -639q45 -9 78 -9z" />
    <glyph glyph-name="oslashacute" unicode="&#x1ff;" horiz-adv-x="1372" 
d="M1025 1568l-226 -340h-279l116 340h389zM1082 1013q111 -79 172.5 -199t61.5 -267q0 -168 -78.5 -301.5t-219 -207.5t-318.5 -74q-97 0 -189 25l-64 -114h-288l125 220q-107 79 -167 198t-60 264q0 126 46 234.5t127 185t196 120t248 43.5q96 0 177 -22l62 113h287z
M674 809q-113 0 -184 -70.5t-71 -181.5q0 -96 55 -162l232 412q-20 2 -32 2zM700 295q112 0 182.5 70.5t70.5 181.5q0 98 -57 166l-233 -416q24 -2 37 -2z" />
    <glyph glyph-name="uni0218" unicode="&#x218;" horiz-adv-x="1288" 
d="M647 -35q-265 0 -421.5 133t-156.5 365h407q0 -73 48.5 -112.5t120.5 -39.5q66 0 114 33t48 89q0 22 -7.5 39.5t-27.5 32t-36.5 24t-53 20.5t-56.5 16.5t-67 16.5q-172 43 -248 80q-193 93 -220 291q-4 33 -4 70q0 210 145.5 327t400.5 117q257 0 399 -124t142 -344h-397
q0 65 -42 99.5t-107 34.5q-57 0 -97.5 -25.5t-40.5 -72.5q0 -20 7.5 -36t26.5 -29.5t36 -23t51.5 -20t55.5 -16.5t66 -17q47 -12 73 -19t73 -22t75 -27.5t68.5 -34.5t65 -44t52.5 -54.5t43.5 -68t26 -82.5t10.5 -100q0 -228 -157.5 -352t-415.5 -124zM523 -651v157
q62 3 96.5 36t34.5 87h-143v281h314v-254q0 -131 -81.5 -213.5t-220.5 -93.5z" />
    <glyph glyph-name="uni0219" unicode="&#x219;" horiz-adv-x="1093" 
d="M546 -36q-224 0 -355 108.5t-133 290.5h367q0 -58 36 -88.5t93 -30.5q45 0 76.5 22.5t31.5 63.5q0 43 -46.5 63.5t-143.5 36.5q-44 7 -76.5 14t-77 20.5t-76 29.5t-65.5 42.5t-55.5 59t-35 79t-13.5 102.5q0 166 130 265.5t343 99.5q210 0 337.5 -102.5t130.5 -271.5
h-357q0 52 -31 78t-85 26q-46 0 -74 -22t-28 -60q0 -18 10 -32t24.5 -23t41 -16.5t48.5 -12t59 -11.5q4 -1 6 -1q154 -27 222 -56q179 -77 185 -277v-15q0 -173 -134 -277.5t-355 -104.5zM426 -671v157q62 3 96.5 36.5t34.5 87.5h-144v280h315v-254q0 -131 -81.5 -213.5
t-220.5 -93.5z" />
    <glyph glyph-name="uni021A" unicode="&#x21a;" horiz-adv-x="1251" 
d="M1214 1434v-356h-390v-1078h-396v1078h-390v356h1176zM467 -359v281h314v-254q0 -131 -81.5 -213.5t-220.5 -93.5v157q62 3 96.5 36t34.5 87h-143z" />
    <glyph glyph-name="uni021B" unicode="&#x21b;" horiz-adv-x="923" 
d="M719 334h147v-334h-262q-184 0 -289 105.5t-105 289.5v418h-202v89l495 527h79v-323h278v-293h-269v-352q0 -59 34 -93t94 -34zM386 -376v280h315v-254q0 -131 -81.5 -213.5t-220.5 -93.5v157q62 3 96.5 36.5t34.5 87.5h-144z" />
    <glyph glyph-name="circumflex" unicode="&#x2c6;" horiz-adv-x="1228" 
d="M1092 1228h-297l-149 156l-146 -156h-298l243 340h402z" />
    <glyph glyph-name="caron" unicode="&#x2c7;" horiz-adv-x="1228" 
d="M733 1568h297l-245 -340h-401l-243 340h297l147 -156z" />
    <glyph glyph-name="breve" unicode="&#x2d8;" horiz-adv-x="1228" 
d="M572 1214q-178 0 -287 97.5t-109 256.5h270v-12q0 -52 35 -83t91 -31t88.5 31t32.5 83v12h274q0 -159 -108.5 -256.5t-286.5 -97.5z" />
    <glyph glyph-name="dotaccent" unicode="&#x2d9;" horiz-adv-x="788" 
d="M205 1237v331h376v-331h-376z" />
    <glyph glyph-name="ring" unicode="&#x2da;" horiz-adv-x="1005" 
d="M449 1191q-120 0 -195.5 71t-75.5 186t75.5 186t195.5 71t196 -71t76 -186t-76 -186t-196 -71zM449 1346q46 0 76 29t30 73t-30 73t-76 29t-75.5 -29t-29.5 -73t29.5 -73t75.5 -29z" />
    <glyph glyph-name="ogonek" unicode="&#x2db;" horiz-adv-x="1032" 
d="M477 -492q-119 0 -195.5 64.5t-76.5 168.5q0 144 128.5 261.5t362.5 184.5v-163q-112 -31 -171 -83.5t-59 -119.5q0 -43 30.5 -67.5t82.5 -24.5t114 27v-186q-101 -62 -216 -62z" />
    <glyph glyph-name="tilde" unicode="&#x2dc;" horiz-adv-x="1228" 
d="M756 1232q-12 0 -25 1.5t-22.5 2.5t-22.5 5t-20.5 5.5t-21 7.5l-18 8t-19 9t-17 8.5t-17 9.5t-15.5 8q-63 34 -89 34q-29 0 -48 -20t-19 -52v-20h-207v25q0 137 68.5 217t194.5 80q90 0 191 -64q62 -40 94 -40q31 0 49 20t18 55v23h208v-26q0 -139 -70 -218t-192 -79z
" />
    <glyph glyph-name="hungarumlaut" unicode="&#x2dd;" horiz-adv-x="1306" 
d="M173 1228l99 340h359l-179 -340h-279zM604 1228l155 340h358l-229 -340h-284z" />
    <glyph glyph-name="gravecomb" unicode="&#x300;" 
d="M-172 1228h-280l-225 340h389z" />
    <glyph glyph-name="acutecomb" unicode="&#x301;" 
d="M-698 1228l116 340h388l-225 -340h-279z" />
    <glyph glyph-name="uni0302" unicode="&#x302;" 
d="M-175 1228h-297l-149 156l-146 -156h-297l243 340h401z" />
    <glyph glyph-name="tildecomb" unicode="&#x303;" 
d="M-473 1232q-12 0 -25 1.5t-22.5 2.5t-22.5 5t-20.5 5.5t-21 7.5l-18 8t-19 9t-17 8.5t-17 9.5t-15.5 8q-63 34 -89 34q-29 0 -48 -20t-19 -52v-20h-207v25q0 137 68.5 217t194.5 80q90 0 191 -64q62 -40 95 -40q31 0 48.5 20t17.5 55v23h208v-26q0 -139 -70 -218
t-192 -79z" />
    <glyph glyph-name="uni0304" unicode="&#x304;" 
d="M-865 1259v265h686v-265h-686z" />
    <glyph glyph-name="uni0306" unicode="&#x306;" 
d="M-568 1214q-178 0 -286.5 97.5t-108.5 256.5h270v-12q0 -52 34.5 -83t90.5 -31t89 31t33 83v12h273q0 -159 -108.5 -256.5t-286.5 -97.5z" />
    <glyph glyph-name="uni0307" unicode="&#x307;" 
d="M-535 1237v331h375v-331h-375z" />
    <glyph glyph-name="uni0308" unicode="&#x308;" 
d="M-1071 1242v321h344v-321h-344zM-550 1242v321h344v-321h-344z" />
    <glyph glyph-name="uni030A" unicode="&#x30a;" 
d="M-449 1191q-120 0 -196 71t-76 186t76 186t196 71t195.5 -71t75.5 -186t-75.5 -186t-195.5 -71zM-449 1346q46 0 75.5 29t29.5 73t-29.5 73t-75.5 29t-76 -29t-30 -73t30 -73t76 -29z" />
    <glyph glyph-name="uni030B" unicode="&#x30b;" 
d="M-1188 1228l98 340h360l-179 -340h-279zM-757 1228l154 340h359l-229 -340h-284z" />
    <glyph glyph-name="uni030C" unicode="&#x30c;" 
d="M-496 1568h298l-245 -340h-402l-243 340h298l146 -156z" />
    <glyph glyph-name="uni0312" unicode="&#x312;" 
d="M-534 1518h144v-280h-314v254q0 131 81.5 213.5t220.5 93.5v-157q-62 -2 -97 -35.5t-35 -88.5z" />
    <glyph glyph-name="uni0326" unicode="&#x326;" 
d="M-372 -657v157q62 3 97 36.5t35 87.5h-144v280h315v-254q0 -130 -81.5 -213t-221.5 -94z" />
    <glyph glyph-name="uni0327" unicode="&#x327;" 
d="M-557 -67q91 -10 144.5 -62t53.5 -134q0 -95 -73 -154t-189 -59h-159v167h131q29 0 46.5 16t17.5 41t-17.5 41t-46.5 16h-93l-20 25l80 285h177z" />
    <glyph glyph-name="uni0328" unicode="&#x328;" 
d="M-425 -492q-119 0 -195.5 64.5t-76.5 168.5q0 144 128.5 261.5t362.5 184.5v-163q-112 -31 -171 -83.5t-59 -119.5q0 -43 31 -67.5t83 -24.5t114 27v-186q-101 -62 -217 -62z" />
    <glyph glyph-name="uni0335" unicode="&#x335;" 
d="M-1038 1229v209h841v-209h-841z" />
    <glyph glyph-name="uni0337" unicode="&#x337;" 
d="M-939 414v334l696 337v-335z" />
    <glyph glyph-name="tonos" unicode="&#x384;" horiz-adv-x="890" 
d="M202 1228l116 340h389l-225 -340h-280z" />
    <glyph glyph-name="dieresistonos" unicode="&#x385;" horiz-adv-x="1234" 
d="M425 1227l74 339h335l-150 -339h-259zM104 1274v257h265v-257h-265zM864 1274v257h265v-257h-265z" />
    <glyph glyph-name="Alphatonos" unicode="&#x386;" horiz-adv-x="1523" 
d="M-69 1109l137 325h380l-251 -325h-266zM1089 0l-79 233h-508l-79 -233h-423l563 1434h386l575 -1434h-435zM914 542l-159 444l-157 -444h316z" />
    <glyph glyph-name="Epsilontonos" unicode="&#x388;" horiz-adv-x="1161" 
d="M-419 1109l137 325h379l-250 -325h-266zM532 343h541v-343h-934v1434h917v-342h-524v-211h471v-324h-471v-214z" />
    <glyph glyph-name="Etatonos" unicode="&#x389;" horiz-adv-x="1503" 
d="M-418 1109l137 325h380l-250 -325h-267zM967 1434h399v-1434h-399v550h-430v-550h-398v1434h398v-518h430v518z" />
    <glyph glyph-name="Iotatonos" unicode="&#x38a;" horiz-adv-x="677" 
d="M-418 1109l137 325h380l-250 -325h-267zM139 0v1434h400v-1434h-400z" />
    <glyph glyph-name="Omicrontonos" unicode="&#x38c;" horiz-adv-x="1703" 
d="M853 -36q-228 0 -408 96.5t-280.5 268.5t-100.5 388t100.5 388t280.5 268.5t408 96.5q170 0 316.5 -56.5t250 -155t162.5 -239t59 -302.5t-59 -302.5t-162.5 -239t-250 -155t-316.5 -56.5zM-239 1109l137 325h380l-251 -325h-266zM853 331q164 0 270 109t106 277
t-106 276.5t-270 108.5t-271 -109t-107 -276t107 -276.5t271 -109.5z" />
    <glyph glyph-name="Upsilontonos" unicode="&#x38e;" horiz-adv-x="1431" 
d="M979 1434h438l-501 -873v-561h-402v562l-496 870l-249 -323h-266l137 325h815l262 -518z" />
    <glyph glyph-name="Omegatonos" unicode="&#x38f;" horiz-adv-x="1783" 
d="M1507 352h185v-352h-711v327q133 59 209.5 169t76.5 243q0 154 -108 258.5t-266 104.5t-266 -104.5t-108 -258.5q0 -133 76 -243t208 -169v-327h-711v352h186q-161 204 -161 440q0 137 56 261t155.5 216t246.5 146.5t318 54.5t317.5 -54.5t245.5 -146.5t155 -216t56 -261
q0 -238 -160 -440zM-74 1434h380l-250 -325h-266z" />
    <glyph glyph-name="iotadieresistonos" unicode="&#x390;" horiz-adv-x="776" 
d="M170 1227l69 339h318l-144 -339h-243zM-151 1273v257h264v-257h-264zM580 1273v257h264v-257h-264zM559 -4q-220 0 -334.5 112.5t-114.5 329.5v668h381v-629q0 -144 149 -144h109v-337h-190z" />
    <glyph glyph-name="Alpha" unicode="&#x391;" horiz-adv-x="1523" 
d="M1089 0l-79 233h-508l-79 -233h-423l563 1434h386l575 -1434h-435zM914 542l-159 444l-157 -444h316z" />
    <glyph glyph-name="Beta" unicode="&#x392;" horiz-adv-x="1333" 
d="M1045 757q102 -48 160.5 -140.5t58.5 -208.5q0 -174 -133 -291t-332 -117h-660v1434h647q191 0 315.5 -104t124.5 -263q0 -95 -49 -177.5t-132 -132.5zM851 1001q0 56 -36 90.5t-98 34.5h-199v-250h199q62 0 98 34.5t36 90.5zM732 324q64 0 103 36.5t39 94.5
q0 57 -39 93.5t-103 36.5h-214v-261h214z" />
    <glyph glyph-name="Gamma" unicode="&#x393;" horiz-adv-x="1050" 
d="M1011 1434v-358h-474v-1076h-398v1434h872z" />
    <glyph glyph-name="uni0394" unicode="&#x394;" horiz-adv-x="1507" 
d="M928 1434l582 -1434h-1508l570 1434h356zM750 942l-215 -607h429z" />
    <glyph glyph-name="Epsilon" unicode="&#x395;" horiz-adv-x="1161" 
d="M532 343h541v-343h-934v1434h917v-342h-524v-211h471v-324h-471v-214z" />
    <glyph glyph-name="Zeta" unicode="&#x396;" horiz-adv-x="1234" 
d="M629 368h553v-368h-1135v82l531 984h-496v368h1076v-90z" />
    <glyph glyph-name="Eta" unicode="&#x397;" horiz-adv-x="1503" 
d="M967 1434h399v-1434h-399v550h-430v-550h-398v1434h398v-518h430v518z" />
    <glyph glyph-name="Theta" unicode="&#x398;" horiz-adv-x="1705" 
d="M853 -36q-171 0 -317.5 56t-250 155t-162 239t-58.5 303t58.5 303t162 239t250 155t317.5 56q228 0 408 -95.5t280.5 -267.5t100.5 -390t-100.5 -390t-280.5 -267.5t-408 -95.5zM853 331q167 0 276 109t109 277t-109 276.5t-276 108.5t-275.5 -108.5t-108.5 -276.5
t108.5 -277t275.5 -109zM613 578v284h481v-284h-481z" />
    <glyph glyph-name="Iota" unicode="&#x399;" horiz-adv-x="677" 
d="M139 0v1434h400v-1434h-400z" />
    <glyph glyph-name="Kappa" unicode="&#x39a;" horiz-adv-x="1386" 
d="M1413 0h-468l-411 633v-633h-395v1434h395v-605l378 605h458l-459 -695z" />
    <glyph glyph-name="Lambda" unicode="&#x39b;" horiz-adv-x="1443" 
d="M1438 0h-445l-272 900l-284 -900h-432l532 1434h369z" />
    <glyph glyph-name="Mu" unicode="&#x39c;" horiz-adv-x="2011" 
d="M1955 0h-399l-112 826l-380 -828h-117l-380 827l-110 -825h-400l217 1434h394l338 -780l340 780h394z" />
    <glyph glyph-name="Nu" unicode="&#x39d;" horiz-adv-x="1556" 
d="M1035 1434h382v-1434h-326l-570 778v-778h-382v1434h345l551 -753v753z" />
    <glyph glyph-name="Xi" unicode="&#x39e;" horiz-adv-x="1163" 
d="M103 1076v358h957v-358h-957zM183 553v338h798v-338h-798zM87 0v364h988v-364h-988z" />
    <glyph glyph-name="Omicron" unicode="&#x39f;" horiz-adv-x="1703" 
d="M853 -36q-228 0 -408 96.5t-280.5 268.5t-100.5 388t100.5 388t280.5 268.5t408 96.5q170 0 316.5 -56.5t250 -155t162.5 -239t59 -302.5t-59 -302.5t-162.5 -239t-250 -155t-316.5 -56.5zM853 331q164 0 270 109t106 277t-106 276.5t-270 108.5t-271 -109t-107 -276
t107 -276.5t271 -109.5z" />
    <glyph glyph-name="Pi" unicode="&#x3a0;" horiz-adv-x="1476" 
d="M139 1434h1200v-1434h-401v1074h-399v-1074h-400v1434z" />
    <glyph glyph-name="Rho" unicode="&#x3a1;" horiz-adv-x="1320" 
d="M749 1434q229 0 380 -146.5t151 -371.5t-151 -372.5t-380 -147.5h-215v-396h-395v1434h610zM702 741q77 0 124.5 48.5t47.5 125.5t-47.5 125.5t-124.5 48.5h-168v-348h168z" />
    <glyph glyph-name="Sigma" unicode="&#x3a3;" horiz-adv-x="1189" 
d="M642 355h470v-355h-1087v83l473 644l-461 623v84h1056v-355h-433l252 -325v-53z" />
    <glyph glyph-name="Tau" unicode="&#x3a4;" horiz-adv-x="1251" 
d="M1214 1434v-356h-390v-1078h-396v1078h-390v356h1176z" />
    <glyph glyph-name="Upsilon" unicode="&#x3a5;" horiz-adv-x="1431" 
d="M1417 1434l-501 -873v-561h-402v562l-497 872h438l262 -518l262 518h438z" />
    <glyph glyph-name="Phi" unicode="&#x3a6;" horiz-adv-x="1894" 
d="M1831 718q0 -190 -80 -350.5t-238.5 -267.5t-370.5 -124v-209h-388v209q-159 13 -290.5 78t-218 165t-134 228t-47.5 268q0 141 47.5 269.5t134 229t218 166t290.5 78.5v178h388v-178q212 -17 370.5 -123.5t238.5 -266.5t80 -350zM458 716q0 -146 84 -256.5t228 -133.5
v780q-96 -15 -168 -73t-108 -140.5t-36 -176.5zM1126 326q144 23 228 133.5t84 256.5q0 94 -36 176.5t-108 140.5t-168 73v-780z" />
    <glyph glyph-name="Chi" unicode="&#x3a7;" horiz-adv-x="1359" 
d="M1365 0h-447l-236 440l-238 -440h-448l431 746l-407 688h445l215 -406l217 406h439l-402 -695z" />
    <glyph glyph-name="Psi" unicode="&#x3a8;" horiz-adv-x="1732" 
d="M1256 1434h393v-551q0 -252 -162.5 -409.5t-421.5 -157.5l1 -316h-399l1 316q-259 0 -421.5 157.5t-162.5 409.5v551h393v-550q0 -94 53.5 -148.5t146.5 -54.5h2v753h375v-753h2q93 0 146.5 54.5t53.5 148.5v550z" />
    <glyph glyph-name="uni03A9" unicode="&#x3a9;" horiz-adv-x="1783" 
d="M1507 352h185v-352h-711v327q133 59 209.5 169t76.5 243q0 154 -108 258.5t-266 104.5t-266 -104.5t-108 -258.5q0 -133 76 -243t208 -169v-327h-711v352h186q-161 204 -161 440q0 137 56 261t155.5 216t246.5 146.5t318 54.5t317.5 -54.5t245.5 -146.5t155 -216t56 -261
q0 -238 -160 -440z" />
    <glyph glyph-name="Iotadieresis" unicode="&#x3aa;" horiz-adv-x="677" 
d="M-78 1560v318h348v-318h-348zM405 1560v318h347v-318h-347zM139 0v1434h400v-1434h-400z" />
    <glyph glyph-name="Upsilondieresis" unicode="&#x3ab;" horiz-adv-x="1431" 
d="M282 1560v318h350v-318h-350zM804 1560v318h350v-318h-350zM1417 1434l-501 -873v-561h-402v562l-497 872h438l262 -518l262 518h438z" />
    <glyph glyph-name="alphatonos" unicode="&#x3ac;" horiz-adv-x="1417" 
d="M1048 1566l-225 -339h-280l116 339h389zM1013 1107h284v-1106h-295l-32 78q-143 -115 -334 -115q-167 0 -299.5 75.5t-206.5 210t-74 304.5q0 257 163 421.5t417 164.5q195 0 338 -118zM687 301q107 0 177.5 72t70.5 180t-70.5 180t-177.5 72t-177 -71.5t-70 -180.5
q0 -108 70 -180t177 -72z" />
    <glyph glyph-name="epsilontonos" unicode="&#x3ad;" horiz-adv-x="1071" 
d="M908 1566l-225 -339h-280l116 339h389zM685 376h352q-4 -187 -137 -299t-352 -112q-221 0 -356 103t-135 270q0 170 160 251q-126 84 -126 212q0 151 126 244.5t331 93.5q206 0 333 -98.5t133 -262.5h-346q-5 46 -35.5 72.5t-79.5 26.5q-52 0 -80.5 -24.5t-28.5 -66.5
q0 -40 29.5 -62.5t80.5 -22.5h127v-249h-127q-57 0 -91 -26t-34 -70q0 -46 32.5 -72.5t86.5 -26.5q61 0 97.5 31.5t39.5 87.5z" />
    <glyph glyph-name="etatonos" unicode="&#x3ae;" horiz-adv-x="1320" 
d="M1069 1566l-225 -339h-279l116 339h388zM790 1140q192 0 307.5 -126.5t115.5 -337.5v-1075h-381v1012q0 192 -144 192q-89 0 -138 -58.5t-49 -164.5v-582h-381v1106h267l52 -114q63 71 153.5 109.5t197.5 38.5z" />
    <glyph glyph-name="iotatonos" unicode="&#x3af;" horiz-adv-x="776" 
d="M147 1227l116 339h388l-225 -339h-279zM559 -4q-220 0 -334.5 112.5t-114.5 329.5v668h381v-629q0 -144 149 -144h109v-337h-190z" />
    <glyph glyph-name="upsilondieresistonos" unicode="&#x3b0;" horiz-adv-x="1300" 
d="M459 1227l73 339h335l-150 -339h-258zM138 1274v257h264v-257h-264zM898 1274v257h264v-257h-264zM651 -36q-246 0 -396 140t-150 371v631h381v-615q0 -87 44 -136t121 -49t120 49t43 136v615h381v-631q0 -231 -149 -371t-395 -140z" />
    <glyph glyph-name="alpha" unicode="&#x3b1;" horiz-adv-x="1417" 
d="M1013 1107h284v-1106h-294l-33 78q-143 -115 -334 -115q-167 0 -299.5 75.5t-206.5 210t-74 304.5q0 257 163 421.5t417 164.5q195 0 338 -118zM687 301q107 0 177.5 72t70.5 180t-70.5 180t-177.5 72t-177 -71.5t-70 -180.5q0 -108 70 -180t177 -72z" />
    <glyph glyph-name="beta" unicode="&#x3b2;" horiz-adv-x="1292" 
d="M1024 796q102 -54 156.5 -146t54.5 -211q0 -110 -43 -198.5t-118 -145.5t-173.5 -87.5t-211.5 -30.5q-117 0 -202 30v-406h-367v1376q0 261 146 411t402 150q222 0 367 -119t145 -315q0 -192 -156 -308zM668 289q97 0 154.5 45.5t57.5 128.5q0 81 -54 124.5t-152 43.5
h-91v296h84q81 0 131 44.5t50 117.5q0 69 -51 112t-123 43q-92 0 -139.5 -63.5t-47.5 -179.5v-679q90 -33 181 -33z" />
    <glyph glyph-name="gamma" unicode="&#x3b3;" horiz-adv-x="1232" 
d="M1230 1106l-420 -1036v-469h-377v466l-432 1039h395l225 -655l214 655h395z" />
    <glyph glyph-name="delta" unicode="&#x3b4;" horiz-adv-x="1284" 
d="M702 1164q255 -119 391.5 -286t136.5 -363q0 -236 -168.5 -393.5t-421.5 -157.5q-255 0 -421 155t-166 396q0 105 39.5 195.5t106.5 153t158 98.5t192 37q-197 113 -434 182v288h1008v-305h-421zM643 284q100 0 164.5 65t64.5 166t-64.5 167t-164.5 66t-164.5 -66
t-64.5 -167t64.5 -166t164.5 -65z" />
    <glyph glyph-name="epsilon" unicode="&#x3b5;" horiz-adv-x="1071" 
d="M685 376h352q-4 -187 -137 -299t-352 -112q-221 0 -356 103t-135 270q0 170 160 251q-126 84 -126 212q0 151 126 244.5t331 93.5q206 0 333 -98.5t133 -262.5h-346q-5 46 -35.5 72.5t-79.5 26.5q-52 0 -80.5 -24.5t-28.5 -66.5q0 -40 29.5 -62.5t80.5 -22.5h127v-249
h-127q-57 0 -91 -26t-34 -70q0 -46 32.5 -72.5t86.5 -26.5q61 0 97.5 31.5t39.5 87.5z" />
    <glyph glyph-name="zeta" unicode="&#x3b6;" horiz-adv-x="1093" 
d="M1091 1311q-330 -234 -487.5 -436t-157.5 -367q0 -59 21 -102t57 -69t82 -45t97.5 -35t102.5 -34.5t97 -48t82 -70t57 -107t21 -153.5q0 -107 -29 -243h-355q18 92 18 149q0 68 -35.5 114.5t-91.5 73t-124.5 49.5t-137 54t-124.5 75.5t-91.5 125.5t-35.5 192
q0 376 442 723h-398v348h990v-194z" />
    <glyph glyph-name="eta" unicode="&#x3b7;" horiz-adv-x="1320" 
d="M790 1140q192 0 307.5 -126.5t115.5 -337.5v-1075h-381v1012q0 192 -144 192q-89 0 -138 -58.5t-49 -164.5v-582h-381v1106h267l52 -114q63 71 153.5 109.5t197.5 38.5z" />
    <glyph glyph-name="theta" unicode="&#x3b8;" horiz-adv-x="1462" 
d="M730 1479q201 0 353 -97t232 -268t80 -392t-80 -392.5t-231.5 -268.5t-353.5 -97q-152 0 -277 56.5t-210 156.5t-131 240t-46 305q0 220 79 391t231 268.5t354 97.5zM730 1139q-114 0 -186 -73t-96 -208h565q-24 135 -97 208t-186 73zM730 304q112 0 185.5 74t97.5 209
h-565q24 -135 96.5 -209t185.5 -74z" />
    <glyph glyph-name="iota" unicode="&#x3b9;" horiz-adv-x="776" 
d="M559 -4q-220 0 -334.5 112.5t-114.5 329.5v668h381v-629q0 -144 149 -144h109v-337h-190z" />
    <glyph glyph-name="kappa" unicode="&#x3ba;" horiz-adv-x="1206" 
d="M1227 0h-448l-278 468v-468h-381v1106h381v-434l266 434h425l-345 -529z" />
    <glyph glyph-name="lambda" unicode="&#x3bb;" horiz-adv-x="1232" 
d="M1229 0h-410l-199 604l-213 -604h-408l438 1027q-37 92 -87 129.5t-147 37.5h-69v323h104q213 0 335.5 -100.5t223.5 -357.5z" />
    <glyph glyph-name="uni03BC" unicode="&#x3bc;" horiz-adv-x="1361" 
d="M862 1106h381v-1106h-256l-66 130q-118 -149 -318 -149q-66 0 -119 22v-398h-364v1501h381v-577q0 -107 37.5 -157t117.5 -50q95 0 150.5 62.5t55.5 169.5v552z" />
    <glyph glyph-name="nu" unicode="&#x3bd;" horiz-adv-x="1243" 
d="M834 1106h407l-445 -1106h-345l-450 1106h417l209 -655z" />
    <glyph glyph-name="xi" unicode="&#x3be;" horiz-adv-x="1150" 
d="M733 255q39 -13 61 -21t59.5 -23.5t60 -28t54 -32.5t50.5 -40.5t40.5 -49t33 -59.5t19.5 -71.5t8 -85.5q0 -104 -29 -243h-366q19 85 19 152q0 30 -9 56t-20.5 45t-36.5 38.5t-43.5 31t-54.5 27.5t-57.5 24l-64.5 24q-42 15 -63.5 23.5t-61 25t-61.5 29.5t-55 34.5
t-52 41.5t-41.5 49t-34.5 60t-20 70.5t-8 84.5q0 246 235 365q-96 55 -146 135.5t-50 178.5q0 184 149.5 301t386.5 117q233 0 379 -123.5t150 -322.5h-383q-2 58 -41.5 93.5t-100.5 35.5q-62 0 -101.5 -36t-39.5 -93q0 -62 40.5 -100.5t108.5 -38.5h122v-309h-124
q-80 0 -125 -42.5t-45 -109.5q0 -36 15 -65.5t34.5 -49t60 -39.5t67.5 -30.5t81 -28.5z" />
    <glyph glyph-name="omicron" unicode="&#x3bf;" horiz-adv-x="1351" 
d="M675 -36q-178 0 -320 75.5t-221 210t-79 303.5q0 257 174.5 423t445.5 166q177 0 319 -75t222 -210t80 -304t-80 -303.5t-222 -210t-319 -75.5zM675 306q105 0 172 69t67 178t-67.5 178t-171.5 69q-105 0 -171.5 -69t-66.5 -178t66.5 -178t171.5 -69z" />
    <glyph glyph-name="pi" unicode="&#x3c0;" horiz-adv-x="1302" 
d="M120 1106h1062v-1106h-380v779h-302v-779h-380v1106z" />
    <glyph glyph-name="rho" unicode="&#x3c1;" horiz-adv-x="1382" 
d="M713 1139q270 0 442.5 -165t172.5 -422q0 -167 -79 -301.5t-216.5 -210t-305.5 -75.5q-134 0 -252 70v-434h-379v928q0 183 78.5 322t218 213.5t320.5 74.5zM711 307q106 0 173 68.5t67 177.5t-67 177.5t-173 68.5t-172 -68.5t-66 -177.5q0 -108 66.5 -177t171.5 -69z
" />
    <glyph glyph-name="uni03C2" unicode="&#x3c2;" horiz-adv-x="1261" 
d="M811 -399q18 87 18 139q0 44 -16 79.5t-38 57.5t-64 43t-74.5 32t-88.5 29q-7 2 -10 3q-162 51 -236 93q-183 105 -228 319q-15 72 -15 159q-1 255 170 419t436 164q234 0 393.5 -133.5t186.5 -353.5h-371q-27 71 -82.5 108.5t-128.5 37.5q-98 0 -160.5 -68.5
t-62.5 -174.5q0 -42 10.5 -77.5t25 -61t42.5 -48t51.5 -36t64.5 -28t68 -22.5t74 -20q81 -21 123.5 -34.5t108.5 -46.5t99.5 -73t60 -108.5t26.5 -157.5q0 -110 -27 -240h-356z" />
    <glyph glyph-name="sigma" unicode="&#x3c3;" horiz-adv-x="1437" 
d="M1399 1107v-329h-190q74 -117 74 -243q0 -115 -42.5 -218t-119 -180.5t-192.5 -123t-254 -45.5q-272 0 -446 162t-174 415q0 246 174 404t445 158h725zM673 304q105 0 170.5 67t65.5 174t-65.5 174t-170.5 67t-170.5 -67t-65.5 -174t65.5 -174t170.5 -67z" />
    <glyph glyph-name="tau" unicode="&#x3c4;" horiz-adv-x="1030" 
d="M951 777h-268v-300q0 -144 150 -144h109v-337h-191q-220 0 -334.5 112.5t-114.5 329.5v339h-271v329h920v-329z" />
    <glyph glyph-name="upsilon" unicode="&#x3c5;" horiz-adv-x="1300" 
d="M651 -36q-246 0 -396 140t-150 371v631h381v-615q0 -87 44 -136t121 -49t120 49t43 136v615h381v-631q0 -231 -149 -371t-395 -140z" />
    <glyph glyph-name="phi" unicode="&#x3c6;" horiz-adv-x="1634" 
d="M1578 546q0 -243 -159 -400.5t-419 -173.5v-344h-362v344q-258 15 -420.5 174.5t-162.5 399.5q0 196 110 344t303 210l110 -304q-154 -75 -154 -250q0 -102 63.5 -168.5t168.5 -77.5v822h294q280 0 454 -159t174 -417zM980 300q103 11 166.5 78.5t63.5 167.5
q0 102 -63 168t-167 77v-491z" />
    <glyph glyph-name="chi" unicode="&#x3c7;" horiz-adv-x="1187" 
d="M1201 0h-426l-182 328l-185 -328h-421l367 574l-340 532h420l160 -279l167 279h415l-343 -522z" />
    <glyph glyph-name="psi" unicode="&#x3c8;" horiz-adv-x="1695" 
d="M1229 1106h362v-596q0 -242 -142.5 -392t-372.5 -150h-32v-361h-393v361h-32q-230 0 -372.5 150.5t-142.5 391.5v596h363v-585q0 -87 56 -147t140 -60h3v790h363v-790h6q82 0 138 59.5t56 147.5v585z" />
    <glyph glyph-name="omega" unicode="&#x3c9;" horiz-adv-x="1769" 
d="M1573 1106q132 -297 132 -562q0 -267 -119.5 -420t-326.5 -153q-136 0 -234.5 73t-139.5 204q-40 -131 -139 -204t-236 -73q-207 0 -326 153t-119 420q0 273 131 562h384q-132 -258 -132 -535q0 -118 36 -183.5t100 -65.5q59 0 92 49.5t33 138.5v374h351v-374
q0 -89 33 -138.5t92 -49.5q64 0 99.5 65.5t35.5 183.5q0 271 -131 535h384z" />
    <glyph glyph-name="iotadieresis" unicode="&#x3ca;" horiz-adv-x="776" 
d="M-129 1242v321h344v-321h-344zM392 1242v321h344v-321h-344zM559 -4q-220 0 -334.5 112.5t-114.5 329.5v668h381v-629q0 -144 149 -144h109v-337h-190z" />
    <glyph glyph-name="upsilondieresis" unicode="&#x3cb;" horiz-adv-x="1300" 
d="M217 1242v321h345v-321h-345zM738 1242v321h345v-321h-345zM651 -36q-246 0 -396 140t-150 371v631h381v-615q0 -87 44 -136t121 -49t120 49t43 136v615h381v-631q0 -231 -149 -371t-395 -140z" />
    <glyph glyph-name="omicrontonos" unicode="&#x3cc;" horiz-adv-x="1351" 
d="M517 1227l116 339h388l-225 -339h-279zM675 -36q-178 0 -320 75.5t-221 210t-79 303.5q0 257 174.5 423t445.5 166q177 0 319 -75t222 -210t80 -304t-80 -303.5t-222 -210t-319 -75.5zM675 306q105 0 172 69t67 178t-67.5 178t-171.5 69q-105 0 -171.5 -69t-66.5 -178
t66.5 -178t171.5 -69z" />
    <glyph glyph-name="upsilontonos" unicode="&#x3cd;" horiz-adv-x="1300" 
d="M493 1227l116 339h389l-225 -339h-280zM651 -36q-246 0 -396 140t-150 371v631h381v-615q0 -87 44 -136t121 -49t120 49t43 136v615h381v-631q0 -231 -149 -371t-395 -140z" />
    <glyph glyph-name="omegatonos" unicode="&#x3ce;" horiz-adv-x="1769" 
d="M1233 1566l-225 -339h-279l116 339h388zM1573 1106q132 -297 132 -562q0 -267 -119.5 -420t-326.5 -153q-136 0 -234.5 73t-139.5 204q-40 -131 -139 -204t-236 -73q-207 0 -326 153t-119 420q0 273 131 562h384q-132 -258 -132 -535q0 -118 36 -183.5t100 -65.5
q59 0 92 49.5t33 138.5v374h351v-374q0 -89 33 -138.5t92 -49.5q64 0 99.5 65.5t35.5 183.5q0 271 -131 535h384z" />
    <glyph glyph-name="uni0401" unicode="&#x401;" horiz-adv-x="1161" 
d="M166 1560v318h350v-318h-350zM688 1560v318h350v-318h-350zM532 343h541v-343h-934v1434h917v-342h-524v-211h471v-324h-471v-214z" />
    <glyph glyph-name="uni0402" unicode="&#x402;" horiz-adv-x="1572" 
d="M1032 949q210 0 347.5 -132t137.5 -350q0 -219 -138.5 -352.5t-365.5 -133.5h-45v332h23q73 0 114.5 44.5t41.5 108.5q0 66 -42 110.5t-115 44.5q-51 0 -102 -25t-90 -68v-528h-383v1084h-377v350h1152v-350h-392v-194q103 59 234 59z" />
    <glyph glyph-name="uni0403" unicode="&#x403;" horiz-adv-x="1050" 
d="M905 1878l-263 -318h-279l145 318h397zM1011 1434v-358h-474v-1076h-398v1434h872z" />
    <glyph glyph-name="uni0404" unicode="&#x404;" horiz-adv-x="1611" 
d="M1163 595h398q-39 -282 -243 -456.5t-495 -174.5q-162 0 -303 57.5t-241 157.5t-157.5 239.5t-57.5 298.5t58 299t158.5 239.5t241.5 157t301 57.5q283 0 483.5 -166.5t250.5 -442.5h-402q-37 112 -126 177.5t-206 65.5q-119 0 -209 -62t-128 -170h463v-310h-463
q39 -108 128 -170.5t209 -62.5q123 0 214.5 72t125.5 194z" />
    <glyph glyph-name="uni0405" unicode="&#x405;" horiz-adv-x="1288" 
d="M647 -35q-265 0 -421.5 133t-156.5 365h407q0 -73 48.5 -112.5t120.5 -39.5q66 0 114 33t48 89q0 22 -7.5 39.5t-27.5 32t-36.5 24t-53 20.5t-56.5 16.5t-67 16.5q-172 43 -248 80q-193 93 -220 291q-4 33 -4 70q0 210 145.5 327t400.5 117q257 0 399 -124t142 -344h-397
q0 65 -42 99.5t-107 34.5q-57 0 -97.5 -25.5t-40.5 -72.5q0 -20 7.5 -36t26.5 -29.5t36 -23t51.5 -20t55.5 -16.5t66 -17q47 -12 73 -19t73 -22t75 -27.5t68.5 -34.5t65 -44t52.5 -54.5t43.5 -68t26 -82.5t10.5 -100q0 -228 -157.5 -352t-415.5 -124z" />
    <glyph glyph-name="uni0406" unicode="&#x406;" horiz-adv-x="677" 
d="M139 0v1434h400v-1434h-400z" />
    <glyph glyph-name="uni0407" unicode="&#x407;" horiz-adv-x="677" 
d="M-78 1560v318h348v-318h-348zM405 1560v318h347v-318h-347zM139 0v1434h400v-1434h-400z" />
    <glyph glyph-name="uni0408" unicode="&#x408;" horiz-adv-x="1273" 
d="M593 -36q-248 0 -404.5 147t-156.5 381v56h398v-36q0 -82 44.5 -131.5t118.5 -49.5q70 0 114 49.5t44 131.5v922h397v-942q0 -234 -153.5 -381t-401.5 -147z" />
    <glyph glyph-name="uni0409" unicode="&#x409;" horiz-adv-x="2224" 
d="M1651 1013q234 0 382.5 -141.5t148.5 -364.5t-148.5 -365t-382.5 -142h-599v1074h-290l-55 -498q-66 -579 -547 -579h-115v365h68q91 0 139.5 55t62.5 175l99 842h1018v-421h219zM1603 337q81 0 132.5 47.5t51.5 123.5t-51 123t-133 47h-171v-341h171z" />
    <glyph glyph-name="uni040A" unicode="&#x40a;" horiz-adv-x="2117" 
d="M1568 968q224 0 367.5 -136t143.5 -348t-143.5 -348t-367.5 -136h-622v557h-409v-557h-398v1434h398v-511h409v511h396v-466h226zM1523 336q73 0 116.5 40.5t43.5 107.5q0 66 -43.5 105.5t-116.5 39.5h-185v-293h185z" />
    <glyph glyph-name="uni040B" unicode="&#x40b;" horiz-adv-x="1617" 
d="M1027 938q231 0 375 -151.5t144 -394.5v-392h-402v377q0 107 -48 165.5t-136 58.5q-62 0 -142 -27v-573h-398v1083h-382v350h1167v-350h-387v-181q108 35 209 35z" />
    <glyph glyph-name="uni040E" unicode="&#x40e;" horiz-adv-x="1355" 
d="M369 1573v267h657v-267h-657zM933 1434h427l-397 -963q-109 -262 -252 -370.5t-379 -108.5h-127v360h103q80 0 129 20t82 68l-519 994h453l271 -591z" />
    <glyph glyph-name="uni040F" unicode="&#x40f;" horiz-adv-x="1460" 
d="M1322 1434v-1434h-404v-256h-374v256h-405v1434h398v-1071h387v1071h398z" />
    <glyph glyph-name="uni0410" unicode="&#x410;" horiz-adv-x="1523" 
d="M1089 0l-79 233h-508l-79 -233h-423l563 1434h386l575 -1434h-435zM914 542l-159 444l-157 -444h316z" />
    <glyph glyph-name="uni0411" unicode="&#x411;" horiz-adv-x="1292" 
d="M766 913q208 0 338 -127t130 -329t-130.5 -329.5t-337.5 -127.5h-627v1434h970v-350h-591v-171h248zM693 318q63 0 102.5 39t39.5 101t-39.5 101t-102.5 39h-175v-280h175z" />
    <glyph glyph-name="uni0412" unicode="&#x412;" horiz-adv-x="1333" 
d="M1045 757q102 -48 160.5 -140.5t58.5 -208.5q0 -174 -133 -291t-332 -117h-660v1434h647q191 0 315.5 -104t124.5 -263q0 -95 -49 -177.5t-132 -132.5zM851 1001q0 56 -36 90.5t-98 34.5h-199v-250h199q62 0 98 34.5t36 90.5zM732 324q64 0 103 36.5t39 94.5
q0 57 -39 93.5t-103 36.5h-214v-261h214z" />
    <glyph glyph-name="uni0413" unicode="&#x413;" horiz-adv-x="1050" 
d="M1011 1434v-358h-474v-1076h-398v1434h872z" />
    <glyph glyph-name="uni0414" unicode="&#x414;" horiz-adv-x="1609" 
d="M1390 362h143v-621h-361v259h-761v-259h-361v621h131q63 69 87 236.5t67 734.5q5 66 8 101h1047v-1072zM693 1075q-14 -297 -42 -460.5t-79 -252.5h430v713h-309z" />
    <glyph glyph-name="uni0415" unicode="&#x415;" horiz-adv-x="1161" 
d="M532 343h541v-343h-934v1434h917v-342h-524v-211h471v-324h-471v-214z" />
    <glyph glyph-name="uni0416" unicode="&#x416;" horiz-adv-x="2076" 
d="M2096 0h-460l-404 645v-645h-388v645l-403 -645h-461l496 738l-449 696h454l363 -615v615h388v-615l364 615h454l-449 -696z" />
    <glyph glyph-name="uni0417" unicode="&#x417;" horiz-adv-x="1239" 
d="M967 745q209 -115 207 -339q0 -106 -47.5 -192t-127 -139.5t-179.5 -82t-209 -28.5q-152 0 -276.5 55t-202 168t-77.5 266h394q1 -72 47 -114t112 -42q69 0 116.5 40t47.5 104q0 61 -46.5 98.5t-125.5 37.5h-117v315h113q72 0 114 36t42 92q0 60 -41.5 96.5t-102.5 36.5
q-62 0 -106 -39t-45 -103h-383q0 110 45.5 199t122 145t173.5 85.5t204 29.5q100 0 192 -27.5t165.5 -79t117.5 -134t44 -183.5q0 -189 -171 -301z" />
    <glyph glyph-name="uni0418" unicode="&#x418;" horiz-adv-x="1542" 
d="M1094 1434h309v-1434h-388v764l-570 -764h-306v1434h388v-769z" />
    <glyph glyph-name="uni0419" unicode="&#x419;" horiz-adv-x="1542" 
d="M448 1573v267h657v-267h-657zM1094 1434h309v-1434h-388v764l-570 -764h-306v1434h388v-769z" />
    <glyph glyph-name="uni041A" unicode="&#x41a;" horiz-adv-x="1386" 
d="M1413 0h-468l-411 633v-633h-395v1434h395v-605l378 605h458l-459 -695z" />
    <glyph glyph-name="uni041B" unicode="&#x41b;" horiz-adv-x="1574" 
d="M416 1434h1020v-1434h-395v1074h-277l-55 -499q-66 -579 -547 -579h-115v362h68q91 0 139.5 55.5t62.5 175.5z" />
    <glyph glyph-name="uni041C" unicode="&#x41c;" horiz-adv-x="2011" 
d="M1955 0h-399l-112 826l-380 -828h-117l-380 827l-110 -825h-400l217 1434h394l338 -780l340 780h394z" />
    <glyph glyph-name="uni041D" unicode="&#x41d;" horiz-adv-x="1503" 
d="M967 1434h399v-1434h-399v550h-430v-550h-398v1434h398v-518h430v518z" />
    <glyph glyph-name="uni041E" unicode="&#x41e;" horiz-adv-x="1703" 
d="M853 -36q-228 0 -408 96.5t-280.5 268.5t-100.5 388t100.5 388t280.5 268.5t408 96.5q170 0 316.5 -56.5t250 -155t162.5 -239t59 -302.5t-59 -302.5t-162.5 -239t-250 -155t-316.5 -56.5zM853 331q164 0 270 109t106 277t-106 276.5t-270 108.5t-271 -109t-107 -276
t107 -276.5t271 -109.5z" />
    <glyph glyph-name="uni041F" unicode="&#x41f;" horiz-adv-x="1476" 
d="M139 1434h1200v-1434h-401v1074h-399v-1074h-400v1434z" />
    <glyph glyph-name="uni0420" unicode="&#x420;" horiz-adv-x="1320" 
d="M749 1434q229 0 380 -146.5t151 -371.5t-151 -372.5t-380 -147.5h-215v-396h-395v1434h610zM702 741q77 0 124.5 48.5t47.5 125.5t-47.5 125.5t-124.5 48.5h-168v-348h168z" />
    <glyph glyph-name="uni0421" unicode="&#x421;" horiz-adv-x="1605" 
d="M826 -36q-215 0 -389.5 98t-273.5 270t-99 384q0 213 99 385.5t273.5 270.5t389.5 98q282 0 481.5 -169.5t243.5 -442.5h-400q-37 111 -124 177t-200 66q-152 0 -252 -109t-100 -276q0 -166 100 -274t252 -108q119 0 206.5 71.5t117.5 191.5h404q-41 -283 -242 -458
t-487 -175z" />
    <glyph glyph-name="uni0422" unicode="&#x422;" horiz-adv-x="1251" 
d="M1214 1434v-356h-390v-1078h-396v1078h-390v356h1176z" />
    <glyph glyph-name="uni0423" unicode="&#x423;" horiz-adv-x="1355" 
d="M933 1434h427l-398 -963q-109 -262 -251.5 -370.5t-378.5 -108.5h-127v359h103q80 0 129 20.5t82 68.5l-519 994h453l271 -591z" />
    <glyph glyph-name="uni0424" unicode="&#x424;" horiz-adv-x="1894" 
d="M1831 718q0 -190 -80 -350.5t-238.5 -267.5t-370.5 -124v-209h-388v209q-159 13 -290.5 78t-218 165t-134 228t-47.5 268q0 141 47.5 269.5t134 229t218 166t290.5 78.5v178h388v-178q212 -17 370.5 -123.5t238.5 -266.5t80 -350zM458 716q0 -146 84 -256.5t228 -133.5
v780q-96 -15 -168 -73t-108 -140.5t-36 -176.5zM1126 326q144 23 228 133.5t84 256.5q0 94 -36 176.5t-108 140.5t-168 73v-780z" />
    <glyph glyph-name="uni0425" unicode="&#x425;" horiz-adv-x="1359" 
d="M1365 0h-447l-236 440l-238 -440h-448l431 746l-407 688h445l215 -406l217 406h439l-402 -695z" />
    <glyph glyph-name="uni0426" unicode="&#x426;" horiz-adv-x="1533" 
d="M1314 362h141v-621h-361v259h-955v1434h398v-1072h378v1072h399v-1072z" />
    <glyph glyph-name="uni0427" unicode="&#x427;" horiz-adv-x="1380" 
d="M841 1433h400v-1434h-400v449q-109 -31 -215 -31q-156 0 -279 65t-196 197t-73 313v441h402v-433q0 -110 51 -166.5t145 -56.5q71 0 165 35v621z" />
    <glyph glyph-name="uni0428" unicode="&#x428;" horiz-adv-x="2025" 
d="M1492 1434h395v-1434h-1748v1434h395v-1072h292v1072h374v-1072h292v1072z" />
    <glyph glyph-name="uni0429" unicode="&#x429;" horiz-adv-x="2109" 
d="M1887 362h147v-621h-362v259h-1533v1434h395v-1072h292v1072h374v-1072h292v1072h395v-1072z" />
    <glyph glyph-name="uni042A" unicode="&#x42a;" horiz-adv-x="1546" 
d="M974 1017q234 0 382.5 -141.5t148.5 -365.5t-148.5 -367t-382.5 -143h-608v1081h-326v353h715v-417h219zM926 340q81 0 132 47.5t51 122.5t-51 121.5t-132 46.5h-171v-338h171z" />
    <glyph glyph-name="uni042B" unicode="&#x42b;" horiz-adv-x="1945" 
d="M747 1017q234 0 382.5 -141.5t148.5 -365.5t-148.5 -367t-382.5 -143h-608v1434h388v-417h220zM1407 1434h400v-1434h-400v1434zM699 340q80 0 131 47t51 123q0 75 -50.5 121.5t-131.5 46.5h-172v-338h172z" />
    <glyph glyph-name="uni042C" unicode="&#x42c;" horiz-adv-x="1318" 
d="M747 1017q234 0 382.5 -141.5t148.5 -365.5t-148.5 -367t-382.5 -143h-608v1434h388v-417h220zM699 340q80 0 131 47t51 123q0 75 -50.5 121.5t-131.5 46.5h-172v-338h172z" />
    <glyph glyph-name="uni042D" unicode="&#x42d;" horiz-adv-x="1611" 
d="M790 1470q214 0 387.5 -97.5t272 -270t98.5 -385.5q0 -212 -97.5 -384.5t-271 -270.5t-389.5 -98q-291 0 -495 174.5t-243 456.5h397q34 -122 126 -194t215 -72q119 0 208 62.5t128 170.5h-463v310h463q-38 108 -127.5 170t-208.5 62q-117 0 -206.5 -65.5t-126.5 -177.5
h-402q50 276 251 442.5t484 166.5z" />
    <glyph glyph-name="uni042E" unicode="&#x42e;" horiz-adv-x="2236" 
d="M1404 1470q222 0 396.5 -94t272.5 -266t98 -393q0 -166 -57.5 -307t-159 -238.5t-245 -152.5t-310.5 -55q-280 0 -476.5 155t-250.5 418h-138v-537h-395v1434h395v-533h139q54 262 251 415.5t480 153.5zM1396 332q163 0 265 107.5t102 277.5t-102 277t-265 107
q-162 0 -265 -107t-103 -277t103 -277.5t265 -107.5z" />
    <glyph glyph-name="uni042F" unicode="&#x42f;" horiz-adv-x="1384" 
d="M608 1434h639v-1434h-390v448h-134l-234 -448h-442l285 518q-119 60 -185 166t-66 244q0 221 148 363.5t379 142.5zM666 767h191v319h-191q-78 0 -126 -43.5t-48 -114.5q0 -72 48 -116.5t126 -44.5z" />
    <glyph glyph-name="uni0430" unicode="&#x430;" horiz-adv-x="1417" 
d="M1013 1107h284v-1106h-294l-33 78q-143 -115 -334 -115q-167 0 -299.5 75.5t-206.5 210t-74 304.5q0 257 163 421.5t417 164.5q195 0 338 -118zM687 301q107 0 177.5 72t70.5 180t-70.5 180t-177.5 72t-177 -71.5t-70 -180.5q0 -108 70 -180t177 -72z" />
    <glyph glyph-name="uni0431" unicode="&#x431;" horiz-adv-x="1355" 
d="M755 1059q241 0 392 -149t151 -386q0 -253 -165.5 -406.5t-439.5 -153.5q-291 0 -455.5 182.5t-164.5 504.5q0 356 158.5 569.5t479.5 291.5l409 100v-355l-409 -100q-232 -56 -278 -208q146 110 322 110zM694 294q101 0 167.5 67t66.5 169t-66.5 169.5t-167.5 67.5
t-167 -67.5t-66 -169.5t66 -169t167 -67z" />
    <glyph glyph-name="uni0432" unicode="&#x432;" horiz-adv-x="1185" 
d="M943 586q86 -33 134.5 -102.5t48.5 -163.5q0 -140 -100.5 -230t-259.5 -90h-646v1106h637q148 0 241.5 -77.5t93.5 -201.5q0 -80 -39.5 -142.5t-109.5 -98.5zM744 772q0 42 -27 67.5t-73 25.5h-169v-187h169q46 0 73 26t27 68zM656 256q49 0 77 26t28 71q0 46 -28 72.5
t-77 26.5h-181v-196h181z" />
    <glyph glyph-name="uni0433" unicode="&#x433;" horiz-adv-x="925" 
d="M894 1106v-329h-400v-777h-374v1106h774z" />
    <glyph glyph-name="uni0434" unicode="&#x434;" horiz-adv-x="1396" 
d="M1187 336h139v-595h-326v259h-635v-259h-326v595h123q52 56 80 205.5t65 564.5h880v-770zM629 787q-26 -337 -96 -451h300v451h-204z" />
    <glyph glyph-name="uni0435" unicode="&#x435;" horiz-adv-x="1312" 
d="M1259 563q0 -52 -7 -100h-822q19 -95 77 -144t149 -49q67 0 119.5 27.5t80.5 76.5h379q-58 -189 -214.5 -299.5t-364.5 -110.5q-170 0 -307.5 76.5t-215.5 211.5t-78 302q0 254 170.5 421t430.5 167q131 0 244 -45t191.5 -122.5t123 -184.5t44.5 -227zM656 844
q-83 0 -139.5 -43.5t-79.5 -126.5h447q-51 170 -228 170z" />
    <glyph glyph-name="uni0436" unicode="&#x436;" horiz-adv-x="1763" 
d="M1783 0h-430l-295 478v-478h-365v468l-281 -468h-429l371 576l-335 530h416l258 -436v436h365v-447l271 447h417l-341 -529z" />
    <glyph glyph-name="uni0437" unicode="&#x437;" horiz-adv-x="1069" 
d="M851 589q162 -84 162 -268q0 -108 -66 -190.5t-175.5 -124.5t-243.5 -42q-218 0 -354.5 108t-140.5 298h352q3 -54 39.5 -84.5t97.5 -30.5q56 0 87.5 27t31.5 70q0 44 -33 72t-93 28h-120v240h120q54 0 82.5 24t28.5 65t-28.5 65t-80.5 24q-50 0 -80.5 -25.5t-36.5 -71.5
h-344q5 113 69 198t168 128t233 43q191 0 322 -93t131 -241q0 -134 -128 -219z" />
    <glyph glyph-name="uni0438" unicode="&#x438;" horiz-adv-x="1275" 
d="M936 1106h219v-1106h-367v497l-445 -497h-223v1106h367v-491z" />
    <glyph glyph-name="uni0439" unicode="&#x439;" horiz-adv-x="1275" 
d="M952 1505v-246h-587v246h587zM936 1106h219v-1106h-367v497l-445 -497h-223v1106h367v-491z" />
    <glyph glyph-name="uni043A" unicode="&#x43a;" horiz-adv-x="1206" 
d="M1227 0h-448l-278 468v-468h-381v1106h381v-434l266 434h425l-345 -529z" />
    <glyph glyph-name="uni043B" unicode="&#x43b;" horiz-adv-x="1306" 
d="M323 1106h863v-1106h-376v787h-171l-32 -314q-26 -250 -141.5 -363.5t-331.5 -113.5h-98v313h48q77 0 117.5 41t50.5 133z" />
    <glyph glyph-name="uni043C" unicode="&#x43c;" horiz-adv-x="1660" 
d="M1612 0h-360l-81 562l-292 -566h-96l-294 569l-81 -565h-358l170 1106h334l277 -559l280 559h324z" />
    <glyph glyph-name="uni043D" unicode="&#x43d;" horiz-adv-x="1302" 
d="M803 1106h379v-1106h-379v390h-304v-390h-379v1106h379v-381h304v381z" />
    <glyph glyph-name="uni043E" unicode="&#x43e;" horiz-adv-x="1351" 
d="M675 -36q-178 0 -320 75.5t-221 210t-79 303.5q0 257 174.5 423t445.5 166q177 0 319 -75t222 -210t80 -304t-80 -303.5t-222 -210t-319 -75.5zM675 306q105 0 172 69t67 178t-67.5 178t-171.5 69q-105 0 -171.5 -69t-66.5 -178t66.5 -178t171.5 -69z" />
    <glyph glyph-name="uni043F" unicode="&#x43f;" horiz-adv-x="1302" 
d="M120 1106h1062v-1106h-380v779h-302v-779h-380v1106z" />
    <glyph glyph-name="uni0440" unicode="&#x440;" horiz-adv-x="1400" 
d="M766 1142q254 0 417 -165.5t163 -423.5q0 -170 -74 -305t-206.5 -210t-299.5 -75q-149 0 -270 73v-435h-376v1505h259l48 -88q143 124 339 124zM715 300q107 0 177.5 72t70.5 181t-70.5 181t-177.5 72t-177.5 -72t-70.5 -181t70.5 -181t177.5 -72z" />
    <glyph glyph-name="uni0441" unicode="&#x441;" horiz-adv-x="1302" 
d="M667 -36q-131 0 -245 44.5t-194 122t-126 187.5t-46 236q0 256 172 421t440 165q233 0 393.5 -134.5t192.5 -355.5h-371q-24 68 -83 108.5t-133 40.5q-101 0 -165 -69t-64 -177t64.5 -178t164.5 -70q76 0 134.5 43.5t81.5 117.5h375q-32 -225 -195 -363.5t-396 -138.5z
" />
    <glyph glyph-name="uni0442" unicode="&#x442;" horiz-adv-x="1132" 
d="M1102 1106v-329h-348v-777h-374v777h-348v329h1070z" />
    <glyph glyph-name="uni0443" unicode="&#x443;" horiz-adv-x="1269" 
d="M867 1106h409l-463 -1057q-77 -174 -152.5 -271.5t-175.5 -143.5t-244 -46h-131v328h105q108 0 155 35t87 140l-457 1015h413l235 -609z" />
    <glyph glyph-name="uni0444" unicode="&#x444;" horiz-adv-x="1615" 
d="M1559 552q0 -246 -161 -408.5t-418 -176.5v-315h-345v315q-257 14 -418.5 176t-161.5 409q0 245 162.5 409t417.5 178v305h345v-305q255 -14 417 -177t162 -410zM961 282q105 9 169.5 83.5t64.5 186.5q0 111 -65 186t-169 85v-541zM421 552q0 -112 64 -185.5t168 -84.5
v541q-104 -11 -168 -85.5t-64 -185.5z" />
    <glyph glyph-name="uni0445" unicode="&#x445;" horiz-adv-x="1187" 
d="M1201 0h-426l-182 328l-185 -328h-421l367 574l-340 532h420l160 -279l167 279h415l-343 -522z" />
    <glyph glyph-name="uni0446" unicode="&#x446;" horiz-adv-x="1361" 
d="M1151 329h144v-588h-328v259h-847v1106h377v-777h277v777h377v-777z" />
    <glyph glyph-name="uni0447" unicode="&#x447;" horiz-adv-x="1208" 
d="M713 1106h375v-1106h-375v331q-92 -26 -186 -26q-214 0 -340.5 129t-126.5 353v319h377v-322q0 -163 148 -163q70 0 128 29v456z" />
    <glyph glyph-name="uni0448" unicode="&#x448;" horiz-adv-x="1759" 
d="M1270 1106h369v-1106h-1519v1106h369v-777h217v777h347v-777h217v777z" />
    <glyph glyph-name="uni0449" unicode="&#x449;" horiz-adv-x="1851" 
d="M1639 333h144v-592h-327v259h-1336v1106h369v-777h217v777h347v-777h217v777h369v-773z" />
    <glyph glyph-name="uni044A" unicode="&#x44a;" horiz-adv-x="1296" 
d="M821 823q201 0 320.5 -113t119.5 -298t-119.5 -298.5t-320.5 -113.5h-525v792h-263v314h616v-283h172zM779 290q59 0 93.5 32.5t34.5 89.5t-34.5 89t-93.5 32h-130v-243h130z" />
    <glyph glyph-name="uni044B" unicode="&#x44b;" horiz-adv-x="1732" 
d="M645 823q201 0 320 -113t119 -298t-119 -298.5t-320 -113.5h-525v1106h353v-283h172zM1234 1106h380v-1106h-380v1106zM603 290q59 0 93.5 32.5t34.5 89.5t-34.5 89t-93.5 32h-130v-243h130z" />
    <glyph glyph-name="uni044C" unicode="&#x44c;" horiz-adv-x="1120" 
d="M645 823q201 0 320 -113t119 -298t-119 -298.5t-320 -113.5h-525v1106h353v-283h172zM603 290q59 0 93.5 32.5t34.5 89.5t-34.5 89t-93.5 32h-130v-243h130z" />
    <glyph glyph-name="uni044D" unicode="&#x44d;" horiz-adv-x="1288" 
d="M632 1140q262 0 431 -165t169 -421q0 -127 -45 -236.5t-124 -187t-190.5 -122t-240.5 -44.5q-228 0 -389.5 131.5t-199.5 345.5h369q26 -77 84 -119.5t139 -42.5q80 0 137.5 40.5t83.5 113.5h-326v243h325q-26 72 -82.5 111t-137.5 39q-79 0 -139 -40.5t-87 -111.5h-363
q40 210 200.5 338t385.5 128z" />
    <glyph glyph-name="uni044E" unicode="&#x44e;" horiz-adv-x="1841" 
d="M1171 1140q272 0 443 -164.5t171 -423.5q0 -261 -171 -424.5t-443 -163.5q-215 0 -366 115t-199 310h-109v-389h-377v1106h377v-392h109q48 194 199.5 310t365.5 116zM1171 304q103 0 170 70.5t67 177.5t-67 177.5t-170 70.5t-170 -70.5t-67 -177.5t67 -177.5t170 -70.5z
" />
    <glyph glyph-name="uni044F" unicode="&#x44f;" horiz-adv-x="1204" 
d="M474 1106h610v-1106h-352v356h-121l-178 -356h-404l241 423q-88 46 -137 126.5t-49 182.5q0 163 110 268.5t280 105.5zM576 613h156v226h-156q-57 0 -88.5 -31t-31.5 -82t31.5 -82t88.5 -31z" />
    <glyph glyph-name="uni0451" unicode="&#x451;" horiz-adv-x="1312" 
d="M567 1563v-321h-345v321h345zM1088 1563v-321h-345v321h345zM1259 563q0 -52 -7 -100h-822q19 -95 77 -144t149 -49q67 0 119.5 27.5t80.5 76.5h379q-58 -189 -214.5 -299.5t-364.5 -110.5q-170 0 -307.5 76.5t-215.5 211.5t-78 302q0 254 170.5 421t430.5 167
q131 0 244 -45t191.5 -122.5t123 -184.5t44.5 -227zM656 844q-83 0 -139.5 -43.5t-79.5 -126.5h447q-51 170 -228 170z" />
    <glyph glyph-name="uni0452" unicode="&#x452;" horiz-adv-x="1320" 
d="M796 1136q190 0 303.5 -129t113.5 -345v-639q0 -197 -116 -313.5t-313 -116.5h-117v312h45q57 0 88.5 32.5t31.5 90.5v580q0 193 -144 193q-89 0 -138 -59t-49 -165v-577h-381v1204h-178v209h178v92h381v-92h282v-209h-282v-174q130 106 295 106z" />
    <glyph glyph-name="uni0453" unicode="&#x453;" horiz-adv-x="925" 
d="M868 1568l-225 -340h-279l116 340h388zM894 1106v-329h-400v-777h-374v1106h774z" />
    <glyph glyph-name="uni0454" unicode="&#x454;" horiz-adv-x="1288" 
d="M875 441h370q-38 -214 -199.5 -345.5t-389.5 -131.5q-172 0 -309.5 75.5t-214.5 210.5t-77 304q0 256 169.5 421t431.5 165q225 0 385 -128t200 -338h-362q-27 70 -87 111t-140 41q-81 0 -137.5 -39t-82.5 -111h325v-243h-326q26 -73 83.5 -113.5t137.5 -40.5
q81 0 139 42.5t84 119.5z" />
    <glyph glyph-name="uni0455" unicode="&#x455;" horiz-adv-x="1093" 
d="M546 -36q-224 0 -355 108.5t-133 290.5h367q0 -58 36 -88.5t93 -30.5q45 0 76.5 22.5t31.5 63.5q0 43 -46.5 63.5t-143.5 36.5q-44 7 -76.5 14t-77 20.5t-76 29.5t-65.5 42.5t-55.5 59t-35 79t-13.5 102.5q0 166 130 265.5t343 99.5q210 0 337.5 -102.5t130.5 -271.5
h-357q0 52 -31 78t-85 26q-46 0 -74 -22t-28 -60q0 -18 10 -32t24.5 -23t41 -16.5t48.5 -12t59 -11.5q4 -1 6 -1q154 -27 222 -56q179 -77 185 -277v-15q0 -173 -134 -277.5t-355 -104.5z" />
    <glyph glyph-name="uni0456" unicode="&#x456;" horiz-adv-x="620" 
d="M123 1244v324h375v-324h-375zM120 0v1106h381v-1106h-381z" />
    <glyph glyph-name="uni0457" unicode="&#x457;" horiz-adv-x="620" 
d="M-105 1237v331h347v-331h-347zM374 1237v331h347v-331h-347zM120 0v1106h381v-1106h-381z" />
    <glyph glyph-name="uni0458" unicode="&#x458;" horiz-adv-x="645" 
d="M147 1244v324h375v-324h-375zM-87 -421v336h94q67 0 102 37.5t35 108.5v1045h381v-1076q0 -213 -123.5 -332t-345.5 -119h-143z" />
    <glyph glyph-name="uni0459" unicode="&#x459;" horiz-adv-x="1824" 
d="M1350 823q201 0 320.5 -113t119.5 -298t-119.5 -298.5t-320.5 -113.5h-525v791h-188l-32 -318q-24 -250 -140 -363.5t-333 -113.5h-98v313h48q77 0 117.5 41t50.5 133l71 623h850v-283h179zM1308 290q59 0 93.5 32.5t34.5 89.5t-34.5 89t-93.5 32h-137v-243h137z" />
    <glyph glyph-name="uni045A" unicode="&#x45a;" horiz-adv-x="1822" 
d="M1347 816q201 0 320 -112t119 -296t-119 -296t-320 -112h-543v401h-309v-401h-375v1106h375v-370h309v370h373v-290h170zM1305 290q59 0 93.5 31t34.5 87t-34.5 87t-93.5 31h-130v-236h130z" />
    <glyph glyph-name="uni045B" unicode="&#x45b;" horiz-adv-x="1320" 
d="M796 1139q190 0 303.5 -129t113.5 -344v-666h-381v622q0 192 -144 192q-87 0 -137 -58.5t-50 -164.5v-591h-381v1208h-150v209h150v88h381v-88h310v-209h-310v-175q130 106 295 106z" />
    <glyph glyph-name="uni045C" unicode="&#x45c;" horiz-adv-x="1206" 
d="M963 1568l-225 -340h-279l116 340h388zM1227 0h-448l-278 468v-468h-381v1106h381v-434l266 434h425l-345 -529z" />
    <glyph glyph-name="uni045D" unicode="&#x45d;" horiz-adv-x="1275" 
d="M817 1228h-279l-226 340h389zM936 1106h219v-1106h-367v497l-445 -497h-223v1106h367v-491z" />
    <glyph glyph-name="uni045E" unicode="&#x45e;" horiz-adv-x="1269" 
d="M347 1259v246h587v-246h-587zM867 1106h409l-463 -1057q-77 -174 -152.5 -271.5t-175.5 -143.5t-244 -46h-131v328h105q108 0 155 35t87 140l-457 1015h413l235 -609z" />
    <glyph glyph-name="uni045F" unicode="&#x45f;" horiz-adv-x="1271" 
d="M1152 1106v-1106h-334v-256h-364v256h-334v1106h377v-758h278v758h377z" />
    <glyph glyph-name="uni0490" unicode="&#x490;" horiz-adv-x="1048" 
d="M653 1649h357v-573h-473v-1076h-398v1434h514v215z" />
    <glyph glyph-name="uni0491" unicode="&#x491;" horiz-adv-x="925" 
d="M564 1318h330v-541h-400v-777h-374v1106h444v212z" />
    <glyph glyph-name="Wgrave" unicode="&#x1e80;" horiz-adv-x="2150" 
d="M947 1560l-263 318h398l145 -318h-280zM1718 1434h420l-442 -1434h-347l-275 692l-270 -692h-348l-449 1434h425l232 -827l342 820h136l348 -820z" />
    <glyph glyph-name="wgrave" unicode="&#x1e81;" horiz-adv-x="1775" 
d="M1044 1228h-279l-225 340h388zM1376 1106h389l-352 -1106h-307l-219 495l-214 -495h-307l-361 1106h399l167 -581l262 577h102l276 -582z" />
    <glyph glyph-name="Wacute" unicode="&#x1e82;" horiz-adv-x="2150" 
d="M1462 1878l-263 -318h-280l145 318h398zM1718 1434h420l-442 -1434h-347l-275 692l-270 -692h-348l-449 1434h425l232 -827l342 820h136l348 -820z" />
    <glyph glyph-name="wacute" unicode="&#x1e83;" horiz-adv-x="1775" 
d="M1224 1568l-225 -340h-279l116 340h388zM1376 1106h389l-352 -1106h-307l-219 495l-214 -495h-307l-361 1106h399l167 -581l262 577h102l276 -582z" />
    <glyph glyph-name="Wdieresis" unicode="&#x1e84;" horiz-adv-x="2150" 
d="M638 1560v318h350v-318h-350zM1160 1560v318h350v-318h-350zM1718 1434h420l-442 -1434h-347l-275 692l-270 -692h-348l-449 1434h425l232 -827l342 820h136l348 -820z" />
    <glyph glyph-name="wdieresis" unicode="&#x1e85;" horiz-adv-x="1775" 
d="M452 1242v321h344v-321h-344zM973 1242v321h344v-321h-344zM1376 1106h389l-352 -1106h-307l-219 495l-214 -495h-307l-361 1106h399l167 -581l262 577h102l276 -582z" />
    <glyph glyph-name="uni1E9E" unicode="&#x1e9e;" horiz-adv-x="1525" 
d="M1156 930q144 -51 225.5 -166.5t81.5 -271.5q0 -217 -150.5 -354.5t-398.5 -137.5h-223v340h192q78 0 128 45.5t50 115.5q0 73 -48.5 117.5t-129.5 44.5h-170v66l164 358h-179q-87 0 -127 -40t-40 -127v-920h-404v949q0 226 130 355.5t357 129.5h750v-52z" />
    <glyph glyph-name="Ygrave" unicode="&#x1ef2;" horiz-adv-x="1431" 
d="M592 1560l-264 318h398l145 -318h-279zM1417 1434l-501 -873v-561h-402v562l-497 872h438l262 -518l262 518h438z" />
    <glyph glyph-name="ygrave" unicode="&#x1ef3;" horiz-adv-x="1269" 
d="M799 1228h-279l-225 340h388zM867 1106h409l-463 -1057q-77 -174 -152.5 -271.5t-175.5 -143.5t-244 -46h-131v328h105q108 0 155 35t87 140l-457 1015h413l235 -609z" />
    <glyph glyph-name="endash" unicode="&#x2013;" horiz-adv-x="1271" 
d="M112 394v346h1049v-346h-1049z" />
    <glyph glyph-name="emdash" unicode="&#x2014;" horiz-adv-x="1693" 
d="M112 394v346h1470v-346h-1470z" />
    <glyph glyph-name="quoteleft" unicode="&#x2018;" horiz-adv-x="567" 
d="M450 1561v-189q-79 -7 -121 -54t-42 -115h178v-354h-372v324q0 165 98 269.5t259 118.5z" />
    <glyph glyph-name="quoteright" unicode="&#x2019;" horiz-adv-x="552" 
d="M120 756v189q79 7 120.5 53.5t41.5 115.5h-178v354h372v-324q0 -165 -97.5 -269.5t-258.5 -118.5z" />
    <glyph glyph-name="quotesinglbase" unicode="&#x201a;" horiz-adv-x="583" 
d="M121 -358v189q79 7 121 54t42 115h-178v354h372v-324q0 -165 -98 -269.5t-259 -118.5z" />
    <glyph glyph-name="quotedblleft" unicode="&#x201c;" horiz-adv-x="1069" 
d="M450 1561v-189q-79 -7 -121 -54t-42 -115h178v-354h-372v324q0 165 98 269.5t259 118.5zM951 1561v-189q-79 -7 -121 -54t-42 -115h178v-354h-372v324q0 165 98 269.5t259 118.5z" />
    <glyph glyph-name="quotedblright" unicode="&#x201d;" horiz-adv-x="1054" 
d="M120 756v189q79 7 120.5 53.5t41.5 115.5h-178v354h372v-324q0 -165 -97.5 -269.5t-258.5 -118.5zM621 756v189q79 7 120.5 53.5t41.5 115.5h-178v354h372v-324q0 -165 -97.5 -269.5t-258.5 -118.5z" />
    <glyph glyph-name="quotedblbase" unicode="&#x201e;" horiz-adv-x="1083" 
d="M121 -358v189q79 7 121 54t42 115h-178v354h372v-324q0 -165 -98 -269.5t-259 -118.5zM622 -358v188q79 7 121 54t42 116h-178v354h371v-324q0 -165 -97.5 -269.5t-258.5 -118.5z" />
    <glyph glyph-name="dagger" unicode="&#x2020;" horiz-adv-x="1048" 
d="M994 1112v-327h-294v-884h-353v884h-292v327h292v322h353v-322h294z" />
    <glyph glyph-name="daggerdbl" unicode="&#x2021;" horiz-adv-x="1120" 
d="M1030 785h-294v-234h294v-329h-294v-321h-353v321h-292v329h292v234h-292v327h292v322h353v-322h294v-327z" />
    <glyph glyph-name="bullet" unicode="&#x2022;" horiz-adv-x="831" 
d="M415 322q-126 0 -210.5 84.5t-84.5 210.5q0 127 84.5 211.5t210.5 84.5q127 0 211.5 -84.5t84.5 -211.5q0 -126 -84.5 -210.5t-211.5 -84.5z" />
    <glyph glyph-name="ellipsis" unicode="&#x2026;" horiz-adv-x="1552" 
d="M106 0v354h369v-354h-369zM591 0v354h370v-354h-370zM1076 0v354h370v-354h-370z" />
    <glyph glyph-name="perthousand" unicode="&#x2030;" horiz-adv-x="2584" 
d="M403 707q-156 0 -254 95t-98 246t98 246t254 95q157 0 254 -94.5t97 -246.5t-97.5 -246.5t-253.5 -94.5zM336 0l821 1362h269l-821 -1362h-269zM403 943q45 0 74 29.5t29 75.5q0 47 -29 76t-74 29t-74.5 -29.5t-29.5 -75.5t29.5 -75.5t74.5 -29.5zM1369 -23
q-155 0 -253 95t-98 246t98 246.5t253 95.5t253.5 -95.5t98.5 -246.5t-98 -246t-254 -95zM2183 -23q-156 0 -254 95t-98 246q0 152 98 247t254 95t253.5 -95t97.5 -247t-97.5 -246.5t-253.5 -94.5zM1369 213q46 0 75 29.5t29 75.5q0 47 -29 76t-75 29q-45 0 -74 -29.5
t-29 -75.5t29 -75.5t74 -29.5zM2183 213q46 0 74.5 29.5t28.5 75.5q0 47 -28.5 76t-74.5 29q-45 0 -74.5 -29.5t-29.5 -75.5t29.5 -75.5t74.5 -29.5z" />
    <glyph glyph-name="guilsinglleft" unicode="&#x2039;" horiz-adv-x="856" 
d="M375 91l-321 437v37l321 437h424l-328 -455l328 -456h-424z" />
    <glyph glyph-name="guilsinglright" unicode="&#x203a;" horiz-adv-x="856" 
d="M482 91h-424l328 456l-328 455h424l321 -437v-37z" />
    <glyph glyph-name="fraction" unicode="&#x2044;" horiz-adv-x="380" 
d="M-351 -57l828 1556h258l-827 -1556h-259z" />
    <glyph glyph-name="Euro" unicode="&#x20ac;" horiz-adv-x="1353" 
d="M710 396q111 -122 305 -122q112 0 204 35v-311q-108 -34 -232 -34q-232 0 -408 115t-255 313h-262l59 234h150q-2 38 -2 58q0 16 2 44h-206l59 235h196q78 204 257.5 324.5t408.5 120.5q161 0 309 -58l-76 -295q-93 38 -210 38q-194 0 -306 -134h487l-59 -231h-518
q-2 -28 -2 -44q0 -30 3 -58h491l-60 -231z" />
    <glyph glyph-name="uni20BD" unicode="&#x20bd;" horiz-adv-x="1296" 
d="M798 532h-190v-101h310v-230h-310v-201h-350v201h-156v230h156v114h-156v260h156v560h540q205 0 324.5 -112.5t119.5 -304.5t-119.5 -304t-324.5 -112zM896 947q0 56 -38 91.5t-97 35.5h-153v-251h153q59 0 97 34.5t38 89.5z" />
    <glyph glyph-name="uni2113" unicode="&#x2113;" horiz-adv-x="999" 
d="M660 330v20h277v-20q0 -166 -99.5 -265.5t-266.5 -99.5q-170 0 -272.5 100t-102.5 265v20q-62 -22 -136 -43v286q52 17 136 51v448q0 166 102.5 267.5t269.5 101.5t269 -101t102 -266q0 -169 -120 -329t-336 -284v-151q0 -42 24 -67.5t64 -25.5q41 0 65 26t24 67z
M483 1105v-305q169 133 169 305q0 43 -22.5 69t-63.5 26q-39 0 -61 -26t-22 -69z" />
    <glyph glyph-name="uni2116" unicode="&#x2116;" horiz-adv-x="2316" 
d="M997 649v715h365v-1364h-309l-543 741v-741h-365v1364h329zM1849 1291q166 0 273 -101t106 -259t-107 -258t-272 -100q-167 0 -273.5 100.5t-106.5 257.5q0 158 106.5 259t273.5 101zM1849 811q52 0 84.5 33.5t32.5 86.5q0 54 -32.5 88t-84.5 34q-53 0 -86 -34t-33 -88
q0 -52 33.5 -86t85.5 -34zM1508 150v291h682v-291h-682z" />
    <glyph glyph-name="uni2117" unicode="&#x2117;" horiz-adv-x="1687" 
d="M844 1462q223 0 399 -94.5t274 -264.5t98 -387q0 -162 -57 -301t-158 -237t-244.5 -153t-311.5 -55t-311.5 55t-244.5 153t-158 237t-57 301t57 301t158 237t244.5 153t311.5 55zM844 172q244 0 400 152t156 391q0 240 -156.5 392.5t-399.5 152.5t-399 -152.5
t-156 -392.5q0 -239 155.5 -391t399.5 -152zM933 1086q129 0 214 -79.5t85 -202.5t-85.5 -204.5t-213.5 -81.5h-121l-1 -201h-235v769h357zM902 711q41 0 67.5 26t26.5 67t-26 66t-68 25h-96v-184h96z" />
    <glyph glyph-name="trademark" unicode="&#x2122;" horiz-adv-x="1341" 
d="M57 1293v141h461v-141h-152v-371h-157v371h-152zM1249 922h-153l-39 271l-137 -271h-41l-137 271l-38 -271h-154l79 512h144l127 -262l128 262h144z" />
    <glyph glyph-name="estimated" unicode="&#x212e;" horiz-adv-x="1511" 
d="M1450 616h-1067v-373q161 -148 383 -148q125 0 242.5 47.5t197.5 129.5l148 -4q-94 -136 -255.5 -212t-332.5 -76q-188 0 -345 91t-248 248t-91 345q0 138 55 264.5t147 218.5t218.5 146.5t263.5 54.5q135 0 262 -54.5t220 -145t149.5 -213t56.5 -251.5q0 -29 -4 -68z
M766 1232q-107 0 -206 -40t-177 -112v-351h768v351q-79 71 -179 111.5t-206 40.5z" />
    <glyph glyph-name="uni2150" unicode="&#x2150;" horiz-adv-x="1591" 
d="M986 1499h259l-828 -1556h-258zM169 609v624h-130v201h377v-825h-247zM946 823h622v-41l-306 -784h-237l241 618h-320v207z" />
    <glyph glyph-name="uni2151" unicode="&#x2151;" horiz-adv-x="1642" 
d="M986 1499h259l-828 -1556h-258zM169 609v624h-130v201h377v-825h-247zM1257 850q150 0 242 -85t92 -223q0 -70 -21 -136t-76 -160l-147 -245h-255l136 222q10 16 28 46q-15 -2 -46 -2q-126 0 -206 76t-80 197q0 139 92 224.5t241 85.5zM1258 428q50 0 81.5 31.5
t31.5 80.5t-31.5 80t-81.5 31q-51 0 -82.5 -30.5t-31.5 -80.5t31.5 -81t82.5 -31z" />
    <glyph glyph-name="uni2152" unicode="&#x2152;" horiz-adv-x="2263" 
d="M986 1499h259l-828 -1556h-258zM169 609v624h-130v201h377v-825h-247zM1840 845q167 0 267 -117.5t100 -314.5q0 -198 -100 -315.5t-267 -117.5t-267 117.5t-100 315.5q0 197 100 314.5t267 117.5zM947 623v201h377v-824h-246v623h-131zM1840 199q60 0 92 54.5t32 158.5
q0 103 -32.5 158.5t-91.5 55.5t-91 -55t-32 -158q0 -105 31.5 -159.5t91.5 -54.5z" />
    <glyph glyph-name="uni2153" unicode="&#x2153;" horiz-adv-x="1615" 
d="M986 1499h259l-828 -1556h-258zM169 609v624h-130v201h377v-825h-247zM1373 522q88 -23 140 -90.5t52 -161.5q0 -127 -89 -208.5t-228 -81.5q-136 0 -221 80t-89 209h216q2 -43 27.5 -69.5t67.5 -26.5t68.5 27.5t26.5 71.5t-28 70t-76 26h-133v49l128 211h-275v195h578
v-38z" />
    <glyph glyph-name="uni2154" unicode="&#x2154;" horiz-adv-x="1843" 
d="M1213 1499h258l-827 -1556h-259zM676 818v-207h-631v65q245 283 310.5 372t65.5 138q0 32 -17 51.5t-46 19.5q-33 0 -52 -21t-19 -57v-19h-230v14q0 134 79 209.5t221 75.5q133 0 217.5 -73t84.5 -190q0 -79 -46 -159t-164 -219h227zM1600 522q88 -23 139.5 -90
t51.5 -162q0 -127 -89 -208.5t-228 -81.5q-136 0 -221 80t-89 209h216q2 -43 27.5 -69.5t67.5 -26.5t68.5 27.5t26.5 71.5t-28 70t-76 26h-133v49l128 211h-274v195h577v-38z" />
    <glyph glyph-name="uni2155" unicode="&#x2155;" horiz-adv-x="1611" 
d="M986 1499h259l-828 -1556h-258zM169 609v624h-130v201h377v-825h-247zM1248 545q142 0 229.5 -77t87.5 -199q0 -128 -87.5 -208.5t-226.5 -80.5q-138 0 -224.5 81t-86.5 209h216q0 -41 27 -68.5t67 -27.5t66.5 26.5t26.5 67.5t-27 66.5t-72 25.5h-266l-22 30l46 433h504
v-194h-324l-9 -84h75z" />
    <glyph glyph-name="uni2156" unicode="&#x2156;" horiz-adv-x="1837" 
d="M1213 1499h258l-827 -1556h-259zM676 818v-207h-631v65q245 283 310.5 372t65.5 138q0 32 -17 51.5t-46 19.5q-33 0 -52 -21t-19 -57v-19h-230v14q0 134 79 209.5t221 75.5q133 0 217.5 -73t84.5 -190q0 -79 -46 -159t-164 -219h227zM1474 545q142 0 229.5 -77t87.5 -199
q0 -128 -87 -208.5t-226 -80.5q-138 0 -224.5 81t-86.5 209h215q0 -41 27.5 -68.5t67.5 -27.5t66.5 26.5t26.5 67.5t-27.5 66.5t-72.5 25.5h-266l-21 30l46 433h503v-194h-324l-9 -84h75z" />
    <glyph glyph-name="uni2157" unicode="&#x2157;" horiz-adv-x="1814" 
d="M1189 1499h259l-828 -1556h-258zM675 880q0 -127 -89 -208t-228 -81q-136 0 -221 79.5t-89 208.5h216q2 -43 27.5 -69.5t67.5 -26.5q41 0 68 28t27 72t-28 70t-76 26h-133v48l128 211h-274v196h577v-39l-165 -263q88 -23 140 -90.5t52 -161.5zM1451 545q142 0 229.5 -77
t87.5 -199q0 -128 -87.5 -208.5t-226.5 -80.5q-138 0 -224 81t-86 209h215q0 -41 27.5 -68.5t67.5 -27.5t66.5 26.5t26.5 67.5t-27.5 66.5t-72.5 25.5h-266l-21 30l46 433h503v-194h-324l-9 -84h75z" />
    <glyph glyph-name="uni2158" unicode="&#x2158;" horiz-adv-x="1869" 
d="M1244 1499h259l-828 -1556h-258zM424 609v145h-399v52l264 628h235l-200 -487h117l57 186h153v-186h76v-193h-76v-145h-227zM1506 545q142 0 229.5 -77t87.5 -199q0 -128 -87.5 -208.5t-226.5 -80.5q-138 0 -224.5 81t-86.5 209h216q0 -41 27 -68.5t67 -27.5t67 27t27 67
q0 41 -27.5 66.5t-72.5 25.5h-266l-21 30l46 433h503v-194h-324l-9 -84h75z" />
    <glyph glyph-name="uni2159" unicode="&#x2159;" horiz-adv-x="1581" 
d="M986 1499h259l-828 -1556h-258zM169 609v624h-130v201h377v-825h-247zM1261 557q123 0 204.5 -76t81.5 -197q0 -139 -92 -224t-241 -85q-150 0 -242 85t-92 222q0 133 97 295l147 246h255l-142 -231q-13 -20 -23 -38q24 3 47 3zM1213 172q51 0 82.5 31t31.5 81t-31.5 81
t-82.5 31q-50 0 -81.5 -31.5t-31.5 -80.5q0 -50 31.5 -81t81.5 -31z" />
    <glyph glyph-name="uni215A" unicode="&#x215a;" horiz-adv-x="1794" 
d="M1198 1499h259l-828 -1556h-258zM675 880q0 -128 -87.5 -208.5t-226.5 -80.5q-138 0 -224 80.5t-86 208.5h215q0 -41 27.5 -68.5t67.5 -27.5t66.5 27t26.5 68t-27.5 66.5t-72.5 25.5h-266l-21 29l46 434h503v-194h-324l-9 -85h75q142 0 229.5 -76.5t87.5 -198.5z
M1473 557q123 0 204.5 -76t81.5 -197q0 -139 -91.5 -224t-240.5 -85q-150 0 -242.5 85t-92.5 222q0 133 97 295l147 246h255l-142 -231q-8 -12 -22 -38q24 3 46 3zM1425 172q51 0 82.5 31t31.5 81t-31.5 81t-82.5 31q-50 0 -81.5 -31.5t-31.5 -80.5q0 -50 31.5 -81t81.5 -31
z" />
    <glyph glyph-name="oneeighth" unicode="&#x215b;" horiz-adv-x="1648" 
d="M986 1499h259l-828 -1556h-258zM169 609v624h-130v201h377v-825h-247zM1485 444q108 -70 108 -194q0 -120 -92.5 -189.5t-231.5 -69.5q-138 0 -231 69.5t-93 189.5q0 127 108 194q-85 70 -85 171q0 111 85.5 175t215.5 64t215.5 -64t85.5 -175q0 -104 -85 -171zM1270 688
q-37 0 -62 -21t-25 -57t25 -57.5t62 -21.5t62 21.5t25 58.5q0 35 -25 56t-62 21zM1270 164q44 0 72.5 24.5t28.5 68.5q0 42 -29.5 67t-73.5 25q-43 0 -71.5 -24.5t-28.5 -67.5t29 -68t73 -25z" />
    <glyph glyph-name="threeeighths" unicode="&#x215c;" horiz-adv-x="1851" 
d="M1189 1499h259l-828 -1556h-258zM675 880q0 -127 -89 -208t-228 -81q-136 0 -221 79.5t-89 208.5h216q2 -43 27.5 -69.5t67.5 -26.5q41 0 68 28t27 72t-28 70t-76 26h-133v48l128 211h-274v196h577v-39l-165 -263q88 -23 140 -90.5t52 -161.5zM1688 444q108 -70 108 -194
q0 -120 -92.5 -189.5t-231.5 -69.5q-138 0 -230.5 69.5t-92.5 189.5q0 127 107 194q-85 70 -85 171q0 111 85.5 175t215.5 64t216 -64t86 -175q0 -103 -86 -171zM1473 688q-37 0 -62 -21t-25 -57t25 -57.5t62 -21.5t62 21.5t25 58.5q0 35 -25 56t-62 21zM1473 164
q44 0 72.5 24.5t28.5 68.5q0 42 -29.5 67t-73.5 25q-43 0 -71.5 -24.5t-28.5 -67.5t29 -68t73 -25z" />
    <glyph glyph-name="fiveeighths" unicode="&#x215d;" horiz-adv-x="1859" 
d="M1198 1499h259l-828 -1556h-258zM675 880q0 -128 -87.5 -208.5t-226.5 -80.5q-138 0 -224 80.5t-86 208.5h215q0 -41 27.5 -68.5t67.5 -27.5t66.5 27t26.5 68t-27.5 66.5t-72.5 25.5h-266l-21 29l46 434h503v-194h-324l-9 -85h75q142 0 229.5 -76.5t87.5 -198.5z
M1697 444q108 -70 108 -194q0 -120 -92.5 -189.5t-231.5 -69.5q-138 0 -230.5 69.5t-92.5 189.5q0 127 108 194q-86 71 -86 171q0 111 85.5 175t215.5 64t216 -64t86 -175q0 -103 -86 -171zM1482 688q-37 0 -62 -21t-25 -57t25 -57.5t62 -21.5t62 21.5t25 58.5q0 35 -25 56
t-62 21zM1482 164q44 0 72.5 24.5t28.5 68.5q0 42 -29.5 67t-73.5 25q-43 0 -71.5 -24.5t-28.5 -67.5t29 -68t73 -25z" />
    <glyph glyph-name="seveneighths" unicode="&#x215e;" horiz-adv-x="1732" 
d="M1069 1499h259l-827 -1556h-259zM355 610h-237l241 618h-320v208h622v-41zM1568 444q108 -70 108 -194q0 -120 -92.5 -189.5t-231.5 -69.5q-138 0 -230.5 69.5t-92.5 189.5q0 127 108 194q-86 71 -86 171q0 111 85.5 175t215.5 64t216 -64t86 -175q0 -103 -86 -171z
M1354 688q-37 0 -62 -21t-25 -57t25 -57.5t62 -21.5t61.5 21.5t24.5 58.5q0 35 -25 56t-61 21zM1354 164q44 0 72.5 24.5t28.5 68.5q0 42 -30 67t-74 25q-43 0 -71.5 -24.5t-28.5 -67.5t29.5 -68t73.5 -25z" />
    <glyph glyph-name="uni215F" unicode="&#x215f;" horiz-adv-x="888" 
d="M986 1499h259l-828 -1556h-258zM169 609v624h-130v201h377v-825h-247z" />
    <glyph glyph-name="uni2189" unicode="&#x2189;" horiz-adv-x="1935" 
d="M1305 1499h258l-827 -1556h-259zM789 1027q0 -198 -100 -315.5t-267 -117.5t-266.5 117.5t-99.5 315.5q0 197 99.5 314t266.5 117t267 -117.5t100 -313.5zM422 812q60 0 92 54.5t32 158.5q0 103 -32.5 159t-91.5 56t-91 -55t-32 -158q0 -105 32 -160t91 -55zM1692 522
q88 -23 139.5 -90t51.5 -162q0 -127 -89 -208.5t-228 -81.5q-136 0 -220.5 79.5t-88.5 209.5h215q2 -43 27.5 -69.5t67.5 -26.5t69 27.5t27 71.5t-28 70t-76 26h-133v49l127 211h-274v195h577v-38z" />
    <glyph glyph-name="arrowleft" unicode="&#x2190;" horiz-adv-x="1374" 
d="M1303 849v-338h-702l260 -268l-227 -200l-584 616v42l584 616l227 -200l-261 -268h703z" />
    <glyph glyph-name="arrowup" unicode="&#x2191;" horiz-adv-x="1355" 
d="M1315 773l-201 -227l-267 260v-701h-339v702l-267 -261l-201 227l616 585h43z" />
    <glyph glyph-name="arrowright" unicode="&#x2192;" horiz-adv-x="1376" 
d="M741 1336l584 -617v-42l-584 -616l-227 200l260 268h-702v339h703l-261 267z" />
    <glyph glyph-name="arrowdown" unicode="&#x2193;" horiz-adv-x="1355" 
d="M1114 900l201 -226l-616 -585h-43l-616 585l201 226l267 -260v702h339v-701z" />
    <glyph glyph-name="uni2196" unicode="&#x2196;" horiz-adv-x="1230" 
d="M1186 361l-229 -228l-541 545v-365h-293v853l32 33h855v-293h-365z" />
    <glyph glyph-name="uni2197" unicode="&#x2197;" horiz-adv-x="1230" 
d="M1075 1199l32 -33v-853h-293v365l-541 -545l-229 228l541 545h-365v293h855z" />
    <glyph glyph-name="uni2198" unicode="&#x2198;" horiz-adv-x="1257" 
d="M814 1033h294v-854l-33 -33h-855v294h365l-541 545l229 228l541 -546v366z" />
    <glyph glyph-name="uni2199" unicode="&#x2199;" horiz-adv-x="1257" 
d="M1213 985l-541 -545h365v-294h-855l-32 33v854h293v-366l541 546z" />
    <glyph glyph-name="partialdiff" unicode="&#x2202;" horiz-adv-x="1327" 
d="M558 1463q336 0 513 -163t177 -491q0 -213 -50 -372q-67 -229 -231 -350.5t-414 -121.5q-241 0 -378 131t-137 330q0 113 43.5 216.5t122 182.5t196.5 126t258 47q154 0 265 -78q-13 134 -112.5 193.5t-277.5 59.5q-97 0 -244 -20v287q158 23 269 23zM595 265
q112 0 187.5 75.5t75.5 186.5q0 85 -55.5 138t-143.5 53q-112 0 -188.5 -75t-76.5 -185q0 -86 55.5 -139.5t145.5 -53.5z" />
    <glyph glyph-name="emptyset" unicode="&#x2205;" horiz-adv-x="1394" 
d="M1120 971q97 -75 149.5 -188t52.5 -251q0 -250 -165 -407t-427 -157q-114 0 -218 34l-65 -102h-312l145 232q-100 76 -153.5 189.5t-53.5 252.5q0 250 164.5 406.5t428.5 156.5q116 0 218 -33l66 104h310zM667 829q-111 0 -180.5 -70.5t-69.5 -184.5q0 -101 54 -168
l260 416q-28 7 -64 7zM730 276q111 0 181.5 72.5t70.5 186.5q0 99 -50 161l-259 -414q27 -6 57 -6z" />
    <glyph glyph-name="product" unicode="&#x220f;" horiz-adv-x="1601" 
d="M1534 1434v-362h-178v-1400h-403v1400h-305v-1400h-403v1400h-179v362h1468z" />
    <glyph glyph-name="summation" unicode="&#x2211;" horiz-adv-x="1273" 
d="M656 1h531v-331h-1134v86l539 809l-539 783v86h1127v-329h-523l353 -511v-56z" />
    <glyph glyph-name="minus" unicode="&#x2212;" horiz-adv-x="1208" 
d="M117 506v323h975v-323h-975z" />
    <glyph glyph-name="radical" unicode="&#x221a;" horiz-adv-x="1466" 
d="M653 0l-325 797h-299v309h524l199 -518l378 948h368l-648 -1536h-197z" />
    <glyph glyph-name="infinity" unicode="&#x221e;" horiz-adv-x="1976" 
d="M1451 1121q190 0 319 -123t129 -312q0 -190 -129 -312.5t-319 -122.5q-140 0 -248.5 65.5t-213.5 180.5q-50 -54 -95.5 -93.5t-103.5 -76.5t-125 -56.5t-141 -19.5q-190 0 -319 123.5t-129 312.5q0 190 129 312t319 122q74 0 141 -19.5t125 -56.5t103 -76.5t96 -93.5
q50 55 94.5 94t102 76t124.5 56.5t141 19.5zM555 536q72 0 135.5 39t131.5 111q-68 73 -131.5 112t-135.5 39q-75 0 -119 -42.5t-44 -108.5t43.5 -108t119.5 -42zM1425 536q75 0 117.5 42t42.5 108q0 65 -42.5 108t-117.5 43q-73 0 -134 -38t-133 -114q140 -149 267 -149z
" />
    <glyph glyph-name="integral" unicode="&#x222b;" horiz-adv-x="876" 
d="M0 -623v337h85q168 0 168 168v1648q0 204 113 317t318 113h193v-336h-85q-169 0 -169 -169v-1648q0 -198 -115.5 -314t-313.5 -116h-194z" />
    <glyph glyph-name="approxequal" unicode="&#x2248;" horiz-adv-x="1224" 
d="M802 711q-53 0 -103.5 14t-77.5 28t-67 39q-73 42 -107 42q-36 0 -59.5 -25t-23.5 -65v-29h-255v37q0 168 85.5 267t240.5 99q52 0 100.5 -14.5t71 -27t64.5 -39.5q29 -18 40.5 -24.5t33.5 -15t42 -8.5q38 0 60.5 25.5t22.5 68.5v33h255v-37q0 -172 -86.5 -270
t-236.5 -98zM803 215q-53 0 -103.5 14t-77.5 28t-67 39q-75 43 -107 43q-36 0 -59.5 -25t-23.5 -65v-30h-255v37q0 169 85 268t240 99q52 0 100.5 -14.5t72 -27.5t64.5 -39q3 -2 13 -8t13 -8t12 -7.5t13 -7.5l12 -6t13.5 -5t12.5 -3.5t13.5 -3t13.5 -0.5q38 0 60.5 25.5
t22.5 68.5v34h254v-37q0 -172 -86 -270.5t-236 -98.5z" />
    <glyph glyph-name="notequal" unicode="&#x2260;" horiz-adv-x="1196" 
d="M1082 740h-323l-37 -145h360v-309h-438l-60 -235h-292l59 235h-238v309h316l37 145h-353v309h431l60 237h293l-60 -237h245v-309z" />
    <glyph glyph-name="lessequal" unicode="&#x2264;" horiz-adv-x="1110" 
d="M989 689v-340l-915 439v160l915 449v-334l-440 -192zM92 300h901v-300h-901v300z" />
    <glyph glyph-name="greaterequal" unicode="&#x2265;" horiz-adv-x="1110" 
d="M120 1397l915 -449v-160l-915 -439v340l440 182l-440 192v334zM116 0v300h901v-300h-901z" />
    <glyph glyph-name="lozenge" unicode="&#x25ca;" horiz-adv-x="1189" 
d="M577 -9l-525 709v38l525 704h36l525 -704v-38l-525 -709h-36zM595 420l220 299l-220 297l-220 -299z" />
    <glyph glyph-name="K.ss01" horiz-adv-x="1386" 
d="M1413 0h-468l-411 633v-633h-395v1434h395v-605l378 605h458l-461 -697z" />
    <glyph glyph-name="K.ss03" horiz-adv-x="1386" 
d="M1413 0h-468l-411 633v-633h-395v1434h395v-605l378 605h458l-461 -697z" />
    <glyph glyph-name="K.ss04" horiz-adv-x="1386" 
d="M1413 0h-468l-411 633v-633h-395v1434h395v-605l378 605h458l-461 -697z" />
    <glyph glyph-name="germandbls.calt" horiz-adv-x="1525" 
d="M1156 930q144 -51 225.5 -166.5t81.5 -271.5q0 -217 -150.5 -354.5t-398.5 -137.5h-223v340h192q78 0 128 45.5t50 115.5q0 73 -48.5 117.5t-129.5 44.5h-170v66l164 358h-179q-87 0 -127 -40t-40 -127v-920h-404v949q0 226 130 355.5t357 129.5h750v-52z" />
    <glyph glyph-name="i.loclTRK" horiz-adv-x="620" 
d="M121 1237v331h375v-331h-375zM120 0v1106h381v-1106h-381z" />
    <glyph glyph-name="k.ss01" horiz-adv-x="1206" 
d="M1227 0h-448l-278 468v-468h-381v1505h381v-833l266 434h425l-345 -529z" />
    <glyph glyph-name="k.ss03" horiz-adv-x="1206" 
d="M1227 0h-448l-278 468v-468h-381v1505h381v-833l266 434h425l-345 -529z" />
    <glyph glyph-name="k.ss04" horiz-adv-x="1206" 
d="M1227 0h-448l-278 468v-468h-381v1505h381v-833l266 434h425l-345 -529z" />
    <glyph glyph-name="uni0414.loclBGR" horiz-adv-x="1583" 
d="M1410 361h124v-611h-362v250h-761v-250h-361v611h117l435 1073h369zM787 950l-218 -595h433z" />
    <glyph glyph-name="uni041B.loclBGR" horiz-adv-x="1443" 
d="M1438 0h-445l-272 900l-284 -900h-432l532 1434h369z" />
    <glyph glyph-name="uni0416.ss01" horiz-adv-x="2064" 
d="M2085 0h-461l-403 645v-645h-388v646l-393 -646h-458l485 739l-441 695h454l353 -616v616h388v-615l363 615h454l-449 -696z" />
    <glyph glyph-name="uni041A.ss01" horiz-adv-x="1386" 
d="M1413 0h-468l-411 633v-633h-395v1434h395v-605l378 605h458l-461 -697z" />
    <glyph glyph-name="uni0424.ss01" horiz-adv-x="1894" 
d="M1831 718q0 -190 -80 -350.5t-238.5 -267.5t-370.5 -124v-209h-388v209q-159 13 -290.5 78t-218 165t-134 228t-47.5 268q0 141 47.5 269.5t134 229t218 166t290.5 78.5v178h388v-178q212 -17 370.5 -123.5t238.5 -266.5t80 -350zM458 716q0 -146 84 -256.5t228 -133.5
v780q-96 -15 -168 -73t-108 -140.5t-36 -176.5zM1126 326q144 23 228 133.5t84 256.5q0 94 -36 176.5t-108 140.5t-168 73v-780z" />
    <glyph glyph-name="uni0414.ss02" horiz-adv-x="1583" 
d="M1410 361h124v-611h-362v250h-761v-250h-361v611h117l435 1073h369zM787 950l-218 -595h433z" />
    <glyph glyph-name="uni041B.ss02" horiz-adv-x="1443" 
d="M1438 0h-445l-272 900l-284 -900h-432l532 1434h369z" />
    <glyph glyph-name="uni0414.ss03" horiz-adv-x="1583" 
d="M1410 361h124v-611h-362v250h-761v-250h-361v611h117l435 1073h369zM787 950l-218 -595h433z" />
    <glyph glyph-name="uni0416.ss03" horiz-adv-x="2064" 
d="M2085 0h-461l-403 645v-645h-388v646l-393 -646h-458l485 739l-441 695h454l353 -616v616h388v-615l363 615h454l-449 -696z" />
    <glyph glyph-name="uni041A.ss03" horiz-adv-x="1386" 
d="M1413 0h-468l-411 633v-633h-395v1434h395v-605l378 605h458l-461 -697z" />
    <glyph glyph-name="uni041B.ss03" horiz-adv-x="1443" 
d="M1438 0h-445l-272 900l-284 -900h-432l532 1434h369z" />
    <glyph glyph-name="uni0416.ss04" horiz-adv-x="2064" 
d="M2085 0h-461l-403 645v-645h-388v646l-393 -646h-458l485 739l-441 695h454l353 -616v616h388v-615l363 615h454l-449 -696z" />
    <glyph glyph-name="uni041A.ss04" horiz-adv-x="1386" 
d="M1413 0h-468l-411 633v-633h-395v1434h395v-605l378 605h458l-461 -697z" />
    <glyph glyph-name="uni0424.ss04" horiz-adv-x="1794" 
d="M1737 722q0 -123 -44 -235t-125.5 -200t-206.5 -146.5t-277 -74.5v-152h-375v152q-202 20 -352 115t-225 235t-75 306q0 255 175.5 440.5t478.5 216.5v139h371v-139q153 -16 278 -74.5t206.5 -147t126 -200.5t44.5 -235zM449 722q0 -122 73.5 -210t199.5 -102v629
q-126 -17 -199.5 -106.5t-73.5 -210.5zM1072 410q127 14 199.5 102t72.5 210q0 121 -73 210.5t-199 106.5v-629z" />
    <glyph glyph-name="uni0424.ss05" horiz-adv-x="1794" 
d="M1737 722q0 -123 -44 -235t-125.5 -200t-206.5 -146.5t-277 -74.5v-152h-375v152q-202 20 -352 115t-225 235t-75 306q0 255 175.5 440.5t478.5 216.5v139h371v-139q153 -16 278 -74.5t206.5 -147t126 -200.5t44.5 -235zM449 722q0 -122 73.5 -210t199.5 -102v629
q-126 -17 -199.5 -106.5t-73.5 -210.5zM1072 410q127 14 199.5 102t72.5 210q0 121 -73 210.5t-199 106.5v-629z" />
    <glyph glyph-name="uni0432.loclBGR" horiz-adv-x="1306" 
d="M1043 796q99 -55 153 -147.5t54 -210.5q0 -143 -77 -251.5t-207.5 -164.5t-292.5 -56q-265 0 -419.5 155.5t-154.5 419.5v434q0 254 153 405.5t411 151.5q151 0 272 -52.5t190.5 -149.5t69.5 -221q0 -184 -152 -313zM663 1237q-194 0 -194 -250v-71h192q84 0 133.5 45
t49.5 119q0 73 -49 115t-132 42zM671 290q92 0 148 48t56 127q0 77 -54 123.5t-145 46.5h-207v-100q0 -245 202 -245z" />
    <glyph glyph-name="uni0433.loclBGR" horiz-adv-x="1087" 
d="M546 -36q-221 0 -355.5 99.5t-134.5 262.5q0 46 9 85t21.5 69t36 56t43.5 43.5t54 33.5t56.5 25t62 19.5t60 14.5t60.5 12q37 7 53 10.5t45 10.5t41.5 13.5t28.5 16.5t22 22.5t6 28.5q0 36 -29.5 57t-77.5 21q-105 0 -108 -102h-348q4 176 127.5 277t327.5 101
q211 0 339.5 -95.5t128.5 -254.5q0 -41 -6 -76.5t-19 -64t-27.5 -51.5t-38 -42t-42.5 -33t-49.5 -25.5t-51 -19.5t-55 -15.5t-53.5 -11t-53 -9.5q-39 -7 -61 -11.5t-50.5 -13.5t-43.5 -18.5t-25.5 -24.5t-10.5 -34q0 -39 33 -61.5t84 -22.5q54 0 87.5 29t34.5 84h363
q-4 -186 -134 -295.5t-351 -109.5z" />
    <glyph glyph-name="uni0434.loclBGR" horiz-adv-x="1384" 
d="M1006 1106h258v-983q0 -261 -159.5 -412t-433.5 -151q-235 0 -391 111.5t-194 308.5h368q19 -53 79 -83t134 -30q99 0 165 58t66 154v33q-130 -83 -289 -83q-156 0 -283 72t-198.5 199t-71.5 285q0 156 71.5 283t198.5 200t283 73q199 0 349 -128zM672 343q103 0 169 68
t66 174q0 105 -66 173t-169 68t-169.5 -68t-66.5 -173q0 -106 66.5 -174t169.5 -68z" />
    <glyph glyph-name="uni0436.loclBGR" horiz-adv-x="1763" 
d="M1783 0h-430l-295 478v-478h-365v468l-281 -468h-429l374 576l-338 530h416l258 -436v835h365v-846l271 447h417l-345 -529z" />
    <glyph glyph-name="uni0437.loclBGR" horiz-adv-x="1202" 
d="M939 403q104 -63 159.5 -158.5t55.5 -208.5q0 -138 -74.5 -247t-202 -168.5t-284.5 -59.5q-247 0 -398.5 138.5t-156.5 368.5h362q2 -81 54.5 -129t138.5 -48q82 0 135 47.5t53 122.5t-57 120.5t-150 45.5h-146v320h135q75 0 123 37.5t48 97.5q0 62 -42.5 100.5
t-111.5 38.5q-70 0 -115 -38.5t-47 -100.5h-354q4 204 147 331.5t369 127.5q144 0 262 -53.5t186.5 -151t68.5 -220.5q0 -189 -158 -313z" />
    <glyph glyph-name="uni0438.loclBGR" horiz-adv-x="1320" 
d="M820 1106h381v-1106h-275l-48 112q-63 -69 -152 -107t-193 -38q-193 0 -309 127t-116 339v673h380v-622q0 -192 145 -192q89 0 138 58.5t49 164.5v591z" />
    <glyph glyph-name="uni0439.loclBGR" horiz-adv-x="1320" 
d="M945 1505v-246h-586v246h586zM820 1106h381v-1106h-275l-48 112q-63 -69 -152 -107t-193 -38q-193 0 -309 127t-116 339v673h380v-622q0 -192 145 -192q89 0 138 58.5t49 164.5v591z" />
    <glyph glyph-name="uni043A.loclBGR" horiz-adv-x="1222" 
d="M1243 0h-449l-277 468v-468h-381v1505h381v-832l264 433h427l-344 -527z" />
    <glyph glyph-name="uni043B.loclBGR" horiz-adv-x="1193" 
d="M1188 0h-396l-196 636l-197 -636h-394l417 1106h351z" />
    <glyph glyph-name="uni043F.loclBGR" horiz-adv-x="1320" 
d="M788 1139q193 0 309 -127t116 -338v-674h-381v622q0 192 -144 192q-89 0 -138 -58.5t-49 -164.5v-591h-381v1106h267l52 -114q62 70 152.5 108.5t196.5 38.5z" />
    <glyph glyph-name="uni0442.loclBGR" horiz-adv-x="1923" 
d="M1422 1139q177 0 285.5 -124.5t108.5 -320.5v-694h-381v647q0 171 -123 171q-158 0 -158 -212v-606h-371v647q0 171 -122 171q-77 0 -118.5 -54.5t-41.5 -157.5v-606h-381v1106h268l54 -119q61 71 145 111.5t178 40.5q100 0 182.5 -43t134.5 -120q60 76 149 119.5
t191 43.5z" />
    <glyph glyph-name="uni0446.loclBGR" horiz-adv-x="1421" 
d="M1201 418q0 -112 43 -161.5t140 -49.5v-466h-336v268q-100 33 -151 127q-65 -80 -160.5 -124.5t-205.5 -44.5q-192 0 -307.5 129.5t-115.5 342.5v667h380v-623q0 -191 149 -191q87 0 135 57.5t48 164.5v592h381v-688z" />
    <glyph glyph-name="uni0448.loclBGR" horiz-adv-x="1925" 
d="M1424 1108h381v-1106h-268l-55 119q-61 -71 -146 -111.5t-179 -40.5q-98 0 -179 44t-134 122q-61 -78 -151 -122t-193 -44q-176 0 -284 123t-108 317v699h381v-648q0 -89 30 -129.5t94 -40.5q158 0 158 210v608h371v-648q0 -170 122 -170q77 0 118.5 55t41.5 155v608z
" />
    <glyph glyph-name="uni0449.loclBGR" horiz-adv-x="2025" 
d="M1805 422q0 -113 43.5 -164t140.5 -51v-466h-337v267q-103 35 -154 132q-61 -80 -150.5 -126.5t-190.5 -46.5q-98 0 -179 44.5t-134 123.5q-61 -78 -151 -123t-193 -45q-173 0 -282.5 124t-109.5 320v695h381v-648q0 -88 30 -129t94 -41q158 0 158 210v608h371v-648
q0 -170 122 -170q77 0 118.5 55t41.5 155v608h381v-684z" />
    <glyph glyph-name="uni044E.loclBGR" horiz-adv-x="1847" 
d="M1171 1140q272 0 446 -164.5t174 -423.5q0 -257 -174.5 -422.5t-445.5 -165.5q-213 0 -365.5 116t-201.5 309h-107v-389h-377v1495h377v-781h106q48 194 201 310t367 116zM1171 305q105 0 172 69t67 178t-67 178t-172 69t-171.5 -69t-66.5 -178t66.5 -178t171.5 -69z" />
    <glyph glyph-name="uni0436.ss01" horiz-adv-x="1763" 
d="M1783 0h-430l-295 478v-478h-365v468l-281 -468h-429l371 576l-335 530h416l258 -436v436h365v-447l271 447h417l-341 -529z" />
    <glyph glyph-name="uni043A.ss01" horiz-adv-x="1206" 
d="M1227 0h-448l-278 468v-468h-381v1106h381v-434l266 434h425l-345 -529z" />
    <glyph glyph-name="uni0432.ss02" horiz-adv-x="1306" 
d="M1043 796q99 -55 153 -147.5t54 -210.5q0 -143 -77 -251.5t-207.5 -164.5t-292.5 -56q-265 0 -419.5 155.5t-154.5 419.5v434q0 254 153 405.5t411 151.5q151 0 272 -52.5t190.5 -149.5t69.5 -221q0 -184 -152 -313zM663 1237q-194 0 -194 -250v-71h192q84 0 133.5 45
t49.5 119q0 73 -49 115t-132 42zM671 290q92 0 148 48t56 127q0 77 -54 123.5t-145 46.5h-207v-100q0 -245 202 -245z" />
    <glyph glyph-name="uni0433.ss02" horiz-adv-x="1087" 
d="M546 -36q-221 0 -355.5 99.5t-134.5 262.5q0 46 9 85t21.5 69t36 56t43.5 43.5t54 33.5t56.5 25t62 19.5t60 14.5t60.5 12q37 7 53 10.5t45 10.5t41.5 13.5t28.5 16.5t22 22.5t6 28.5q0 36 -29.5 57t-77.5 21q-105 0 -108 -102h-348q4 176 127.5 277t327.5 101
q211 0 339.5 -95.5t128.5 -254.5q0 -41 -6 -76.5t-19 -64t-27.5 -51.5t-38 -42t-42.5 -33t-49.5 -25.5t-51 -19.5t-55 -15.5t-53.5 -11t-53 -9.5q-39 -7 -61 -11.5t-50.5 -13.5t-43.5 -18.5t-25.5 -24.5t-10.5 -34q0 -39 33 -61.5t84 -22.5q54 0 87.5 29t34.5 84h363
q-4 -186 -134 -295.5t-351 -109.5z" />
    <glyph glyph-name="uni0434.ss02" horiz-adv-x="1384" 
d="M1006 1106h258v-983q0 -261 -159.5 -412t-433.5 -151q-235 0 -391 111.5t-194 308.5h368q19 -53 79 -83t134 -30q99 0 165 58t66 154v33q-130 -83 -289 -83q-156 0 -283 72t-198.5 199t-71.5 285q0 156 71.5 283t198.5 200t283 73q199 0 349 -128zM672 343q103 0 169 68
t66 174q0 105 -66 173t-169 68t-169.5 -68t-66.5 -173q0 -106 66.5 -174t169.5 -68z" />
    <glyph glyph-name="uni0436.ss02" horiz-adv-x="1763" 
d="M1783 0h-430l-295 478v-478h-365v468l-281 -468h-429l374 576l-338 530h416l258 -436v835h365v-846l271 447h417l-345 -529z" />
    <glyph glyph-name="uni0437.ss02" horiz-adv-x="1202" 
d="M939 403q104 -63 159.5 -158.5t55.5 -208.5q0 -138 -74.5 -247t-202 -168.5t-284.5 -59.5q-247 0 -398.5 138.5t-156.5 368.5h362q2 -81 54.5 -129t138.5 -48q82 0 135 47.5t53 122.5t-57 120.5t-150 45.5h-146v320h135q75 0 123 37.5t48 97.5q0 62 -42.5 100.5
t-111.5 38.5q-70 0 -115 -38.5t-47 -100.5h-354q4 204 147 331.5t369 127.5q144 0 262 -53.5t186.5 -151t68.5 -220.5q0 -189 -158 -313z" />
    <glyph glyph-name="uni0438.ss02" horiz-adv-x="1320" 
d="M820 1106h381v-1106h-275l-48 112q-63 -69 -152 -107t-193 -38q-193 0 -309 127t-116 339v673h380v-622q0 -192 145 -192q89 0 138 58.5t49 164.5v591z" />
    <glyph glyph-name="uni0439.ss02" horiz-adv-x="1320" 
d="M945 1505v-246h-586v246h586zM820 1106h381v-1106h-275l-48 112q-63 -69 -152 -107t-193 -38q-193 0 -309 127t-116 339v673h380v-622q0 -192 145 -192q89 0 138 58.5t49 164.5v591z" />
    <glyph glyph-name="uni043A.ss02" horiz-adv-x="1222" 
d="M1243 0h-449l-277 468v-468h-381v1505h381v-832l264 433h427l-344 -527z" />
    <glyph glyph-name="uni043B.ss02" horiz-adv-x="1193" 
d="M1188 0h-396l-196 636l-197 -636h-394l417 1106h351z" />
    <glyph glyph-name="uni043F.ss02" horiz-adv-x="1320" 
d="M788 1139q193 0 309 -127t116 -338v-674h-381v622q0 192 -144 192q-89 0 -138 -58.5t-49 -164.5v-591h-381v1106h267l52 -114q62 70 152.5 108.5t196.5 38.5z" />
    <glyph glyph-name="uni0442.ss02" horiz-adv-x="1923" 
d="M1422 1139q177 0 285.5 -124.5t108.5 -320.5v-694h-381v647q0 171 -123 171q-158 0 -158 -212v-606h-371v647q0 171 -122 171q-77 0 -118.5 -54.5t-41.5 -157.5v-606h-381v1106h268l54 -119q61 71 145 111.5t178 40.5q100 0 182.5 -43t134.5 -120q60 76 149 119.5
t191 43.5z" />
    <glyph glyph-name="uni0446.ss02" horiz-adv-x="1421" 
d="M1201 418q0 -112 43 -161.5t140 -49.5v-466h-336v268q-100 33 -151 127q-65 -80 -160.5 -124.5t-205.5 -44.5q-192 0 -307.5 129.5t-115.5 342.5v667h380v-623q0 -191 149 -191q87 0 135 57.5t48 164.5v592h381v-688z" />
    <glyph glyph-name="uni0448.ss02" horiz-adv-x="1923" 
d="M1423 1106h381v-1106h-268l-54 120q-61 -71 -146.5 -112t-179.5 -41q-98 0 -179 44t-134 122q-61 -78 -150.5 -122t-192.5 -44q-176 0 -284 123.5t-108 317.5v698h380v-648q0 -89 30 -129.5t94 -40.5q158 0 158 210v608h371v-648q0 -170 122 -170q77 0 118.5 55t41.5 155
v608z" />
    <glyph glyph-name="uni0449.ss02" horiz-adv-x="2025" 
d="M1805 422q0 -113 43.5 -164t140.5 -51v-466h-337v267q-103 35 -154 132q-61 -80 -150.5 -126.5t-190.5 -46.5q-98 0 -179 44.5t-134 123.5q-61 -78 -151 -123t-193 -45q-173 0 -282.5 124t-109.5 320v695h381v-648q0 -88 30 -129t94 -41q158 0 158 210v608h371v-648
q0 -170 122 -170q77 0 118.5 55t41.5 155v608h381v-684z" />
    <glyph glyph-name="uni044E.ss02" horiz-adv-x="1847" 
d="M1171 1140q272 0 446 -164.5t174 -423.5q0 -257 -174.5 -422.5t-445.5 -165.5q-213 0 -365.5 116t-201.5 309h-107v-389h-377v1495h377v-781h106q48 194 201 310t367 116zM1171 305q105 0 172 69t67 178t-67 178t-172 69t-171.5 -69t-66.5 -178t66.5 -178t171.5 -69z" />
    <glyph glyph-name="uni0432.ss03" horiz-adv-x="1306" 
d="M1043 796q99 -55 153 -147.5t54 -210.5q0 -143 -77 -251.5t-207.5 -164.5t-292.5 -56q-265 0 -419.5 155.5t-154.5 419.5v434q0 254 153 405.5t411 151.5q151 0 272 -52.5t190.5 -149.5t69.5 -221q0 -184 -152 -313zM663 1237q-194 0 -194 -250v-71h192q84 0 133.5 45
t49.5 119q0 73 -49 115t-132 42zM671 290q92 0 148 48t56 127q0 77 -54 123.5t-145 46.5h-207v-100q0 -245 202 -245z" />
    <glyph glyph-name="uni0433.ss03" horiz-adv-x="1087" 
d="M546 -36q-221 0 -355.5 99.5t-134.5 262.5q0 46 9 85t21.5 69t36 56t43.5 43.5t54 33.5t56.5 25t62 19.5t60 14.5t60.5 12q37 7 53 10.5t45 10.5t41.5 13.5t28.5 16.5t22 22.5t6 28.5q0 36 -29.5 57t-77.5 21q-105 0 -108 -102h-348q4 176 127.5 277t327.5 101
q211 0 339.5 -95.5t128.5 -254.5q0 -41 -6 -76.5t-19 -64t-27.5 -51.5t-38 -42t-42.5 -33t-49.5 -25.5t-51 -19.5t-55 -15.5t-53.5 -11t-53 -9.5q-39 -7 -61 -11.5t-50.5 -13.5t-43.5 -18.5t-25.5 -24.5t-10.5 -34q0 -39 33 -61.5t84 -22.5q54 0 87.5 29t34.5 84h363
q-4 -186 -134 -295.5t-351 -109.5z" />
    <glyph glyph-name="uni0434.ss03" horiz-adv-x="1384" 
d="M1006 1106h258v-983q0 -261 -159.5 -412t-433.5 -151q-235 0 -391 111.5t-194 308.5h368q19 -53 79 -83t134 -30q99 0 165 58t66 154v33q-130 -83 -289 -83q-156 0 -283 72t-198.5 199t-71.5 285q0 156 71.5 283t198.5 200t283 73q199 0 349 -128zM672 343q103 0 169 68
t66 174q0 105 -66 173t-169 68t-169.5 -68t-66.5 -173q0 -106 66.5 -174t169.5 -68z" />
    <glyph glyph-name="uni0436.ss03" horiz-adv-x="1763" 
d="M1783 0h-430l-295 478v-478h-365v468l-281 -468h-429l371 576l-335 530h416l258 -436v835h365v-846l271 447h417l-341 -529z" />
    <glyph glyph-name="uni0437.ss03" horiz-adv-x="1202" 
d="M939 403q104 -63 159.5 -158.5t55.5 -208.5q0 -138 -74.5 -247t-202 -168.5t-284.5 -59.5q-247 0 -398.5 138.5t-156.5 368.5h362q2 -81 54.5 -129t138.5 -48q82 0 135 47.5t53 122.5t-57 120.5t-150 45.5h-146v320h135q75 0 123 37.5t48 97.5q0 62 -42.5 100.5
t-111.5 38.5q-70 0 -115 -38.5t-47 -100.5h-354q4 204 147 331.5t369 127.5q144 0 262 -53.5t186.5 -151t68.5 -220.5q0 -189 -158 -313z" />
    <glyph glyph-name="uni0438.ss03" horiz-adv-x="1320" 
d="M820 1106h381v-1106h-275l-48 112q-63 -69 -152 -107t-193 -38q-193 0 -309 127t-116 339v673h380v-622q0 -192 145 -192q89 0 138 58.5t49 164.5v591z" />
    <glyph glyph-name="uni0439.ss03" horiz-adv-x="1320" 
d="M945 1505v-246h-586v246h586zM820 1106h381v-1106h-275l-48 112q-63 -69 -152 -107t-193 -38q-193 0 -309 127t-116 339v673h380v-622q0 -192 145 -192q89 0 138 58.5t49 164.5v591z" />
    <glyph glyph-name="uni043A.ss03" horiz-adv-x="1206" 
d="M1227 0h-448l-278 468v-468h-381v1505h381v-833l266 434h425l-345 -529z" />
    <glyph glyph-name="uni043B.ss03" horiz-adv-x="1193" 
d="M1188 0h-396l-196 636l-197 -636h-394l417 1106h351z" />
    <glyph glyph-name="uni043F.ss03" horiz-adv-x="1320" 
d="M788 1139q193 0 309 -127t116 -338v-674h-381v622q0 192 -144 192q-89 0 -138 -58.5t-49 -164.5v-591h-381v1106h267l52 -114q62 70 152.5 108.5t196.5 38.5z" />
    <glyph glyph-name="uni0442.ss03" horiz-adv-x="1923" 
d="M1422 1139q177 0 285.5 -124.5t108.5 -320.5v-694h-381v647q0 171 -123 171q-158 0 -158 -212v-606h-371v647q0 171 -122 171q-77 0 -118.5 -54.5t-41.5 -157.5v-606h-381v1106h268l54 -119q61 71 145 111.5t178 40.5q100 0 182.5 -43t134.5 -120q60 76 149 119.5
t191 43.5z" />
    <glyph glyph-name="uni0446.ss03" horiz-adv-x="1421" 
d="M1201 418q0 -112 43 -161.5t140 -49.5v-466h-336v268q-100 33 -151 127q-65 -80 -160.5 -124.5t-205.5 -44.5q-192 0 -307.5 129.5t-115.5 342.5v667h380v-623q0 -191 149 -191q87 0 135 57.5t48 164.5v592h381v-688z" />
    <glyph glyph-name="uni0448.ss03" horiz-adv-x="1923" 
d="M1423 1106h381v-1106h-268l-54 120q-61 -71 -146.5 -112t-179.5 -41q-98 0 -179 44t-134 122q-61 -78 -150.5 -122t-192.5 -44q-176 0 -284 123.5t-108 317.5v698h380v-648q0 -89 30 -129.5t94 -40.5q158 0 158 210v608h371v-648q0 -170 122 -170q77 0 118.5 55t41.5 155
v608z" />
    <glyph glyph-name="uni0449.ss03" horiz-adv-x="2025" 
d="M1805 422q0 -113 43.5 -164t140.5 -51v-466h-337v267q-103 35 -154 132q-61 -80 -150.5 -126.5t-190.5 -46.5q-98 0 -179 44.5t-134 123.5q-61 -78 -151 -123t-193 -45q-173 0 -282.5 124t-109.5 320v695h381v-648q0 -88 30 -129t94 -41q158 0 158 210v608h371v-648
q0 -170 122 -170q77 0 118.5 55t41.5 155v608h381v-684z" />
    <glyph glyph-name="uni044E.ss03" horiz-adv-x="1847" 
d="M1171 1140q272 0 446 -164.5t174 -423.5q0 -257 -174.5 -422.5t-445.5 -165.5q-213 0 -365.5 116t-201.5 309h-107v-389h-377v1495h377v-781h106q48 194 201 310t367 116zM1171 305q105 0 172 69t67 178t-67 178t-172 69t-171.5 -69t-66.5 -178t66.5 -178t171.5 -69z" />
    <glyph glyph-name="uni0436.ss04" horiz-adv-x="1763" 
d="M1783 0h-430l-295 478v-478h-365v468l-281 -468h-429l371 576l-335 530h416l258 -436v436h365v-447l271 447h417l-341 -529z" />
    <glyph glyph-name="uni043A.ss04" horiz-adv-x="1206" 
d="M1227 0h-448l-278 468v-468h-381v1106h381v-434l266 434h425l-345 -529z" />
    <glyph glyph-name="zero.sinf" horiz-adv-x="843" 
d="M422 -189q-167 0 -266.5 117t-99.5 315q0 197 99.5 314.5t266.5 117.5t267 -117.5t100 -314.5q0 -198 -100 -315t-267 -117zM422 29q60 0 92 54.5t32 158.5q0 103 -32.5 159t-91.5 56t-91 -55.5t-32 -158.5q0 -105 31.5 -159.5t91.5 -54.5z" />
    <glyph glyph-name="one.sinf" horiz-adv-x="509" 
d="M39 651h377v-824h-247v623h-130v201z" />
    <glyph glyph-name="two.sinf" horiz-adv-x="735" 
d="M449 36h227v-208h-631v66q172 198 247.5 291t102 138.5t26.5 79.5q0 32 -17 51.5t-46 19.5q-33 0 -52 -20.5t-19 -56.5v-20h-230v15q0 134 79 209.5t221 75.5q133 0 217.5 -73t84.5 -190q0 -79 -46 -159t-164 -219z" />
    <glyph glyph-name="three.sinf" horiz-adv-x="727" 
d="M483 349q88 -23 140 -90.5t52 -161.5q0 -127 -89 -208t-228 -81q-136 0 -221 79.5t-89 208.5h216q2 -43 27.5 -69.5t67.5 -26.5q41 0 68 28t27 72t-28 70t-76 26h-133v48l128 211h-274v195h577v-38z" />
    <glyph glyph-name="four.sinf" horiz-adv-x="768" 
d="M727 165v-194h-76v-144h-227v144h-399v53l264 627h235l-200 -486h117l57 186h153v-186h76z" />
    <glyph glyph-name="five.sinf" horiz-adv-x="720" 
d="M358 373q142 0 229.5 -77t87.5 -199q0 -128 -87.5 -208.5t-226.5 -80.5q-138 0 -224 81t-86 209h215q0 -41 27.5 -68.5t67.5 -27.5t66.5 26.5t26.5 67.5t-27.5 66.5t-72.5 25.5h-266l-21 30l46 433h503v-194h-324l-9 -84h75z" />
    <glyph glyph-name="six.sinf" horiz-adv-x="753" 
d="M433 386q123 0 204.5 -76t81.5 -197q0 -139 -92 -224t-241 -85q-150 0 -242.5 85.5t-92.5 222.5q0 131 98 294l147 246h254l-141 -231q-13 -20 -23 -38q24 3 47 3zM385 1q51 0 82.5 31t31.5 81t-31.5 81t-82.5 31q-50 0 -81.5 -31.5t-31.5 -80.5q0 -50 31.5 -81t81.5 -31
z" />
    <glyph glyph-name="seven.sinf" horiz-adv-x="686" 
d="M39 653h622v-41l-306 -784h-237l241 618h-320v207z" />
    <glyph glyph-name="eight.sinf" horiz-adv-x="757" 
d="M595 264q108 -70 108 -194q0 -120 -92.5 -189.5t-231.5 -69.5q-138 0 -230.5 69.5t-92.5 189.5q0 127 108 194q-86 71 -86 171q0 111 85.5 175t215.5 64t216 -64t86 -175q0 -103 -86 -171zM381 508q-37 0 -62 -21t-25 -57t25 -57.5t62 -21.5t61.5 21.5t24.5 58.5
q0 35 -25 56t-61 21zM381 -16q44 0 72 24.5t28 68.5q0 42 -29.5 67t-73.5 25q-43 0 -71.5 -24.5t-28.5 -67.5t29.5 -68t73.5 -25z" />
    <glyph glyph-name="nine.sinf" horiz-adv-x="753" 
d="M367 677q150 0 242.5 -85.5t92.5 -222.5q0 -70 -21.5 -135.5t-76.5 -159.5l-147 -246h-254l135 222q10 16 28 46q-15 -2 -46 -2q-126 0 -206 76.5t-80 197.5q0 139 92 224t241 85zM368 255q50 0 81.5 31.5t31.5 81.5q0 49 -31.5 79.5t-81.5 30.5q-51 0 -82.5 -30.5
t-31.5 -79.5q0 -50 31.5 -81.5t82.5 -31.5z" />
    <glyph glyph-name="zero.tf" horiz-adv-x="1280" 
d="M640 -30q-269 0 -429.5 194.5t-160.5 519.5q0 326 160 519.5t430 193.5t430.5 -193.5t160.5 -519.5q0 -325 -161 -519.5t-430 -194.5zM640 295q105 0 161 100t56 288q0 187 -56.5 288.5t-160.5 101.5q-105 0 -160.5 -100.5t-55.5 -288.5t55.5 -288.5t160.5 -100.5z" />
    <glyph glyph-name="one.tf" horiz-adv-x="1280" 
d="M854 328h312v-328h-1012v328h334v723h-289v311h655v-1034z" />
    <glyph glyph-name="two.tf" horiz-adv-x="1280" 
d="M754 323h376v-323h-1013v83q176 208 277 329.5t178 219t109 151.5t46 92.5t14 75.5q0 55 -33 89t-86 34q-57 0 -90 -36t-33 -98v-26h-360v25q0 208 128.5 333t350.5 125q217 0 352.5 -121t135.5 -313q0 -90 -28 -169.5t-103.5 -190.5t-220.5 -280z" />
    <glyph glyph-name="three.tf" horiz-adv-x="1280" 
d="M825 862q147 -37 233.5 -149t86.5 -269q0 -208 -145 -342t-369 -134q-219 0 -357.5 130.5t-144.5 342.5h350q3 -72 44.5 -115.5t108.5 -43.5q70 0 114.5 46.5t44.5 121.5t-47 118t-127 43h-218v76l222 364h-457v311h934v-63z" />
    <glyph glyph-name="four.tf" horiz-adv-x="1280" 
d="M1189 550v-305h-123v-245h-350v245h-654v66l436 1051h362l-337 -812h218l79 300h246v-300h123z" />
    <glyph glyph-name="five.tf" horiz-adv-x="1280" 
d="M634 896q228 0 371.5 -126.5t143.5 -327.5q0 -208 -143 -341t-366 -133t-364.5 132.5t-141.5 339.5h349q0 -69 44 -113.5t113 -44.5q67 0 110.5 45.5t43.5 114.5q0 74 -47 119.5t-123 45.5h-427l-32 39l79 716h807v-311h-527l-17 -155h127z" />
    <glyph glyph-name="six.tf" horiz-adv-x="1280" 
d="M734 919q205 0 334 -124.5t129 -321.5q0 -224 -150 -364.5t-390 -140.5q-241 0 -391.5 140t-150.5 363q0 107 36.5 217.5t119.5 251.5l250 422h393l-270 -450q51 7 90 7zM656 281q84 0 137 53.5t53 138.5q0 86 -53 139.5t-137 53.5q-83 0 -136.5 -53.5t-53.5 -139.5
q0 -85 53.5 -138.5t136.5 -53.5z" />
    <glyph glyph-name="seven.tf" horiz-adv-x="1280" 
d="M128 1362h1046v-53l-516 -1309h-384l416 1043h-562v319z" />
    <glyph glyph-name="eight.tf" horiz-adv-x="1280" 
d="M997 721q182 -116 182 -319q0 -193 -149.5 -313.5t-390.5 -120.5t-389.5 120t-148.5 314q0 205 181 319q-143 116 -143 280q0 177 138 286.5t363 109.5t363 -109.5t138 -286.5q0 -165 -144 -280zM640 1126q-69 0 -112.5 -38.5t-43.5 -97.5t43.5 -97.5t112.5 -38.5t112 38
t43 98t-43 98t-112 38zM640 252q82 0 132 45t50 117t-50 117t-132 45t-132.5 -45t-50.5 -117t50.5 -117t132.5 -45z" />
    <glyph glyph-name="nine.tf" horiz-adv-x="1280" 
d="M625 1397q241 0 391.5 -140t150.5 -363q0 -107 -36.5 -217.5t-119.5 -251.5l-251 -425h-393q45 75 135.5 226.5t135.5 226.5q-44 -6 -90 -6q-205 0 -334 124t-129 321q0 224 150 364.5t390 140.5zM626 697q88 0 144 54.5t56 140.5t-56.5 140t-143.5 54q-88 0 -144 -54
t-56 -140q0 -87 56 -141t144 -54z" />
    <glyph glyph-name="zero.dnom" horiz-adv-x="843" 
d="M422 -20q-167 0 -266.5 117.5t-99.5 315.5q0 197 99.5 314.5t266.5 117.5t267 -117.5t100 -314.5q0 -198 -100 -315.5t-267 -117.5zM422 199q60 0 92 54.5t32 158.5q0 103 -32.5 158.5t-91.5 55.5t-91 -55t-32 -158q0 -105 31.5 -159.5t91.5 -54.5z" />
    <glyph glyph-name="one.dnom" horiz-adv-x="509" 
d="M39 824h377v-824h-247v623h-130v201z" />
    <glyph glyph-name="two.dnom" horiz-adv-x="735" 
d="M449 208h227v-208h-631v66q172 198 247.5 291t102 138.5t26.5 79.5q0 32 -17 51.5t-46 19.5q-33 0 -52 -20.5t-19 -56.5v-20h-230v15q0 134 79 209.5t221 75.5q133 0 217.5 -73t84.5 -190q0 -79 -46 -159t-164 -219z" />
    <glyph glyph-name="three.dnom" horiz-adv-x="727" 
d="M483 522q88 -23 140 -90.5t52 -161.5q0 -127 -89 -208.5t-228 -81.5q-136 0 -221 80t-89 209h216q2 -43 27.5 -69.5t67.5 -26.5t68.5 27.5t26.5 71.5t-28 70t-76 26h-133v49l128 211h-274v195h577v-38z" />
    <glyph glyph-name="four.dnom" horiz-adv-x="768" 
d="M727 337v-194h-76v-144h-227v144h-399v53l264 627h235l-200 -486h117l57 186h153v-186h76z" />
    <glyph glyph-name="five.dnom" horiz-adv-x="720" 
d="M358 545q142 0 229.5 -77t87.5 -199q0 -128 -87.5 -208.5t-226.5 -80.5q-138 0 -224 81t-86 209h215q0 -41 27.5 -68.5t67.5 -27.5t66.5 26.5t26.5 67.5t-27.5 66.5t-72.5 25.5h-266l-21 30l46 433h503v-194h-324l-9 -84h75z" />
    <glyph glyph-name="six.dnom" horiz-adv-x="753" 
d="M433 557q123 0 204.5 -76t81.5 -197q0 -139 -92 -224t-241 -85q-150 0 -242.5 85t-92.5 222q0 132 98 295l147 246h254l-141 -231q-13 -20 -23 -38q24 3 47 3zM385 172q51 0 82.5 31t31.5 81t-31.5 81t-82.5 31q-50 0 -81.5 -31.5t-31.5 -80.5q0 -50 31.5 -81t81.5 -31z
" />
    <glyph glyph-name="seven.dnom" horiz-adv-x="686" 
d="M40 823h622v-41l-306 -784h-237l241 618h-320v207z" />
    <glyph glyph-name="eight.dnom" horiz-adv-x="757" 
d="M595 444q108 -70 108 -194q0 -120 -92.5 -189.5t-231.5 -69.5q-138 0 -230.5 69.5t-92.5 189.5q0 127 108 194q-86 71 -86 171q0 111 85.5 175t215.5 64t216 -64t86 -175q0 -103 -86 -171zM381 688q-37 0 -62 -21t-25 -57t25 -57.5t62 -21.5t61.5 21.5t24.5 58.5
q0 35 -25 56t-61 21zM381 164q44 0 72 24.5t28 68.5q0 42 -29.5 67t-73.5 25q-43 0 -71.5 -24.5t-28.5 -67.5t29.5 -68t73.5 -25z" />
    <glyph glyph-name="nine.dnom" horiz-adv-x="753" 
d="M367 850q150 0 242.5 -85.5t92.5 -222.5q0 -70 -21.5 -136t-76.5 -160l-147 -245h-254l135 222q10 16 28 46q-15 -2 -46 -2q-126 0 -206 76t-80 197q0 139 92 224.5t241 85.5zM368 428q50 0 81.5 31.5t31.5 80.5t-31.5 80t-81.5 31q-51 0 -82.5 -30.5t-31.5 -80.5
t31.5 -81t82.5 -31z" />
    <glyph glyph-name="zero.numr" horiz-adv-x="843" 
d="M422 594q-167 0 -266.5 117.5t-99.5 315.5q0 197 99.5 314t266.5 117t267 -117.5t100 -313.5q0 -198 -100 -315.5t-267 -117.5zM422 812q60 0 92 54.5t32 158.5q0 103 -32.5 159t-91.5 56t-91 -55t-32 -158q0 -105 32 -160t91 -55z" />
    <glyph glyph-name="one.numr" horiz-adv-x="509" 
d="M39 1434h377v-825h-247v624h-130v201z" />
    <glyph glyph-name="two.numr" horiz-adv-x="735" 
d="M449 818h227v-207h-631v65q245 283 310.5 372t65.5 138q0 32 -17 51.5t-46 19.5q-33 0 -52 -21t-19 -57v-19h-230v14q0 134 79 209.5t221 75.5q133 0 217.5 -73t84.5 -190q0 -79 -46 -159t-164 -219z" />
    <glyph glyph-name="three.numr" horiz-adv-x="727" 
d="M483 1132q88 -23 140 -90.5t52 -161.5q0 -127 -89 -208t-228 -81q-136 0 -221 79.5t-89 208.5h216q2 -43 27.5 -69.5t67.5 -26.5q41 0 68 28t27 72t-28 70t-76 26h-133v48l128 211h-274v196h577v-39z" />
    <glyph glyph-name="four.numr" horiz-adv-x="768" 
d="M727 947v-193h-76v-145h-227v145h-399v52l264 628h235l-200 -487h117l57 186h153v-186h76z" />
    <glyph glyph-name="five.numr" horiz-adv-x="720" 
d="M358 1155q142 0 229.5 -76.5t87.5 -198.5q0 -128 -87.5 -208.5t-226.5 -80.5q-138 0 -224 80.5t-86 208.5h215q0 -41 27.5 -68.5t67.5 -27.5t66.5 27t26.5 68t-27.5 66.5t-72.5 25.5h-266l-21 29l46 434h503v-194h-324l-9 -85h75z" />
    <glyph glyph-name="six.numr" horiz-adv-x="753" 
d="M433 1168q123 0 204.5 -76.5t81.5 -197.5q0 -139 -92 -224t-241 -85q-150 0 -242.5 85.5t-92.5 222.5q0 131 98 294l147 247h254l-141 -232q-13 -20 -23 -38q32 4 47 4zM385 782q51 0 82.5 31t31.5 81t-31.5 81.5t-82.5 31.5q-49 0 -81 -31.5t-32 -81.5t31.5 -81
t81.5 -31z" />
    <glyph glyph-name="seven.numr" horiz-adv-x="686" 
d="M39 1436h622v-41l-306 -785h-237l241 618h-320v208z" />
    <glyph glyph-name="eight.numr" horiz-adv-x="757" 
d="M595 1047q108 -70 108 -194q0 -120 -92.5 -189.5t-231.5 -69.5q-138 0 -230.5 69.5t-92.5 189.5q0 127 108 194q-86 71 -86 172q0 111 85.5 175t215.5 64t216 -64t86 -175q0 -104 -86 -172zM381 1291q-37 0 -62 -21t-25 -57t25 -57t62 -21t61.5 21t24.5 58q0 35 -25 56
t-61 21zM381 767q44 0 72 24.5t28 68.5q0 42 -29.5 67t-73.5 25q-43 0 -71.5 -24.5t-28.5 -67.5t29.5 -68t73.5 -25z" />
    <glyph glyph-name="nine.numr" horiz-adv-x="753" 
d="M367 1459q150 0 242.5 -85t92.5 -222q0 -70 -21.5 -136t-76.5 -160l-147 -245h-254l135 222q10 16 28 46q-23 -3 -46 -3q-126 0 -206 76.5t-80 197.5q0 139 92 224t241 85zM368 1038q50 0 81.5 31.5t31.5 80.5t-31.5 80t-81.5 31q-51 0 -82.5 -30.5t-31.5 -80.5t31.5 -81
t82.5 -31z" />
    <glyph glyph-name="zero.sups" horiz-adv-x="843" 
d="M422 799q-167 0 -266.5 117t-99.5 315q0 197 99.5 314.5t266.5 117.5t267 -117.5t100 -314.5q0 -198 -100 -315t-267 -117zM422 1017q60 0 92 54.5t32 158.5q0 103 -32.5 159t-91.5 56t-91 -55.5t-32 -158.5q0 -105 31.5 -159.5t91.5 -54.5z" />
    <glyph glyph-name="one.sups" horiz-adv-x="509" 
d="M39 1638h377v-824h-247v624h-130v200z" />
    <glyph glyph-name="two.sups" horiz-adv-x="735" 
d="M449 1023h227v-208h-631v66q172 198 247.5 291t102 138.5t26.5 79.5q0 32 -17.5 52t-45.5 20q-33 0 -52 -21t-19 -57v-20h-230v15q0 134 79 209.5t221 75.5q133 0 217.5 -73t84.5 -190q0 -79 -46 -159t-164 -219z" />
    <glyph glyph-name="three.sups" horiz-adv-x="727" 
d="M483 1337q88 -23 140 -90.5t52 -161.5q0 -127 -89 -208t-228 -81q-136 0 -221 79.5t-89 208.5h216q2 -43 27.5 -69.5t67.5 -26.5q41 0 68 28t27 72t-28 70t-76 26h-133v48l128 211h-274v195h577v-38z" />
    <glyph glyph-name="four.sups" horiz-adv-x="768" 
d="M727 1152v-193h-76v-145h-227v145h-399v52l264 627h235l-200 -486h117l57 186h153v-186h76z" />
    <glyph glyph-name="five.sups" horiz-adv-x="720" 
d="M358 1360q142 0 229.5 -77t87.5 -199q0 -127 -87.5 -207.5t-226.5 -80.5q-138 0 -224 80.5t-86 208.5h215q0 -41 27.5 -68.5t67.5 -27.5t66.5 26.5t26.5 67.5t-27.5 66.5t-72.5 25.5h-266l-21 30l46 433h503v-193h-324l-9 -85h75z" />
    <glyph glyph-name="six.sups" horiz-adv-x="753" 
d="M433 1372q123 0 204.5 -76t81.5 -197q0 -139 -92 -224t-241 -85q-150 0 -242.5 85t-92.5 222q0 132 98 295l147 246h254l-141 -231q-13 -20 -23 -38q24 3 47 3zM385 987q51 0 82.5 31t31.5 81t-31.5 81t-82.5 31q-50 0 -81.5 -31.5t-31.5 -80.5q0 -50 31.5 -81t81.5 -31z
" />
    <glyph glyph-name="seven.sups" horiz-adv-x="686" 
d="M39 1638h622v-41l-306 -784h-237l241 618h-320v207z" />
    <glyph glyph-name="eight.sups" horiz-adv-x="757" 
d="M595 1252q108 -70 108 -194q0 -120 -92.5 -189.5t-231.5 -69.5q-138 0 -230.5 69.5t-92.5 189.5q0 127 108 194q-86 71 -86 171q0 111 85.5 175t215.5 64t216 -64t86 -175q0 -103 -86 -171zM381 1496q-37 0 -62 -21t-25 -57t25 -57.5t62 -21.5t61.5 21.5t24.5 58.5
q0 35 -25 56t-61 21zM381 972q44 0 72 24.5t28 68.5q0 42 -29.5 67t-73.5 25q-43 0 -71.5 -24.5t-28.5 -67.5t29.5 -68t73.5 -25z" />
    <glyph glyph-name="nine.sups" horiz-adv-x="753" 
d="M367 1664q150 0 242.5 -85.5t92.5 -222.5q0 -70 -21.5 -135.5t-76.5 -159.5l-147 -246h-254l135 223q25 40 28 45q-15 -2 -46 -2q-126 0 -206 76.5t-80 197.5q0 139 92 224t241 85zM368 1242q50 0 81.5 32t31.5 81t-31.5 80t-81.5 31q-51 0 -82.5 -30.5t-31.5 -80.5
t31.5 -81.5t82.5 -31.5z" />
    <glyph glyph-name="bullet.case" horiz-adv-x="827" 
d="M413 439q-126 0 -210.5 85t-84.5 211q0 127 84.5 211t210.5 84q128 0 212 -84t84 -211q0 -126 -84.5 -211t-211.5 -85z" />
    <glyph glyph-name="braceleft.case" horiz-adv-x="802" 
d="M568 952q0 -90 -46 -161.5t-122 -102.5q74 -29 119 -100t45 -162v-438h156v-302h-235q-114 0 -193 78.5t-79 192.5v487q0 46 -32.5 78.5t-79.5 32.5h-43v266h43q47 0 79.5 33t32.5 80v495q0 113 79.5 191.5t192.5 78.5h235v-300h-152v-447z" />
    <glyph glyph-name="braceright.case" horiz-adv-x="802" 
d="M616 821h42v-266h-42q-47 0 -80 -32.5t-33 -78.5v-487q0 -114 -78.5 -192.5t-192.5 -78.5h-235v302h156v438q0 91 45 162t119 100q-76 31 -122 102.5t-46 161.5v447h-152v300h235q113 0 192 -78.5t79 -191.5v-495q0 -47 33 -80t80 -33z" />
    <glyph glyph-name="bracketleft.case" horiz-adv-x="753" 
d="M147 -314v2011h531v-290h-198v-1427h203v-294h-536z" />
    <glyph glyph-name="bracketright.case" horiz-adv-x="753" 
d="M607 -314h-536v294h203v1427h-199v290h532v-2011z" />
    <glyph glyph-name="parenleft.case" horiz-adv-x="755" 
d="M357 -263q-134 208 -205.5 459t-71.5 521q0 268 70 519t201 460h402q-132 -189 -219.5 -447t-87.5 -534q0 -279 87.5 -536.5t221.5 -441.5h-398z" />
    <glyph glyph-name="parenright.case" horiz-adv-x="755" 
d="M398 -263h-398q134 184 221.5 441.5t87.5 536.5q0 276 -87.5 534t-219.5 447h402q131 -209 201 -460t70 -519q0 -270 -71.5 -521t-205.5 -459z" />
    <glyph glyph-name="emdash.case" horiz-adv-x="1705" 
d="M117 521v346h1471v-346h-1471z" />
    <glyph glyph-name="endash.case" horiz-adv-x="1284" 
d="M117 521v346h1050v-346h-1050z" />
    <glyph glyph-name="hyphen.case" horiz-adv-x="985" 
d="M117 528v346h750v-346h-750z" />
    <glyph glyph-name="guillemotleft.case" horiz-adv-x="1486" 
d="M1000 224l-321 437v37l321 437h424l-328 -456l328 -455h-424zM380 223l-321 437v37l321 437h424l-328 -456l328 -455h-424z" />
    <glyph glyph-name="guillemotright.case" horiz-adv-x="1486" 
d="M487 224h-423l327 455l-327 456h423l322 -437v-37zM1107 223h-423l327 455l-327 456h423l322 -437v-37z" />
    <glyph glyph-name="guilsinglleft.case" horiz-adv-x="866" 
d="M380 223l-321 437v37l321 437h424l-328 -456l328 -455h-424z" />
    <glyph glyph-name="guilsinglright.case" horiz-adv-x="866" 
d="M487 223h-423l327 455l-327 456h423l322 -437v-37z" />
    <glyph glyph-name="cent.tf" horiz-adv-x="1280" 
d="M1220 445q-25 -173 -135 -293.5t-275 -159.5v-150h-306v151q-191 45 -307.5 190.5t-116.5 345.5q0 201 116 345.5t308 189.5v171h306v-170q164 -38 272.5 -156t133.5 -288h-355q-23 62 -78 99t-123 37q-94 0 -154 -63.5t-60 -165.5q0 -100 60.5 -165t153.5 -65
q71 0 125 40t77 107h358z" />
    <glyph glyph-name="currency.tf" horiz-adv-x="1275" 
d="M1207 264l-214 -212l-144 146q-101 -52 -212 -52t-212 52l-141 -145l-214 213l141 144q-52 102 -52 213q0 117 57 223l-139 142l212 213l147 -147q98 46 201 46q107 0 202 -46l146 147l213 -213l-141 -142q57 -106 57 -223q0 -111 -52 -213zM453 625q0 -75 54.5 -130
t129.5 -54t127.5 54.5t52.5 129.5q0 74 -52.5 127.5t-127.5 53.5t-129.5 -52.5t-54.5 -128.5z" />
    <glyph glyph-name="dollar.tf" horiz-adv-x="1280" 
d="M1194 422q0 -179 -105.5 -291t-288.5 -146v-143h-306v143q-190 35 -297.5 154t-107.5 304h392q0 -66 46.5 -102.5t114.5 -36.5q64 0 109.5 30t45.5 81q0 21 -7.5 38t-26.5 30.5t-34.5 22.5t-50.5 20t-54 16t-64 16t-68.5 17t-68 20t-70 25.5t-63.5 31.5t-60 40.5
t-48.5 51t-40.5 64t-23.5 78t-9.5 95.5q0 165 97.5 271t274.5 138v135h306v-137q175 -34 269.5 -145t94.5 -282l-381 -1q0 58 -40.5 89t-102.5 31q-55 0 -94 -22.5t-39 -64.5q0 -19 7 -35t25 -29t34.5 -22t49 -19.5t54 -16t63.5 -16.5q175 -45 255 -86q203 -104 213 -325
v-22z" />
    <glyph glyph-name="Euro.tf" horiz-adv-x="1353" 
d="M710 396q111 -122 305 -122q112 0 204 35v-311q-108 -34 -232 -34q-232 0 -408 115t-255 313h-262l59 234h150q-2 38 -2 58q0 16 2 44h-206l59 235h196q78 204 257.5 324.5t408.5 120.5q161 0 309 -58l-76 -295q-93 38 -210 38q-194 0 -306 -134h487l-59 -231h-518
q-2 -28 -2 -44q0 -30 3 -58h491l-60 -231z" />
    <glyph glyph-name="florin.tf" horiz-adv-x="1280" 
d="M921 1100q-98 0 -112 -96l-12 -92h234l-41 -284h-227l-111 -768q-22 -158 -124.5 -247.5t-258.5 -89.5h-218l42 310h81q61 0 100.5 35t48.5 97l97 663h-183l41 284h183l26 175q19 139 110 213.5t235 74.5h262l-38 -275h-135z" />
    <glyph glyph-name="uni20BD.tf" horiz-adv-x="1280" 
d="M789 532h-189v-101h310v-230h-310v-201h-351v201h-156v230h156v114h-156v260h156v560h540q205 0 324.5 -112.5t119.5 -304.5t-119.5 -304t-324.5 -112zM887 947q0 56 -37.5 91.5t-96.5 35.5h-153v-251h153q59 0 96.5 34.5t37.5 89.5z" />
    <glyph glyph-name="sterling.tf" horiz-adv-x="1280" 
d="M880 429h313v-429h-1100v219l123 56v257h-98v260h98v195q0 188 130 301t346 113q210 0 332 -111.5t122 -302.5v-31h-329v25q0 63 -34 99t-91 36q-58 0 -92.5 -36.5t-34.5 -98.5v-189h246v-260h-246v-242h315v139z" />
    <glyph glyph-name="yen.tf" horiz-adv-x="1280" 
d="M1303 1362l-464 -743h305v-200h-323v-91h323v-188h-323v-140h-362v140h-323v188h323v91h-323v200h301l-459 743h390l271 -490l274 490h390z" />
    <glyph glyph-name="uni0308.case" 
d="M-1094 1560v318h350v-318h-350zM-572 1560v318h350v-318h-350z" />
    <glyph glyph-name="uni0307.case" 
d="M-579 1561v317h373v-317h-373z" />
    <glyph glyph-name="gravecomb.case" 
d="M-686 1560l-263 318h398l144 -318h-279z" />
    <glyph glyph-name="acutecomb.case" 
d="M-825 1560l144 318h398l-263 -318h-279z" />
    <glyph glyph-name="uni030B.case" 
d="M-1123 1557l101 318h348l-182 -318h-267zM-701 1557l154 318h362l-243 -318h-273z" />
    <glyph glyph-name="uni0302.case" 
d="M-176 1560h-296l-148 145l-146 -145h-297l243 318h400z" />
    <glyph glyph-name="uni030C.case" 
d="M-472 1878h296l-244 -318h-400l-243 318h297l146 -146z" />
    <glyph glyph-name="uni0306.case" 
d="M-602 1543q-170 0 -273.5 92.5t-103.5 242.5h264v-11q0 -46 31 -73.5t81 -27.5t80.5 27.5t30.5 73.5v11h268q0 -150 -104 -242.5t-274 -92.5z" />
    <glyph glyph-name="uni030A.case" 
d="M-472 1504q-127 0 -208 76t-81 198t81 198t208 76t207.5 -76t80.5 -198t-80.5 -198t-207.5 -76zM-472 1669q48 0 80.5 31t32.5 78t-32.5 77.5t-80.5 30.5q-49 0 -80.5 -30.5t-31.5 -77.5t31.5 -78t80.5 -31z" />
    <glyph glyph-name="tildecomb.case" 
d="M-473 1552q-12 0 -25 1.5t-22.5 2.5t-22.5 5t-20.5 5.5t-21 7.5l-18 8t-19 9t-17 8.5t-17 9.5t-15.5 8q-65 35 -89 36q-29 1 -48 -20t-19 -54v-20h-207v25q0 139 68.5 220t194.5 81q88 0 191 -65q62 -40 95 -40q31 0 48.5 20t17.5 55v24h208v-27q0 -140 -70 -220
t-192 -80z" />
    <glyph glyph-name="uni0304.case" 
d="M-888 1573v282h686v-282h-686z" />
    <glyph glyph-name="uni0326.case" 
d="M-429 -657v157q62 3 97 36.5t35 87.5h-144v280h315v-254q0 -130 -81.5 -213t-221.5 -94z" />
    <glyph glyph-name="uni0327.case" 
d="M-368 -63q87 -19 135.5 -72t48.5 -132q0 -94 -73.5 -155.5t-195.5 -61.5h-187v173h155q30 0 48.5 16.5t18.5 42.5t-18.5 42t-48.5 16h-106l-16 20l69 280h214z" />
    <glyph glyph-name="uni0328.case" 
d="M-394 -492q-126 0 -200.5 63.5t-74.5 167.5q0 134 131 259t370 193v-154q-107 -40 -165.5 -102t-58.5 -121q0 -40 29 -62.5t85 -22.5q58 0 123 27v-186q-109 -62 -239 -62z" />
    <glyph glyph-name="uni0335.case" 
d="M-1021 564v317h816v-317h-816z" />
    <glyph glyph-name="uni0336.case" 
d="M-1656 1044v238h1469v-238h-1469z" />
    <glyph glyph-name="uni0337.case" 
d="M-941 406v319l802 378v-325z" />
    <glyph glyph-name="uni0338.case" 
d="M-1079 -121l1020 1688h358l-1020 -1688h-358z" />
    <glyph glyph-name="uni0308.narrow.case" 
d="M-1029 1560v318h347v-318h-347zM-547 1560v318h348v-318h-348z" />
    <glyph glyph-name="gravecomb.narrow.case" 
d="M-196 1560h-286l-177 318h390z" />
    <glyph glyph-name="acutecomb.narrow.case" 
d="M-772 1560l114 318h389l-228 -318h-275z" />
    <glyph glyph-name="uni0302.narrow.case" 
d="M-209 1560h-289l-122 139l-121 -139h-289l222 318h376z" />
    <glyph glyph-name="uni0306.narrow.case" 
d="M-602 1543q-160 0 -258.5 92.5t-98.5 242.5h264v-11q0 -46 25.5 -73.5t66.5 -27.5t66 27.5t25 73.5v11h267q0 -150 -98 -242.5t-259 -92.5z" />
    <glyph glyph-name="tildecomb.narrow.case" 
d="M-485 1557q-81 0 -179 63q-54 34 -79 34q-27 0 -43.5 -20.5t-16.5 -51.5v-18h-202v24q0 134 63.5 211.5t178.5 77.5q36 0 71 -11.5t52.5 -21.5t48.5 -30q58 -38 86 -38q58 0 58 73v22h203v-25q0 -135 -65 -212t-176 -77z" />
    <glyph glyph-name="uni0304.narrow.case" 
d="M-784 1573v282h611v-282h-611z" />
    <glyph glyph-name="uni0308.narrow" 
d="M-985 1237v331h347v-331h-347zM-506 1237v331h347v-331h-347z" />
    <glyph glyph-name="gravecomb.narrow" 
d="M-207 1228h-286l-178 340h390z" />
    <glyph glyph-name="acutecomb.narrow" 
d="M-727 1228l73 340h390l-177 -340h-286z" />
    <glyph glyph-name="uni0302.narrow" 
d="M-232 1228h-290l-123 149l-121 -149h-289l221 340h378z" />
    <glyph glyph-name="uni0306.narrow" 
d="M-548 1214q-169 0 -272 97.5t-103 256.5h270v-12q0 -52 29.5 -83t75.5 -31t73.5 31t27.5 83v12h274q0 -159 -103 -256.5t-272 -97.5z" />
    <glyph glyph-name="tildecomb.narrow" 
d="M-478 1231q-35 0 -72 11.5t-57.5 22.5t-52.5 31q-63 35 -84 35q-29 0 -45.5 -20t-16.5 -53v-19h-207v24q0 137 65 217t183 80q37 0 73.5 -11.5t54 -21.5t49.5 -31q53 -35 75 -39q6 -1 12 -1q60 0 60 75v23h209v-26q0 -138 -66 -217.5t-180 -79.5z" />
    <glyph glyph-name="uni0304.narrow" 
d="M-721 1259v265h584v-265h-584z" />
    <glyph glyph-name="tonos.case" horiz-adv-x="876" 
d="M66 1109l137 325h380l-250 -325h-267z" />
    <glyph glyph-name="dieresistonos.narrow" horiz-adv-x="1384" 
d="M512 1227l69 339h318l-144 -339h-243zM191 1273v257h264v-257h-264zM921 1273v257h265v-257h-265z" />
    <glyph glyph-name="brevecombcy" horiz-adv-x="829" 
d="M122 1259v246h587v-246h-587z" />
    <glyph glyph-name="brevecombcy.case" horiz-adv-x="946" 
d="M144 1573v267h657v-267h-657z" />
    <glyph glyph-name="fontfabric" horiz-adv-x="1421" 
d="M1257 1014h-641v-148h641v-420h-641v-446h-411v1434h1052v-420zM1087 688h-659v510h659v47h-708v-1046h49v444h659v45z" />
    </font>
</defs>
</svg>
