<?xml version="1.0" standalone="no"?>
<!DOCTYPE svg PUBLIC "-//W3C//DTD SVG 1.1//EN" "http://www.w3.org/Graphics/SVG/1.1/DTD/svg11.dtd" >
<svg xmlns="http://www.w3.org/2000/svg" xmlns:xlink="http://www.w3.org/1999/xlink" version="1.1">
<metadata>
Created by FontForge 20201107 at Thu Sep 26 06:14:38 2024
 By 
Modern and elegant sans serif font family.
</metadata>
<defs>
<font id="Mont-Regular" horiz-adv-x="0" >
  <font-face 
    font-family="Mont"
    font-weight="600"
    font-stretch="normal"
    units-per-em="2048"
    panose-1="0 0 7 0 0 0 0 0 0 0"
    ascent="1638"
    descent="-410"
    x-height="1106"
    cap-height="1434"
    bbox="-1638 -617 2262 2026"
    underline-thickness="102"
    underline-position="-204"
    unicode-range="U+0020-25CA"
  />
<missing-glyph horiz-adv-x="948" 
d="M777 1501v-1896h-601v1896h601zM631 1374h-313v-63h124v-70h-125v-63h314v63h-125v70h125v63zM506 1129h-189v-197h314v64h-125v133zM442 1065v-69h-63v69h63zM631 881h-314v-63h125v-70h-125v-62h189v132h125v63zM631 767h-62v-125h-252v-64h314v189zM631 536h-189v-106
h64v43h63v-89h-190v152h-62v-214h314v214zM631 208h-314v-214h314v214zM569 145v-89h-190v89h190zM631 -50h-314v-62h132l-132 -89v-63h314v63h-193l133 89h60v62z" />
    <glyph glyph-name="f_f.liga" unicode="ff" horiz-adv-x="1509" 
d="M1482 1098v-146h-339v-952h-174v952h-541v-952h-174v952h-218v146h218v90q0 179 86 266t269 87h156v-141h-125q-118 0 -168 -49.5t-50 -166.5v-86h547v90q0 179 86 266t269 87h156v-141h-125q-118 0 -168 -49.5t-50 -166.5v-86h345z" />
    <glyph glyph-name="f_f_t.liga" unicode="fft" horiz-adv-x="2238" 
d="M2051 161h134v-161h-155q-178 0 -281 104t-103 283v565h-503v-952h-174v952h-541v-952h-174v952h-218v146h218v90q0 179 86 266t269 87h156v-141h-125q-118 0 -168 -49.5t-50 -166.5v-86h547v90q0 179 86 266t269 87h135v-141h-104q-118 0 -168 -49.5t-50 -166.5v-86h509
v326h174v-326h360v-146h-360v-556q0 -112 60 -173.5t171 -61.5z" />
    <glyph glyph-name="f_t.liga" unicode="ft" horiz-adv-x="1564" 
d="M1377 161h134v-161h-154q-179 0 -281.5 103t-102.5 281v568h-545v-952h-174v952h-218v146h218v90q0 179 86 266t269 87h156v-141h-125q-118 0 -168 -49.5t-50 -166.5v-86h551v326h174v-326h360v-146h-360v-558q0 -112 59.5 -172.5t170.5 -60.5z" />
    <glyph glyph-name="f_t_t.liga" unicode="ftt" horiz-adv-x="2318" 
d="M2127 161h134v-161h-156q-177 0 -280 103t-103 281v568h-589v-558q0 -112 59.5 -172.5t171.5 -60.5h133v-161h-154q-179 0 -281.5 103t-102.5 281v568h-531v-952h-174v952h-218v146h218v109q0 179 85.5 265.5t269.5 86.5h156v-140h-125q-118 0 -168 -49.5t-50 -166.5
v-105h537v326h174v-326h589v326h174v-326h363v-146h-363v-558q0 -112 59.5 -172.5t171.5 -60.5z" />
    <glyph glyph-name="r_f.liga" unicode="rf" horiz-adv-x="1615" 
d="M1590 1106v-150h-339v-956h-174v956h-218v150h218v82q0 179 85.5 266t268.5 87h157v-141h-125q-118 0 -168 -49.5t-50 -166.5v-78h345zM328 933q120 173 353 173h98v-161h-113q-150 -3 -233 -95t-83 -251v-599h-175v1106h124z" />
    <glyph glyph-name="t_f.liga" unicode="tf" horiz-adv-x="1499" 
d="M1473 1098v-146h-338v-952h-175v952h-568v-560q0 -112 60 -171.5t172 -59.5h123v-161h-145q-179 0 -281.5 103.5t-102.5 283.5v565h-193v24l343 365h24v-243h568v111q0 179 85.5 265.5t269.5 86.5h157v-140h-125q-118 0 -168 -49.5t-50 -166.5v-107h344z" />
    <glyph glyph-name=".notdef" horiz-adv-x="948" 
d="M777 1501v-1896h-601v1896h601zM631 1374h-313v-63h124v-70h-125v-63h314v63h-125v70h125v63zM506 1129h-189v-197h314v64h-125v133zM442 1065v-69h-63v69h63zM631 881h-314v-63h125v-70h-125v-62h189v132h125v63zM631 767h-62v-125h-252v-64h314v189zM631 536h-189v-106
h64v43h63v-89h-190v152h-62v-214h314v214zM631 208h-314v-214h314v214zM569 145v-89h-190v89h190zM631 -50h-314v-62h132l-132 -89v-63h314v63h-193l133 89h60v62z" />
    <glyph glyph-name=".null" 
 />
    <glyph glyph-name="nonmarkingreturn" horiz-adv-x="682" 
 />
    <glyph glyph-name="space" unicode=" " horiz-adv-x="536" 
 />
    <glyph glyph-name="exclam" unicode="!" horiz-adv-x="567" 
d="M196 393v1082h176v-1082h-176zM185 0v218h200v-218h-200z" />
    <glyph glyph-name="quotedbl" unicode="&#x22;" horiz-adv-x="765" 
d="M143 937v501h163v-501h-163zM459 937v501h163v-501h-163z" />
    <glyph glyph-name="numbersign" unicode="#" horiz-adv-x="1314" 
d="M1227 889h-188l-47 -322h188v-151h-213l-62 -414h-161l60 414h-383l-66 -414h-161l65 414h-170v151h195l51 322h-199v147h223l62 398h161l-60 -398h376l61 398h161l-60 -398h167v-147zM829 567l47 322h-378l-51 -322h382z" />
    <glyph glyph-name="dollar" unicode="$" horiz-adv-x="1155" 
d="M1075 393q0 -169 -111.5 -278t-300.5 -129v-167h-146v166q-207 18 -322 137t-115 311h176q0 -131 92.5 -206t238.5 -75q132 0 222 66.5t90 172.5q0 29 -6.5 54t-22 44.5t-31 35t-43.5 29t-49 22t-59 19t-61 16t-66 14.5q-85 19 -132 31.5t-118.5 43t-109 67t-66.5 100
t-29 145.5q0 162 106 263t289 118v156h152v-157q181 -20 282 -131.5t101 -288.5h-172q0 120 -82 189t-211 69q-127 0 -209 -57t-82 -154q0 -24 6.5 -45.5t14.5 -38t26.5 -32t32 -26t42 -22t45 -18t52.5 -16t53 -13.5t58 -14q47 -11 74 -17.5t72 -19t72.5 -24t65 -30
t60.5 -38.5t48.5 -48.5t39.5 -60.5t23.5 -73.5t9.5 -89.5z" />
    <glyph glyph-name="percent" unicode="%" horiz-adv-x="1568" 
d="M374 768q-136 0 -223 86t-87 221q0 134 87 219.5t223 85.5t222 -85.5t86 -219.5q0 -135 -86.5 -221t-221.5 -86zM274 1l821 1363h174l-822 -1363h-173zM374 901q75 0 123.5 49t48.5 125q0 75 -48.5 123.5t-123.5 48.5t-123.5 -48.5t-48.5 -123.5q0 -76 48.5 -125
t123.5 -49zM1198 -16q-135 0 -221.5 85t-86.5 218t86.5 218t221.5 85t221.5 -85t86.5 -218t-86.5 -218t-221.5 -85zM1198 117q74 0 122 48t48 122t-48 122t-122 48t-122.5 -48t-48.5 -122t48.5 -122t122.5 -48z" />
    <glyph glyph-name="ampersand" unicode="&#x26;" horiz-adv-x="1275" 
d="M1268 0h-197q-63 68 -120 129q-171 -151 -426 -151q-196 0 -315 104.5t-119 276.5q0 75 22.5 139t66 115t90 89t110.5 78q-91 121 -126 203.5t-35 165.5q0 142 99 224.5t263 82.5q159 0 258 -82.5t99 -215.5q0 -60 -20 -114t-48 -92.5t-77 -79.5t-88.5 -67t-100.5 -62
q131 -161 335 -386q75 124 75 281h148q0 -230 -115 -400q18 -19 221 -238zM581 1319q-92 0 -149.5 -47t-57.5 -123q0 -99 140 -290q51 30 83.5 50.5t71.5 51t61.5 58t37.5 64t15 75.5q0 71 -56.5 116t-145.5 45zM540 135q175 0 304 110q-255 279 -372 419
q-104 -67 -160 -136t-56 -163q0 -103 78 -166.5t206 -63.5z" />
    <glyph glyph-name="quotesingle" unicode="'" horiz-adv-x="448" 
d="M143 937v501h163v-501h-163z" />
    <glyph glyph-name="parenleft" unicode="(" horiz-adv-x="616" 
d="M392 -273q-138 198 -214 440t-76 506q0 266 76 507.5t214 441.5h194q-137 -185 -224.5 -432.5t-87.5 -516.5t87 -517t225 -429h-194z" />
    <glyph glyph-name="parenright" unicode=")" horiz-adv-x="616" 
d="M225 -273h-193q138 180 224.5 428t86.5 518q0 269 -87 516.5t-224 432.5h193q138 -200 214 -441.5t76 -507.5q0 -264 -76 -506t-214 -440z" />
    <glyph glyph-name="asterisk" unicode="*" horiz-adv-x="815" 
d="M731 1172l-217 -72l143 -182l-102 -86l-148 193l-147 -193l-105 86l145 182l-214 72l44 126l210 -73v223h135v-223l210 73z" />
    <glyph glyph-name="plus" unicode="+" horiz-adv-x="1075" 
d="M1008 784v-161h-384v-402h-170v402h-386v161h386v391h170v-391h384z" />
    <glyph glyph-name="comma" unicode="," horiz-adv-x="493" 
d="M151 -272v97q107 37 107 175h-117v215h211v-200q0 -230 -201 -287z" />
    <glyph glyph-name="hyphen" unicode="-" horiz-adv-x="931" 
d="M141 488v168h650v-168h-650z" />
    <glyph glyph-name="period" unicode="." horiz-adv-x="479" 
d="M139 0v218h200v-218h-200z" />
    <glyph glyph-name="slash" unicode="/" horiz-adv-x="888" 
d="M53 -140l599 1699h181l-597 -1699h-183z" />
    <glyph glyph-name="zero" unicode="0" horiz-adv-x="1273" 
d="M638 -24q-243 0 -385.5 190.5t-142.5 515.5q0 326 142 515t386 189q243 0 384 -189t141 -515q0 -325 -141.5 -515.5t-383.5 -190.5zM638 137q165 0 260 145t95 400q0 254 -95 398.5t-260 144.5q-167 0 -262 -144t-95 -399q0 -256 95 -400.5t262 -144.5z" />
    <glyph glyph-name="one" unicode="1" horiz-adv-x="677" 
d="M53 1362h428v-1362h-167v1207h-261v155z" />
    <glyph glyph-name="two" unicode="2" horiz-adv-x="1075" 
d="M407 161h583v-161h-916v55q240 252 371.5 398.5t206.5 251.5t95 162t20 126q0 104 -66.5 168t-174.5 64q-113 0 -182.5 -65t-69.5 -169v-33h-168v33q0 178 116 286.5t304 108.5q182 0 296.5 -110t114.5 -283q0 -76 -18 -139.5t-75 -158t-160 -219.5t-277 -315z" />
    <glyph glyph-name="three" unicode="3" horiz-adv-x="1093" 
d="M617 847q169 -22 273 -140.5t104 -286.5q0 -193 -131 -318.5t-327 -125.5q-189 0 -313.5 118t-134.5 304h167q8 -118 85.5 -189.5t195.5 -71.5q125 0 206 81.5t81 207.5q0 125 -87 206t-221 81h-152v33l315 461h-546v155h809v-39z" />
    <glyph glyph-name="four" unicode="4" horiz-adv-x="1103" 
d="M1047 437v-149h-143v-288h-165v288h-697v39l479 1036h176l-427 -926h471l28 421h135v-421h143z" />
    <glyph glyph-name="five" unicode="5" horiz-adv-x="1075" 
d="M522 861q203 0 335.5 -126.5t132.5 -314.5q0 -192 -130 -318t-323 -126q-191 0 -318 119t-134 303h167q7 -116 86.5 -188.5t198.5 -72.5q122 0 202.5 80t80.5 203q0 124 -87 206.5t-217 82.5h-346l-24 27l69 626h682v-155h-542l-38 -346h205z" />
    <glyph glyph-name="six" unicode="6" horiz-adv-x="1136" 
d="M610 886q122 0 227.5 -54.5t171 -158t65.5 -234.5q0 -202 -137.5 -332.5t-349.5 -130.5q-214 0 -351.5 130t-137.5 333q0 189 149 453l273 483h186q-242 -430 -295 -534q96 45 199 45zM586 137q138 0 227.5 85.5t89.5 216.5q0 133 -89.5 218t-227.5 85t-228 -86t-90 -217
q0 -130 90 -216t228 -86z" />
    <glyph glyph-name="seven" unicode="7" horiz-adv-x="1019" 
d="M53 1362h921v-30l-536 -1332h-180l489 1207h-694v155z" />
    <glyph glyph-name="eight" unicode="8" horiz-adv-x="1177" 
d="M881 730q88 -48 139.5 -138t51.5 -198q0 -183 -135.5 -300.5t-348.5 -117.5q-217 0 -349.5 115t-132.5 303q0 105 52 195.5t141 140.5q-66 47 -105 125.5t-39 166.5q0 161 120 262.5t313 101.5t312.5 -100.5t119.5 -263.5q0 -90 -38 -169t-101 -123zM588 1242
q-119 0 -193 -61.5t-74 -158.5q0 -100 74 -162t193 -62q117 0 191 62t74 162q0 97 -74 158.5t-191 61.5zM588 126q140 0 227 73t87 189q0 119 -87 192.5t-227 73.5q-138 0 -225 -73.5t-87 -192.5q0 -116 86.5 -189t225.5 -73z" />
    <glyph glyph-name="nine" unicode="9" horiz-adv-x="1130" 
d="M547 1386q213 0 349.5 -130t136.5 -333t-146 -453l-273 -472h-185q255 446 293 521q-94 -43 -198 -43q-195 0 -328 129.5t-133 317.5q0 202 136.5 332.5t347.5 130.5zM549 622q136 0 224.5 85t88.5 216q0 130 -88.5 216t-224.5 86q-137 0 -226.5 -85.5t-89.5 -216.5
t89.5 -216t226.5 -85z" />
    <glyph glyph-name="colon" unicode=":" horiz-adv-x="485" 
d="M143 775v218h200v-218h-200zM143 0v218h200v-218h-200z" />
    <glyph glyph-name="semicolon" unicode=";" horiz-adv-x="503" 
d="M152 777v218h199v-218h-199zM156 -272v97q107 37 107 175h-117v215h211v-200q0 -230 -201 -287z" />
    <glyph glyph-name="less" unicode="&#x3c;" horiz-adv-x="1087" 
d="M936 1274v-195l-604 -382l604 -378v-195l-880 553v32z" />
    <glyph glyph-name="equal" unicode="=" horiz-adv-x="1275" 
d="M147 842v161h983v-161h-983zM147 392v161h983v-161h-983z" />
    <glyph glyph-name="greater" unicode="&#x3e;" horiz-adv-x="1087" 
d="M150 1274l881 -565v-32l-881 -553v195l605 378l-605 382v195z" />
    <glyph glyph-name="question" unicode="?" horiz-adv-x="1054" 
d="M405 393v46q0 48 7.5 89t25 76t32 59t45 54t45 42.5t50.5 42.5q44 34 68.5 56.5t53.5 58.5t42.5 79t13.5 95q0 119 -77.5 190.5t-199.5 71.5q-117 0 -198.5 -67.5t-88.5 -180.5h-164q5 127 69.5 222t164 142t217.5 47q125 0 225.5 -50t161 -148t60.5 -227
q0 -60 -13 -112.5t-30.5 -88t-50 -72.5t-55 -57.5t-61.5 -51.5q-37 -31 -52.5 -44.5t-43.5 -43.5t-40 -53t-22.5 -57.5t-10.5 -72.5v-45h-174zM392 0v218h200v-218h-200z" />
    <glyph glyph-name="at" unicode="@" horiz-adv-x="2072" 
d="M1031 1394q275 0 489.5 -110.5t333 -310t118.5 -455.5q0 -202 -98 -329.5t-252 -127.5q-89 0 -158 45t-100 121q-60 -89 -155.5 -139.5t-210.5 -50.5q-198 0 -328.5 133t-130.5 333t130.5 332.5t328.5 132.5q107 0 197 -43.5t151 -122.5l25 120h92v-540
q0 -83 45.5 -135.5t118.5 -52.5q92 0 149 90t57 234q0 217 -100.5 386t-282 262.5t-415.5 93.5t-417 -95.5t-284.5 -268t-101.5 -392.5q0 -331 212 -536.5t554 -205.5q212 0 367 90v-138q-178 -88 -384 -88q-259 0 -461.5 111t-315 311t-112.5 456q0 196 69 361.5t191.5 282
t297.5 181.5t381 65zM1009 185q137 0 226 90t89 229t-89 228.5t-226 89.5q-135 0 -225 -91t-90 -227q0 -137 89.5 -228t225.5 -91z" />
    <glyph glyph-name="A" unicode="A" horiz-adv-x="1427" 
d="M1197 0l-142 343h-689l-140 -343h-191l586 1434h168l603 -1434h-195zM708 1186l-275 -678h555z" />
    <glyph glyph-name="B" unicode="B" horiz-adv-x="1320" 
d="M990 744q99 -43 156.5 -137t57.5 -212q0 -167 -125 -281t-309 -114h-574v1434h566q175 0 289.5 -105t114.5 -262q0 -98 -48 -187t-128 -136zM983 1043q0 91 -65 153t-160 62h-384v-430h385q95 0 159.5 62.5t64.5 152.5zM768 178q108 0 179 67.5t71 169.5q0 101 -71.5 169
t-178.5 68h-394v-474h394z" />
    <glyph glyph-name="C" unicode="C" horiz-adv-x="1589" 
d="M833 -22q-210 0 -378 94.5t-262.5 263.5t-94.5 381t94.5 381t262.5 263.5t378 94.5q249 0 433 -137.5t246 -369.5h-183q-57 155 -188.5 243t-307.5 88q-241 0 -396 -158t-155 -405t155 -405t396 -158q181 0 314 93.5t189 258.5h183q-61 -243 -246.5 -385.5t-439.5 -142.5
z" />
    <glyph glyph-name="D" unicode="D" horiz-adv-x="1501" 
d="M674 1434q208 0 374.5 -92t259.5 -256t93 -369t-93 -369t-259.5 -256t-374.5 -92h-478v1434h478zM668 168q240 0 394.5 155.5t154.5 393.5q0 157 -69.5 282t-195 195.5t-284.5 70.5h-293v-1097h293z" />
    <glyph glyph-name="E" unicode="E" horiz-adv-x="1132" 
d="M375 172h655v-172h-834v1434h812v-171h-633v-443h579v-166h-579v-482z" />
    <glyph glyph-name="F" unicode="F" horiz-adv-x="1071" 
d="M1001 1263h-626v-473h573v-167h-573v-623h-179v1434h805v-171z" />
    <glyph glyph-name="G" unicode="G" horiz-adv-x="1634" 
d="M774 712h769q-3 -160 -58 -296.5t-148.5 -233.5t-225.5 -151.5t-285 -54.5q-208 0 -374.5 95.5t-260 265t-93.5 380.5q0 210 93.5 379t259 264.5t371.5 95.5q259 0 455 -146.5t243 -375.5h-185q-46 155 -186.5 250.5t-322.5 95.5q-238 0 -391 -158t-153 -405
q0 -250 151 -407.5t393 -157.5q197 0 339.5 106.5t181.5 282.5h-573v171z" />
    <glyph glyph-name="H" unicode="H" horiz-adv-x="1492" 
d="M1117 1434h180v-1434h-180v651h-742v-651h-179v1434h179v-610h742v610z" />
    <glyph glyph-name="I" unicode="I" horiz-adv-x="571" 
d="M196 0v1434h179v-1434h-179z" />
    <glyph glyph-name="J" unicode="J" horiz-adv-x="1222" 
d="M553 -24q-214 0 -355 141.5t-141 357.5v29h177v-21q0 -144 90.5 -237.5t228.5 -93.5q134 0 223 94t89 237v951h178v-959q0 -217 -138.5 -358t-351.5 -141z" />
    <glyph glyph-name="K" unicode="K" horiz-adv-x="1300" 
d="M1071 0l-505 657h-191v-657h-179v1434h179v-609h190l460 609h229l-525 -690l572 -744h-230z" />
    <glyph glyph-name="L" unicode="L" horiz-adv-x="1048" 
d="M375 168h630v-168h-809v1434h179v-1266z" />
    <glyph glyph-name="M" unicode="M" horiz-adv-x="1959" 
d="M1868 0h-183l-187 1120l-494 -1083h-48l-495 1082l-188 -1119h-183l241 1434h174l473 -1052l476 1052h177z" />
    <glyph glyph-name="N" unicode="N" horiz-adv-x="1533" 
d="M1163 1434h176v-1434h-151l-816 1119v-1119h-176v1434h162l805 -1106v1106z" />
    <glyph glyph-name="O" unicode="O" horiz-adv-x="1697" 
d="M848 -24q-214 0 -385.5 96.5t-268 266t-96.5 378.5t96.5 378.5t268 266t385.5 96.5t386 -96.5t268.5 -266t96.5 -378.5t-96.5 -378.5t-268.5 -266t-386 -96.5zM848 152q161 0 291 73.5t203 203t73 288.5t-73 288.5t-203 203t-291 73.5q-160 0 -290 -74t-203 -203
t-73 -288t73 -288t203 -203t290 -74z" />
    <glyph glyph-name="P" unicode="P" horiz-adv-x="1249" 
d="M710 1434q203 0 339.5 -131.5t136.5 -328.5t-136 -328t-340 -131h-335v-515h-179v1434h514zM700 689q132 0 217 81t85 204t-85 204.5t-217 81.5h-325v-571h325z" />
    <glyph glyph-name="Q" unicode="Q" horiz-adv-x="1697" 
d="M1624 -171h-219l-198 230q-164 -83 -359 -83q-214 0 -385.5 96.5t-268 266t-96.5 378.5t96.5 378.5t268 266t385.5 96.5t386 -96.5t268.5 -266t96.5 -378.5q0 -172 -66 -318t-186 -248zM848 152q130 0 238 47l-335 391h219l259 -301q88 78 137 188.5t49 239.5
q0 159 -73 288.5t-203 203t-291 73.5q-160 0 -290 -74t-203 -203t-73 -288t73 -288t203 -203t290 -74z" />
    <glyph glyph-name="R" unicode="R" horiz-adv-x="1318" 
d="M1031 0l-329 561h-327v-561h-179v1434h543q202 0 334.5 -124t132.5 -315q0 -150 -86 -260.5t-230 -152.5l343 -582h-202zM375 1263v-532h355q131 0 212 74.5t81 191.5q0 116 -81.5 191t-211.5 75h-355z" />
    <glyph glyph-name="S" unicode="S" horiz-adv-x="1222" 
d="M623 -18q-238 0 -383.5 125t-145.5 335h183q0 -131 96 -207.5t248 -76.5q138 0 230 67.5t92 179.5q0 27 -7 51.5t-16 43t-28.5 35.5t-35 29t-45.5 24.5t-48.5 20t-56.5 17.5l-57 15t-62 15q-183 44 -262 81q-173 83 -199 249q-5 32 -5 67q0 185 132 292t356 107
q222 0 350.5 -114.5t128.5 -310.5h-178q0 117 -85.5 185t-219.5 68q-133 0 -218.5 -59.5t-85.5 -159.5q0 -33 10.5 -60.5t25.5 -48t44 -39t53 -30t66.5 -24.5t70.5 -20t78 -19q183 -45 262 -82q178 -82 210 -247q8 -39 8 -84q0 -132 -67.5 -229.5t-181 -146.5t-257.5 -49z
" />
    <glyph glyph-name="T" unicode="T" horiz-adv-x="1138" 
d="M1095 1434v-169h-436v-1265h-180v1265h-436v169h1052z" />
    <glyph glyph-name="U" unicode="U" horiz-adv-x="1482" 
d="M743 -24q-244 0 -404 157t-160 401v900h182v-887q0 -176 106.5 -285.5t275.5 -109.5q167 0 273.5 109.5t106.5 285.5v887h182v-900q0 -161 -73 -289t-201.5 -198.5t-287.5 -70.5z" />
    <glyph glyph-name="V" unicode="V" horiz-adv-x="1396" 
d="M1156 1434h197l-570 -1434h-166l-580 1434h199l464 -1164z" />
    <glyph glyph-name="W" unicode="W" horiz-adv-x="2103" 
d="M1865 1434h190l-452 -1434h-159l-394 1019l-385 -1019h-158l-462 1434h191l357 -1139l420 1111h72l432 -1112z" />
    <glyph glyph-name="X" unicode="X" horiz-adv-x="1228" 
d="M1214 0h-203l-396 606l-393 -606h-205l488 751l-450 683h203l358 -547l356 547h202l-447 -689z" />
    <glyph glyph-name="Y" unicode="Y" horiz-adv-x="1347" 
d="M1295 1434l-529 -862v-572h-185v572l-525 862h196l422 -693l424 693h197z" />
    <glyph glyph-name="Z" unicode="Z" horiz-adv-x="1153" 
d="M339 168h760v-168h-1046v31l740 1234h-708v169h992v-35z" />
    <glyph glyph-name="bracketleft" unicode="[" horiz-adv-x="686" 
d="M196 -283v1904h436v-148h-274v-1605h278v-151h-440z" />
    <glyph glyph-name="backslash" unicode="\" horiz-adv-x="888" 
d="M836 -140h-184l-597 1699h182z" />
    <glyph glyph-name="bracketright" unicode="]" horiz-adv-x="686" 
d="M490 -283h-441v151h278v1605h-274v148h437v-1904z" />
    <glyph glyph-name="asciicircum" unicode="^" horiz-adv-x="1091" 
d="M67 694l465 744h31l461 -744h-197l-281 455l-282 -455h-197z" />
    <glyph glyph-name="underscore" unicode="_" horiz-adv-x="1056" 
d="M0 -266v167h1057v-167h-1057z" />
    <glyph glyph-name="grave" unicode="`" horiz-adv-x="1228" 
d="M547 1236h-137l-187 311h186z" />
    <glyph glyph-name="a" unicode="a" horiz-adv-x="1431" 
d="M1118 1106h139v-1106h-144l-19 168q-78 -91 -189.5 -141.5t-244.5 -50.5q-161 0 -292 75t-205.5 207.5t-74.5 294.5q0 248 163.5 412.5t408.5 164.5q133 0 246 -51t191 -143zM673 144q175 0 290.5 116.5t115.5 292.5t-115.5 292.5t-290.5 116.5t-291 -117t-116 -292
t116 -292t291 -117z" />
    <glyph glyph-name="b" unicode="b" horiz-adv-x="1417" 
d="M759 1130q164 0 294.5 -75t203 -206.5t72.5 -295.5q0 -248 -161 -412.5t-409 -164.5q-128 0 -237 47.5t-188 133.5l-24 -157h-135v1501h175v-535q78 78 183 121t226 43zM746 144q175 0 290.5 116.5t115.5 292.5t-115.5 292.5t-290.5 116.5t-291.5 -117t-116.5 -292
q0 -174 116.5 -291.5t291.5 -117.5z" />
    <glyph glyph-name="c" unicode="c" horiz-adv-x="1269" 
d="M663 -24q-161 0 -293 75t-207 207.5t-75 294.5q0 163 75 295t207 207t293 75q197 0 341.5 -108t195.5 -289h-172q-49 107 -146 168t-219 61q-170 0 -283.5 -117.5t-113.5 -291.5q0 -173 114 -291t283 -118q122 0 217 62t146 173h176q-51 -183 -197.5 -293t-341.5 -110z
" />
    <glyph glyph-name="d" unicode="d" horiz-adv-x="1417" 
d="M1068 1501h174v-1501h-135l-23 157q-78 -86 -188 -133.5t-238 -47.5q-248 0 -409 164.5t-161 412.5q0 164 72.5 295.5t203 206.5t294.5 75q122 0 227 -43t183 -121v535zM672 144q175 0 291 117.5t116 291.5q0 175 -116 292t-291 117t-290.5 -116.5t-115.5 -292.5
t115.5 -292.5t290.5 -116.5z" />
    <glyph glyph-name="e" unicode="e" horiz-adv-x="1294" 
d="M1209 548q0 -30 -3 -62h-943q20 -154 126.5 -247t262.5 -93q114 0 203 50.5t141 140.5h184q-71 -171 -209.5 -266t-318.5 -95q-158 0 -287.5 75t-203 207t-73.5 295q0 162 73.5 294.5t203 207.5t287.5 75q164 0 292 -78t196.5 -210.5t68.5 -293.5zM652 965
q-150 0 -254 -86.5t-131 -231.5h768q-28 147 -131.5 232.5t-251.5 85.5z" />
    <glyph glyph-name="f" unicode="f" horiz-adv-x="792" 
d="M767 1098v-146h-339v-952h-174v952h-218v146h218v90q0 179 86 266t269 87h156v-141h-125q-118 0 -168 -49.5t-50 -166.5v-86h345z" />
    <glyph glyph-name="g" unicode="g" horiz-adv-x="1380" 
d="M1089 1106h116v-951q0 -268 -145 -421t-397 -153q-203 0 -341 99.5t-183 276.5h174q36 -102 131.5 -159.5t218.5 -57.5q168 0 270 105t102 287v68q-75 -78 -179 -121.5t-224 -43.5q-151 0 -276 72t-196.5 197.5t-71.5 277.5t71.5 278t196.5 198t276 72q131 0 242.5 -52
t187.5 -144zM651 202q166 0 274 107.5t108 272.5t-108 273t-274 108t-275.5 -108.5t-109.5 -272.5q0 -163 109.5 -271.5t275.5 -108.5z" />
    <glyph glyph-name="h" unicode="h" horiz-adv-x="1314" 
d="M729 1130q197 0 312 -126.5t115 -341.5v-662h-174v621q0 168 -77 259t-221 91q-142 0 -238 -106t-96 -262v-603h-175v1501h175v-546q65 83 163 129t216 46z" />
    <glyph glyph-name="i" unicode="i" horiz-adv-x="524" 
d="M168 1297v200h189v-200h-189zM175 0v1106h175v-1106h-175z" />
    <glyph glyph-name="j" unicode="j" horiz-adv-x="548" 
d="M195 1297v200h188v-200h-188zM-86 -395v159h66q106 0 163 58t57 164v1120h174v-1133q0 -166 -101 -267t-268 -101h-91z" />
    <glyph glyph-name="k" unicode="k" horiz-adv-x="1132" 
d="M905 0l-379 496h-158v-496h-174v1501h174v-844h161l341 449h212l-403 -530l444 -576h-218z" />
    <glyph glyph-name="l" unicode="l" horiz-adv-x="524" 
d="M175 0v1501h175v-1501h-175z" />
    <glyph glyph-name="m" unicode="m" horiz-adv-x="1945" 
d="M1398 1130q174 0 281 -118t107 -305v-707h-173l-1 653q0 150 -66 234t-184 84q-122 0 -208.5 -103.5t-86.5 -254.5v-613h-170v653q0 150 -66 234t-186 84q-122 0 -208.5 -103.5t-86.5 -254.5v-613h-175v1106h126l28 -152q64 83 157.5 129.5t197.5 46.5q116 0 204 -56
t135 -154q62 98 161.5 154t213.5 56z" />
    <glyph glyph-name="n" unicode="n" horiz-adv-x="1314" 
d="M729 1130q194 0 310.5 -131t116.5 -337v-662h-174v621q0 168 -77 259t-221 91q-142 0 -238 -106t-96 -262v-603h-175v1106h124l34 -173q63 93 166 145t230 52z" />
    <glyph glyph-name="o" unicode="o" horiz-adv-x="1349" 
d="M674 -24q-251 0 -418.5 164.5t-167.5 412.5q0 164 76 296t210.5 206.5t299.5 74.5t299.5 -74.5t211 -207t76.5 -295.5t-76.5 -295.5t-211 -207t-299.5 -74.5zM674 144q178 0 293.5 115.5t115.5 293.5t-115.5 293.5t-293.5 115.5t-293 -115.5t-115 -293.5t115 -293.5
t293 -115.5z" />
    <glyph glyph-name="p" unicode="p" horiz-adv-x="1419" 
d="M763 1130q163 0 293 -75t202.5 -206.5t72.5 -295.5q0 -248 -161 -412.5t-407 -164.5q-122 0 -228.5 45t-184.5 127v-543h-175v1501h120l35 -169q78 91 190 142t243 51zM750 144q175 0 290 116.5t115 292.5t-115 292.5t-290 116.5t-291.5 -117t-116.5 -292t116.5 -292
t291.5 -117z" />
    <glyph glyph-name="q" unicode="q" horiz-adv-x="1419" 
d="M1124 1106h120v-1501h-174v543q-78 -82 -184 -127t-229 -45q-121 0 -227 44t-181 120.5t-118 183.5t-43 229q0 249 161.5 413t407.5 164q131 0 242.5 -51t189.5 -142zM670 144q175 0 291 117t116 292t-116 292t-291 117t-290.5 -116.5t-115.5 -292.5t115.5 -292.5
t290.5 -116.5z" />
    <glyph glyph-name="r" unicode="r" horiz-adv-x="790" 
d="M681 1112h98v-165h-113q-150 0 -233 -92t-83 -254v-601h-175v1106h124l28 -168q120 174 354 174z" />
    <glyph glyph-name="s" unicode="s" horiz-adv-x="1050" 
d="M525 -24q-196 0 -315 98t-126 265h170q7 -96 82.5 -149t194.5 -53q115 0 187.5 46t72.5 126q0 31 -10 56t-32 42.5t-44 30t-60.5 22.5t-66 15.5t-74.5 13.5q-37 6 -57.5 10t-56 12t-56.5 15t-52 18t-49.5 24t-41.5 30.5t-36.5 38.5t-26.5 46.5t-18.5 57.5t-5.5 69
q0 143 115 231.5t302 88.5t299.5 -92.5t117.5 -249.5h-165q-5 90 -72 138.5t-184 48.5q-112 0 -178 -43.5t-66 -115.5q0 -28 9 -50.5t30 -38.5t42 -27t58 -20t63 -14t73 -12q164 -27 235 -57q164 -69 178 -242q2 -19 2 -38q0 -155 -120 -248t-318 -93z" />
    <glyph glyph-name="t" unicode="t" horiz-adv-x="811" 
d="M634 161h120v-161h-143q-179 0 -281.5 103.5t-102.5 283.5v562h-195v31l342 360h27v-234h347v-157h-347v-557q0 -112 60 -171.5t173 -59.5z" />
    <glyph glyph-name="u" unicode="u" horiz-adv-x="1294" 
d="M647 -24q-223 0 -356.5 134t-133.5 357v639h174v-611q0 -163 85 -257t231 -94q147 0 231.5 94.5t84.5 256.5v611h174v-639q0 -223 -133 -357t-357 -134z" />
    <glyph glyph-name="v" unicode="v" horiz-adv-x="1171" 
d="M956 1106h178l-466 -1106h-158l-479 1106h182l375 -880z" />
    <glyph glyph-name="w" unicode="w" horiz-adv-x="1738" 
d="M1524 1106h176l-377 -1106h-142l-312 754l-313 -754h-141l-374 1106h182l275 -815l339 798h63l341 -805z" />
    <glyph glyph-name="x" unicode="x" horiz-adv-x="1050" 
d="M1038 0h-195l-318 461l-318 -461h-191l405 575l-372 531h196l282 -409l287 409h192l-376 -523z" />
    <glyph glyph-name="y" unicode="y" horiz-adv-x="1200" 
d="M984 1106h185l-527 -1152q-90 -197 -183.5 -273t-249.5 -76h-104v158h89q110 0 166 45t123 185l40 82l-492 1031h190l393 -837z" />
    <glyph glyph-name="z" unicode="z" horiz-adv-x="985" 
d="M332 163h586v-163h-867v26l587 919h-548v161h825v-29z" />
    <glyph glyph-name="braceleft" unicode="{" horiz-adv-x="710" 
d="M539 -122l120 1v-154h-180q-109 0 -186 76.5t-77 186.5v490q0 48 -34 81.5t-82 33.5h-31v146h31q49 0 82.5 33.5t33.5 82.5v489q0 109 77 185t186 76h177v-153h-117q-65 0 -108 -43t-43 -108v-437q0 -67 -34 -121t-86 -77q51 -23 85.5 -76.5t34.5 -120.5v-440
q0 -63 43.5 -107t107.5 -44z" />
    <glyph glyph-name="bar" unicode="|" horiz-adv-x="555" 
d="M196 -389v2109h163v-2109h-163z" />
    <glyph glyph-name="braceright" unicode="}" horiz-adv-x="710" 
d="M611 739h31v-146h-31q-49 0 -82.5 -33.5t-33.5 -81.5v-490q0 -110 -77 -186.5t-186 -76.5h-180v153h120q64 0 107.5 44t43.5 107v440q0 67 34.5 120.5t85.5 76.5q-52 23 -86 77t-34 121v437q0 65 -43.5 108t-107.5 43h-117v153h177q109 0 186 -76t77 -185v-489
q0 -49 33.5 -82.5t82.5 -33.5z" />
    <glyph glyph-name="asciitilde" unicode="~" horiz-adv-x="1183" 
d="M798 484q-68 0 -126 28t-132 96q-49 48 -77 65t-59 17q-59 0 -96 -47.5t-37 -123.5v-29h-126v35q0 145 70 231t187 86q72 0 129.5 -28.5t124.5 -97.5q48 -48 77 -65t62 -17q59 0 94.5 45t35.5 121v31h126v-33q0 -145 -68 -229.5t-185 -84.5z" />
    <glyph glyph-name="uni00A0" unicode="&#xa0;" horiz-adv-x="536" 
 />
    <glyph glyph-name="exclamdown" unicode="&#xa1;" horiz-adv-x="524" 
d="M361 1106v-218h-199v218h199zM350 712v-1081h-176v1081h176z" />
    <glyph glyph-name="cent" unicode="&#xa2;" horiz-adv-x="1222" 
d="M1153 360q-44 -156 -162 -257.5t-279 -120.5v-163h-141v163q-207 24 -342 177.5t-135 368.5q0 218 134.5 370t342.5 175v174h141v-174q162 -19 279.5 -119.5t160.5 -255.5h-167q-46 102 -137.5 159t-207.5 57q-162 0 -270 -110t-108 -276q0 -164 109 -275.5t269 -111.5
q117 0 208.5 59t138.5 164z" />
    <glyph glyph-name="sterling" unicode="&#xa3;" horiz-adv-x="1220" 
d="M971 330h155v-330h-1031v122l143 23v436h-122v146h122v260q0 182 120.5 298t305.5 116q181 0 295.5 -113.5t114.5 -291.5v-19h-155v10q0 109 -73 181t-182 72q-112 0 -184.5 -74.5t-72.5 -188.5v-250h371v-146h-371v-433h564v182z" />
    <glyph glyph-name="currency" unicode="&#xa4;" horiz-adv-x="1226" 
d="M1127 197l-101 -101l-165 167q-111 -79 -250 -79q-138 0 -249 79l-160 -165l-101 101l161 164q-80 112 -80 248q0 144 85 258l-162 163l101 101l165 -165q108 73 240 73q133 0 242 -74l166 165l100 -100l-163 -164q85 -114 85 -257q0 -136 -79 -247zM326 613
q0 -117 85 -201t202 -84q116 0 198.5 84t82.5 201t-82 200.5t-199 83.5t-202 -83.5t-85 -200.5z" />
    <glyph glyph-name="yen" unicode="&#xa5;" horiz-adv-x="1304" 
d="M738 609v-48h392v-114h-392v-133h392v-113h-392v-201h-172v201h-393v113h393v133h-393v114h393v46l-501 755h180l405 -615l410 615h182z" />
    <glyph glyph-name="brokenbar" unicode="&#xa6;" horiz-adv-x="555" 
d="M196 819v901h163v-901h-163zM196 -389v921h163v-921h-163z" />
    <glyph glyph-name="section" unicode="&#xa7;" horiz-adv-x="1050" 
d="M786 369q112 -79 112 -215q0 -139 -100.5 -216t-262.5 -77q-177 0 -283 89.5t-106 237.5h146q0 -88 68.5 -139t176.5 -51q95 0 154 41.5t59 112.5q0 34 -15 61t-36.5 45t-61 35t-71 26.5t-84.5 23.5q-48 12 -76.5 20t-74.5 24t-74 32t-61.5 42t-52 56.5t-31.5 73
t-13 92.5q0 183 171 270q-108 74 -108 212q0 140 96 217.5t253 77.5q176 0 281.5 -90t105.5 -238h-146q0 88 -68 139.5t-175 51.5q-88 0 -144.5 -42.5t-56.5 -113.5q0 -35 15 -62.5t35 -45.5t59 -35t68 -26.5t81 -23.5q48 -12 77.5 -20t74.5 -24t73.5 -32t61.5 -42
t51.5 -56.5t31.5 -72.5t13 -92q0 -171 -163 -266zM249 695q0 -36 10 -65t33 -51t44.5 -37.5t61.5 -30.5t66.5 -23t74.5 -21q26 -7 103 -32q75 26 116 74.5t41 114.5q0 32 -9.5 59t-21.5 46.5t-38.5 38t-45 29t-57 24t-58.5 19.5t-65 19q-40 13 -87 29q-81 -26 -124.5 -76.5
t-43.5 -116.5z" />
    <glyph glyph-name="dieresis" unicode="&#xa8;" horiz-adv-x="1228" 
d="M203 1297v200h200v-200h-200zM607 1297v200h199v-200h-199z" />
    <glyph glyph-name="copyright" unicode="&#xa9;" horiz-adv-x="1718" 
d="M857 -22q-218 0 -391 93.5t-269.5 262t-96.5 381.5t96.5 381.5t269.5 262t391 93.5q219 0 393 -94t271.5 -262.5t97.5 -380.5t-97.5 -380.5t-271.5 -262.5t-393 -94zM857 88q139 0 259 46.5t205 128.5t133.5 199t48.5 253q0 182 -82.5 325t-230 222t-333.5 79t-332.5 -79
t-228.5 -222t-82 -325q0 -276 180.5 -451.5t462.5 -175.5zM860 342q-161 0 -269.5 108t-108.5 267q0 162 108 269t270 107q126 0 219.5 -70.5t126.5 -187.5h-116q-31 68 -92 106t-138 38q-112 0 -186 -75t-74 -187q0 -110 74 -184t186 -74q77 0 137 37.5t91 107.5h120
q-33 -119 -127.5 -190.5t-220.5 -71.5z" />
    <glyph glyph-name="ordfeminine" unicode="&#xaa;" horiz-adv-x="944" 
d="M696 1448h105v-683h-109l-16 99q-98 -108 -249 -108q-143 0 -241.5 102t-98.5 250q0 146 99 248t241 102q152 0 251 -110zM443 882q92 0 153.5 64.5t61.5 161.5t-61.5 161t-153.5 64q-93 0 -155 -65t-62 -160q0 -96 62.5 -161t154.5 -65z" />
    <glyph glyph-name="guillemotleft" unicode="&#xab;" horiz-adv-x="1224" 
d="M423 120l-344 413v28l344 413h206l-352 -427l352 -427h-206zM914 120l-344 413v28l344 413h206l-352 -427l352 -427h-206z" />
    <glyph glyph-name="logicalnot" unicode="&#xac;" horiz-adv-x="1202" 
d="M113 819h933v-565h-173v402h-760v163z" />
    <glyph glyph-name="registered" unicode="&#xae;" horiz-adv-x="970" 
d="M487 1454q163 0 276 -113t113 -276t-113 -277t-276 -114q-162 0 -276.5 114.5t-114.5 276.5q0 163 114 276t277 113zM487 749q132 0 224 92t92 224q0 130 -92.5 222t-223.5 92q-133 0 -225.5 -91.5t-92.5 -222.5q0 -132 93 -224t225 -92zM651 1138q0 -43 -21.5 -73
t-59.5 -43l91 -154h-79l-85 145h-70v-145h-75v403h166q58 0 95.5 -38t37.5 -95zM427 1202v-121h85q30 0 48 16t18 43t-18 44.5t-48 17.5h-85z" />
    <glyph glyph-name="macron" unicode="&#xaf;" horiz-adv-x="1038" 
d="M199 1328v139h641v-139h-641z" />
    <glyph glyph-name="degree" unicode="&#xb0;" horiz-adv-x="768" 
d="M383 1122q-127 0 -215 87.5t-88 212.5q0 123 88.5 210.5t214.5 87.5t216.5 -87.5t90.5 -210.5q0 -124 -90 -212t-217 -88zM385 1237q78 0 132.5 53.5t54.5 131.5q0 77 -54.5 130.5t-132.5 53.5q-79 0 -133 -53.5t-54 -130.5q0 -78 54 -131.5t133 -53.5z" />
    <glyph glyph-name="plusminus" unicode="&#xb1;" horiz-adv-x="1241" 
d="M536 408v377h-406v161h406v376h171v-376h404v-161h-404v-377h-171zM130 205h983v-161h-983v161z" />
    <glyph glyph-name="acute" unicode="&#xb4;" horiz-adv-x="917" 
d="M205 1236l138 311h185l-186 -311h-137z" />
    <glyph glyph-name="paragraph" unicode="&#xb6;" horiz-adv-x="1261" 
d="M1181 1434v-161h-189v-1399h-157v1399h-248v-1399h-157v734q-165 20 -265.5 130.5t-100.5 276.5q0 182 123 300.5t321 118.5h673z" />
    <glyph glyph-name="periodcentered" unicode="&#xb7;" horiz-adv-x="485" 
d="M143 559v218h200v-218h-200z" />
    <glyph glyph-name="cedilla" unicode="&#xb8;" horiz-adv-x="794" 
d="M392 -87q86 -10 139.5 -62.5t53.5 -129.5q0 -87 -62.5 -141t-165.5 -54h-151v101h131q53 0 86 27.5t33 71.5t-33 71t-87 27h-52l-19 19l56 215h111z" />
    <glyph glyph-name="ordmasculine" unicode="&#xba;" horiz-adv-x="892" 
d="M449 756q-154 0 -257.5 100t-103.5 250t103.5 250.5t257.5 100.5t256 -100t102 -251t-102 -250.5t-256 -99.5zM449 885q97 0 159.5 62t62.5 159t-62.5 159.5t-159.5 62.5t-160 -62.5t-63 -159.5t62.5 -159t160.5 -62z" />
    <glyph glyph-name="guillemotright" unicode="&#xbb;" horiz-adv-x="1224" 
d="M310 120h-207l353 427l-353 427h207l344 -413v-28zM801 120h-207l353 427l-353 427h207l344 -413v-28z" />
    <glyph glyph-name="onequarter" unicode="&#xbc;" horiz-adv-x="1378" 
d="M940 1495h141l-828 -1556h-140zM176 659v651h-128v124h269v-775h-141zM1325 277v-122h-74v-155h-133v155h-381v26l262 594h139l-222 -498h205l23 204h107v-204h74z" />
    <glyph glyph-name="onehalf" unicode="&#xbd;" horiz-adv-x="1419" 
d="M940 1495h141l-828 -1556h-140zM176 659v651h-128v124h269v-775h-141zM1078 133h272v-133h-534v33q173 194 247 285t100.5 140t26.5 95q0 50 -30 80.5t-78 30.5q-51 0 -82.5 -31t-31.5 -81v-17h-136v17q0 108 68 173t180 65q110 0 180 -66.5t70 -170.5q0 -76 -50 -160
t-202 -260z" />
    <glyph glyph-name="threequarters" unicode="&#xbe;" horiz-adv-x="1613" 
d="M1175 1495h140l-827 -1556h-141zM599 902q0 -112 -76.5 -185t-192.5 -73q-111 0 -184.5 70t-77.5 180h135q4 -54 38.5 -87.5t88.5 -33.5q59 0 95.5 37.5t36.5 97.5q0 58 -40 94t-103 36h-105v26l157 246h-283v124h482v-30l-172 -258q91 -17 146 -83.5t55 -160.5z
M1559 277v-122h-73v-155h-133v155h-381v26l262 594h139l-222 -498h205l23 204h107v-204h73z" />
    <glyph glyph-name="questiondown" unicode="&#xbf;" horiz-adv-x="1030" 
d="M644 1106v-218h-200v218h200zM631 712v-45q0 -41 -7 -78.5t-15.5 -65t-27.5 -57.5t-31.5 -47t-40 -43t-40 -36.5t-42.5 -35.5q-44 -35 -68 -56.5t-53.5 -58t-43 -79t-13.5 -95.5q0 -119 77.5 -190.5t199.5 -71.5q116 0 197.5 67.5t88.5 180.5h165q-5 -127 -69.5 -222
t-164 -142t-217.5 -47q-125 0 -225.5 50t-161 148t-60.5 227q0 60 13 112.5t30.5 88t50 72.5t55 57.5t61.5 51.5q37 31 52.5 44.5t43 43t39.5 52.5t22.5 57.5t10.5 72.5v45h174z" />
    <glyph glyph-name="Agrave" unicode="&#xc0;" horiz-adv-x="1427" 
d="M648 1594l-197 291h185l149 -291h-137zM1197 0l-142 343h-689l-140 -343h-191l586 1434h168l603 -1434h-195zM708 1186l-275 -678h555z" />
    <glyph glyph-name="Aacute" unicode="&#xc1;" horiz-adv-x="1427" 
d="M957 1885l-197 -291h-137l149 291h185zM1197 0l-142 343h-689l-140 -343h-191l586 1434h168l603 -1434h-195zM708 1186l-275 -678h555z" />
    <glyph glyph-name="Acircumflex" unicode="&#xc2;" horiz-adv-x="1427" 
d="M708 1787l-187 -193h-154l243 291h198l243 -291h-154zM1197 0l-142 343h-689l-140 -343h-191l586 1434h168l603 -1434h-195zM708 1186l-275 -678h555z" />
    <glyph glyph-name="Atilde" unicode="&#xc3;" horiz-adv-x="1427" 
d="M860 1597q-66 0 -111.5 26.5t-92.5 73.5q-33 32 -57 48t-51 16q-42 0 -68.5 -35.5t-26.5 -96.5v-23h-109v28q0 115 53.5 182.5t148.5 67.5q41 0 78 -15.5t55 -30t51 -45.5q35 -36 63.5 -54t64.5 -18q43 0 68 34.5t25 97.5v18h111v-22q0 -115 -54.5 -183.5t-147.5 -68.5z
M1197 0l-142 343h-689l-140 -343h-191l586 1434h168l603 -1434h-195zM708 1186l-275 -678h555z" />
    <glyph glyph-name="Adieresis" unicode="&#xc4;" horiz-adv-x="1427" 
d="M387 1614v200h200v-200h-200zM832 1614v200h199v-200h-199zM1197 0l-142 343h-689l-140 -343h-191l586 1434h168l603 -1434h-195zM708 1186l-275 -678h555z" />
    <glyph glyph-name="Aring" unicode="&#xc5;" horiz-adv-x="1427" 
d="M710 1559q-110 0 -180 66.5t-70 168.5q0 103 69.5 167.5t180.5 64.5q109 0 178.5 -64.5t69.5 -167.5q0 -102 -70 -168.5t-178 -66.5zM710 1664q58 0 95.5 36.5t37.5 93.5q0 58 -37 93.5t-96 35.5q-60 0 -97.5 -35.5t-37.5 -93.5q0 -57 37.5 -93.5t97.5 -36.5zM1197 0
l-142 343h-689l-140 -343h-191l586 1434h168l603 -1434h-195zM708 1186l-275 -678h555z" />
    <glyph glyph-name="AE" unicode="&#xc6;" horiz-adv-x="1835" 
d="M1078 172h655v-172h-835v318h-524l-190 -318h-214l861 1434h879v-171h-632v-444h579v-167h-579v-480zM472 483h426v715z" />
    <glyph glyph-name="Ccedilla" unicode="&#xc7;" horiz-adv-x="1589" 
d="M1519 506q-58 -232 -231.5 -373.5t-412.5 -153.5l-18 -67q84 -12 135.5 -63.5t51.5 -125.5q0 -86 -70 -141.5t-178 -55.5h-138v107h136q49 0 80.5 25.5t31.5 66.5q0 39 -32 65t-82 26h-54l-19 27l35 138q-290 27 -473 231t-183 505q0 212 94.5 381t262.5 263.5t378 94.5
q249 0 433 -137.5t246 -369.5h-183q-57 155 -188.5 243t-307.5 88q-241 0 -396 -158t-155 -405t155 -405t396 -158q181 0 314 93.5t189 258.5h183z" />
    <glyph glyph-name="Egrave" unicode="&#xc8;" horiz-adv-x="1132" 
d="M537 1594l-198 291h185l150 -291h-137zM375 172h655v-172h-834v1434h812v-171h-633v-443h579v-166h-579v-482z" />
    <glyph glyph-name="Eacute" unicode="&#xc9;" horiz-adv-x="1132" 
d="M846 1885l-198 -291h-137l149 291h186zM375 172h655v-172h-834v1434h812v-171h-633v-443h579v-166h-579v-482z" />
    <glyph glyph-name="Ecircumflex" unicode="&#xca;" horiz-adv-x="1132" 
d="M596 1787l-187 -193h-154l243 291h199l242 -291h-154zM375 172h655v-172h-834v1434h812v-171h-633v-443h579v-166h-579v-482z" />
    <glyph glyph-name="Edieresis" unicode="&#xcb;" horiz-adv-x="1132" 
d="M275 1614v200h200v-200h-200zM720 1614v200h200v-200h-200zM375 172h655v-172h-834v1434h812v-171h-633v-443h579v-166h-579v-482z" />
    <glyph glyph-name="Igrave" unicode="&#xcc;" horiz-adv-x="571" 
d="M345 1594h-139l-144 291h182zM196 0v1434h179v-1434h-179z" />
    <glyph glyph-name="Iacute" unicode="&#xcd;" horiz-adv-x="571" 
d="M200 1595l101 290h178l-145 -290h-134zM196 0v1434h179v-1434h-179z" />
    <glyph glyph-name="Icircumflex" unicode="&#xce;" horiz-adv-x="571" 
d="M374 1885l211 -291h-146l-155 192l-155 -192h-145l212 291h178zM196 0v1434h179v-1434h-179z" />
    <glyph glyph-name="Idieresis" unicode="&#xcf;" horiz-adv-x="571" 
d="M52 1614v200h181v-200h-181zM340 1614v200h181v-200h-181zM196 0v1434h179v-1434h-179z" />
    <glyph glyph-name="Eth" unicode="&#xd0;" horiz-adv-x="1546" 
d="M720 1434q208 0 374.5 -92t259.5 -256t93 -369t-93 -369t-259.5 -256t-374.5 -92h-478v643h-206v150h206v641h478zM714 168q240 0 394.5 155.5t154.5 393.5q0 157 -69.5 282t-195 195.5t-284.5 70.5h-292v-472h413v-150h-413v-475h292z" />
    <glyph glyph-name="Ntilde" unicode="&#xd1;" horiz-adv-x="1533" 
d="M522 1629v-23h-108v28q0 115 53.5 182.5t148.5 67.5q41 0 78 -15.5t55 -30t51 -45.5q35 -36 63 -54t64 -18q43 0 68.5 34.5t25.5 97.5v18h111v-22q0 -115 -55 -183.5t-148 -68.5q-66 0 -111.5 26.5t-92.5 73.5q-23 22 -36 33t-32.5 21t-38.5 10q-42 0 -69 -35.5
t-27 -96.5zM1163 1434h176v-1434h-151l-816 1119v-1119h-176v1434h162l805 -1106v1106z" />
    <glyph glyph-name="Ograve" unicode="&#xd2;" horiz-adv-x="1697" 
d="M787 1594l-198 291h186l149 -291h-137zM848 -24q-214 0 -385.5 96.5t-268 266t-96.5 378.5t96.5 378.5t268 266t385.5 96.5t386 -96.5t268.5 -266t96.5 -378.5t-96.5 -378.5t-268.5 -266t-386 -96.5zM848 152q161 0 291 73.5t203 203t73 288.5t-73 288.5t-203 203
t-291 73.5q-160 0 -290 -74t-203 -203t-73 -288t73 -288t203 -203t290 -74z" />
    <glyph glyph-name="Oacute" unicode="&#xd3;" horiz-adv-x="1697" 
d="M761 1594l149 291h186l-198 -291h-137zM848 -24q-214 0 -385.5 96.5t-268 266t-96.5 378.5t96.5 378.5t268 266t385.5 96.5t386 -96.5t268.5 -266t96.5 -378.5t-96.5 -378.5t-268.5 -266t-386 -96.5zM848 152q161 0 291 73.5t203 203t73 288.5t-73 288.5t-203 203
t-291 73.5q-160 0 -290 -74t-203 -203t-73 -288t73 -288t203 -203t290 -74z" />
    <glyph glyph-name="Ocircumflex" unicode="&#xd4;" horiz-adv-x="1697" 
d="M1189 1594h-154l-189 193l-186 -193h-154l242 291h199zM848 -24q-214 0 -385.5 96.5t-268 266t-96.5 378.5t96.5 378.5t268 266t385.5 96.5t386 -96.5t268.5 -266t96.5 -378.5t-96.5 -378.5t-268.5 -266t-386 -96.5zM848 152q161 0 291 73.5t203 203t73 288.5t-73 288.5
t-203 203t-291 73.5q-160 0 -290 -74t-203 -203t-73 -288t73 -288t203 -203t290 -74z" />
    <glyph glyph-name="Otilde" unicode="&#xd5;" horiz-adv-x="1697" 
d="M998 1597q-66 0 -111.5 26.5t-92.5 73.5q-33 32 -57 48t-51 16q-42 0 -68.5 -35.5t-26.5 -96.5v-23h-109v28q0 114 54 182t149 68q41 0 78 -15.5t55 -30t51 -45.5q35 -36 63 -54t64 -18q43 0 68.5 34.5t25.5 97.5v18h110v-22q0 -115 -54.5 -183.5t-147.5 -68.5zM848 -24
q-214 0 -385.5 96.5t-268 266t-96.5 378.5t96.5 378.5t268 266t385.5 96.5t386 -96.5t268.5 -266t96.5 -378.5t-96.5 -378.5t-268.5 -266t-386 -96.5zM848 152q161 0 291 73.5t203 203t73 288.5t-73 288.5t-203 203t-291 73.5q-160 0 -290 -74t-203 -203t-73 -288t73 -288
t203 -203t290 -74z" />
    <glyph glyph-name="Odieresis" unicode="&#xd6;" horiz-adv-x="1697" 
d="M525 1614v200h200v-200h-200zM970 1614v200h200v-200h-200zM848 -24q-214 0 -385.5 96.5t-268 266t-96.5 378.5t96.5 378.5t268 266t385.5 96.5t386 -96.5t268.5 -266t96.5 -378.5t-96.5 -378.5t-268.5 -266t-386 -96.5zM848 152q161 0 291 73.5t203 203t73 288.5
t-73 288.5t-203 203t-291 73.5q-160 0 -290 -74t-203 -203t-73 -288t73 -288t203 -203t290 -74z" />
    <glyph glyph-name="multiply" unicode="&#xd7;" horiz-adv-x="1056" 
d="M948 1008l-305 -310l305 -311l-115 -114l-305 308l-304 -308l-117 114l306 311l-306 310l119 113l302 -307l303 307z" />
    <glyph glyph-name="Oslash" unicode="&#xd8;" horiz-adv-x="1710" 
d="M1314 1309q139 -100 218.5 -255t79.5 -339q0 -207 -97 -374.5t-268.5 -263t-382.5 -95.5q-166 0 -309 61l-103 -170h-195l150 243q-145 98 -228 255t-83 344q0 208 97.5 377t269.5 265.5t383 96.5q174 0 322 -68l105 175h195zM280 717q0 -139 59 -257t163 -194l578 967
q-110 45 -234 45q-119 0 -224.5 -43.5t-180 -118t-118 -178.5t-43.5 -221zM860 158q242 0 404 159t162 398q0 136 -54.5 250.5t-150.5 191.5l-576 -961q103 -38 215 -38z" />
    <glyph glyph-name="Ugrave" unicode="&#xd9;" horiz-adv-x="1482" 
d="M681 1594l-198 291h186l149 -291h-137zM743 -24q-244 0 -404 157t-160 401v900h182v-887q0 -176 106.5 -285.5t275.5 -109.5q167 0 273.5 109.5t106.5 285.5v887h182v-900q0 -161 -73 -289t-201.5 -198.5t-287.5 -70.5z" />
    <glyph glyph-name="Uacute" unicode="&#xda;" horiz-adv-x="1482" 
d="M655 1594l149 291h186l-198 -291h-137zM743 -24q-244 0 -404 157t-160 401v900h182v-887q0 -176 106.5 -285.5t275.5 -109.5q167 0 273.5 109.5t106.5 285.5v887h182v-900q0 -161 -73 -289t-201.5 -198.5t-287.5 -70.5z" />
    <glyph glyph-name="Ucircumflex" unicode="&#xdb;" horiz-adv-x="1482" 
d="M1084 1594h-154l-190 193l-186 -193h-154l242 291h199zM743 -24q-244 0 -404 157t-160 401v900h182v-887q0 -176 106.5 -285.5t275.5 -109.5q167 0 273.5 109.5t106.5 285.5v887h182v-900q0 -161 -73 -289t-201.5 -198.5t-287.5 -70.5z" />
    <glyph glyph-name="Udieresis" unicode="&#xdc;" horiz-adv-x="1482" 
d="M420 1614v200h199v-200h-199zM864 1614v200h200v-200h-200zM743 -24q-244 0 -404 157t-160 401v900h182v-887q0 -176 106.5 -285.5t275.5 -109.5q167 0 273.5 109.5t106.5 285.5v887h182v-900q0 -161 -73 -289t-201.5 -198.5t-287.5 -70.5z" />
    <glyph glyph-name="Yacute" unicode="&#xdd;" horiz-adv-x="1347" 
d="M923 1885l-198 -291h-137l149 291h186zM1295 1434l-529 -862v-572h-185v572l-525 862h196l422 -693l424 693h197z" />
    <glyph glyph-name="Thorn" unicode="&#xde;" horiz-adv-x="1273" 
d="M710 1178q210 0 343 -129t133 -332q0 -204 -133 -332.5t-343 -128.5h-335v-256h-179v1434h179v-256h335zM700 426q132 0 217 81.5t85 209.5t-85 209.5t-217 81.5h-325v-582h325z" />
    <glyph glyph-name="germandbls" unicode="&#xdf;" horiz-adv-x="1251" 
d="M935 791q106 -43 165 -139.5t59 -228.5q0 -189 -134.5 -306t-351.5 -117h-147v168h147q141 0 228 74.5t87 195.5q0 116 -83.5 189.5t-216.5 73.5h-143v163h122q119 0 196 70.5t77 179.5q0 108 -79.5 176.5t-203.5 68.5q-145 0 -226 -88t-81 -247v-1024h-175v1024
q0 237 127.5 369.5t354.5 132.5q192 0 317 -114.5t125 -288.5q0 -106 -44 -195t-120 -137z" />
    <glyph glyph-name="agrave" unicode="&#xe0;" horiz-adv-x="1431" 
d="M777 1236h-137l-186 311h185zM1118 1106h139v-1106h-144l-19 168q-78 -91 -189.5 -141.5t-244.5 -50.5q-161 0 -292 75t-205.5 207.5t-74.5 294.5q0 248 163.5 412.5t408.5 164.5q133 0 246 -51t191 -143zM673 144q175 0 290.5 116.5t115.5 292.5t-115.5 292.5
t-290.5 116.5t-291 -117t-116 -292t116 -292t291 -117z" />
    <glyph glyph-name="aacute" unicode="&#xe1;" horiz-adv-x="1431" 
d="M916 1547l-186 -311h-137l138 311h185zM1118 1106h139v-1106h-144l-19 168q-78 -91 -189.5 -141.5t-244.5 -50.5q-161 0 -292 75t-205.5 207.5t-74.5 294.5q0 248 163.5 412.5t408.5 164.5q133 0 246 -51t191 -143zM673 144q175 0 290.5 116.5t115.5 292.5t-115.5 292.5
t-290.5 116.5t-291 -117t-116 -292t116 -292t291 -117z" />
    <glyph glyph-name="acircumflex" unicode="&#xe2;" horiz-adv-x="1431" 
d="M694 1442l-188 -206h-154l242 311h199l244 -311h-154zM1118 1106h139v-1106h-144l-19 168q-78 -91 -189.5 -141.5t-244.5 -50.5q-161 0 -292 75t-205.5 207.5t-74.5 294.5q0 248 163.5 412.5t408.5 164.5q133 0 246 -51t191 -143zM673 144q175 0 290.5 116.5t115.5 292.5
t-115.5 292.5t-290.5 116.5t-291 -117t-116 -292t116 -292t291 -117z" />
    <glyph glyph-name="atilde" unicode="&#xe3;" horiz-adv-x="1431" 
d="M441 1281v-22h-107v26q0 113 53.5 179.5t145.5 66.5q42 0 78 -14.5t56.5 -31.5t49.5 -46q33 -35 60 -52t62 -17q42 0 67 35.5t25 94.5v18h108v-22q0 -112 -53.5 -179t-144.5 -67q-44 0 -83.5 16t-61 33t-52.5 47q-26 24 -37.5 33.5t-31.5 19.5t-40 10q-41 0 -67.5 -35.5
t-26.5 -92.5zM1118 1106h139v-1106h-144l-19 168q-78 -91 -189.5 -141.5t-244.5 -50.5q-161 0 -292 75t-205.5 207.5t-74.5 294.5q0 248 163.5 412.5t408.5 164.5q133 0 246 -51t191 -143zM673 144q175 0 290.5 116.5t115.5 292.5t-115.5 292.5t-290.5 116.5t-291 -117
t-116 -292t116 -292t291 -117z" />
    <glyph glyph-name="adieresis" unicode="&#xe4;" horiz-adv-x="1431" 
d="M590 1497v-200h-200v200h200zM993 1497v-200h-199v200h199zM1118 1106h139v-1106h-144l-19 168q-78 -91 -189.5 -141.5t-244.5 -50.5q-161 0 -292 75t-205.5 207.5t-74.5 294.5q0 248 163.5 412.5t408.5 164.5q133 0 246 -51t191 -143zM673 144q175 0 290.5 116.5
t115.5 292.5t-115.5 292.5t-290.5 116.5t-291 -117t-116 -292t116 -292t291 -117z" />
    <glyph glyph-name="aring" unicode="&#xe5;" horiz-adv-x="1431" 
d="M693 1208q-103 0 -168.5 62t-65.5 158q0 97 65.5 158.5t168.5 61.5t168 -61.5t65 -158.5q0 -96 -65.5 -158t-167.5 -62zM693 1550q-56 0 -91.5 -33.5t-35.5 -88.5q0 -54 35.5 -87.5t91.5 -33.5t91 33.5t35 87.5q0 55 -35 88.5t-91 33.5zM1118 1106h139v-1106h-144
l-19 168q-78 -91 -189.5 -141.5t-244.5 -50.5q-161 0 -292 75t-205.5 207.5t-74.5 294.5q0 248 163.5 412.5t408.5 164.5q133 0 246 -51t191 -143zM673 144q175 0 290.5 116.5t115.5 292.5t-115.5 292.5t-290.5 116.5t-291 -117t-116 -292t116 -292t291 -117z" />
    <glyph glyph-name="ae" unicode="&#xe6;" horiz-adv-x="2267" 
d="M2182 552q0 -21 -4 -67h-945q20 -153 126 -245t265 -92q114 0 204 49.5t141 139.5h183q-71 -171 -209.5 -266t-318.5 -95q-123 0 -228 50t-180 140l-10 -170h-127l-8 151q-75 -81 -178.5 -125t-224.5 -44q-163 0 -296 75t-208.5 207t-75.5 293t75 293t208 207t297 75
q121 0 225 -44.5t179 -126.5l9 153h127l9 -171q75 89 180 139t227 50q241 0 399.5 -165t158.5 -411zM1624 965q-151 0 -255.5 -88t-131.5 -233h771q-26 146 -130.5 233.5t-253.5 87.5zM668 146q175 0 288.5 115t113.5 292q0 178 -113 292.5t-289 114.5q-174 0 -288 -115.5
t-114 -291.5t114 -291.5t288 -115.5z" />
    <glyph glyph-name="ccedilla" unicode="&#xe7;" horiz-adv-x="1269" 
d="M1202 379q-49 -175 -185.5 -283.5t-320.5 -118.5l-17 -64q86 -10 139.5 -62.5t53.5 -129.5q0 -87 -62.5 -141t-165.5 -54h-151v101h130q53 0 86.5 27.5t33.5 71.5t-33 71t-87 27h-52l-19 19l36 137q-218 26 -359 186t-141 387q0 163 75 295t207 207t293 75
q197 0 341.5 -108t195.5 -289h-172q-49 107 -146 168t-219 61q-170 0 -283.5 -117.5t-113.5 -291.5q0 -173 114 -291t283 -118q122 0 217 62t146 173h176z" />
    <glyph glyph-name="egrave" unicode="&#xe8;" horiz-adv-x="1294" 
d="M733 1236h-137l-187 311h186zM1209 548q0 -30 -3 -62h-943q20 -154 126.5 -247t262.5 -93q114 0 203 50.5t141 140.5h184q-71 -171 -209.5 -266t-318.5 -95q-158 0 -287.5 75t-203 207t-73.5 295q0 162 73.5 294.5t203 207.5t287.5 75q164 0 292 -78t196.5 -210.5
t68.5 -293.5zM652 965q-150 0 -254 -86.5t-131 -231.5h768q-28 147 -131.5 232.5t-251.5 85.5z" />
    <glyph glyph-name="eacute" unicode="&#xe9;" horiz-adv-x="1294" 
d="M871 1547l-186 -311h-137l138 311h185zM1209 548q0 -30 -3 -62h-943q20 -154 126.5 -247t262.5 -93q114 0 203 50.5t141 140.5h184q-71 -171 -209.5 -266t-318.5 -95q-158 0 -287.5 75t-203 207t-73.5 295q0 162 73.5 294.5t203 207.5t287.5 75q164 0 292 -78
t196.5 -210.5t68.5 -293.5zM652 965q-150 0 -254 -86.5t-131 -231.5h768q-28 147 -131.5 232.5t-251.5 85.5z" />
    <glyph glyph-name="ecircumflex" unicode="&#xea;" horiz-adv-x="1294" 
d="M649 1442l-188 -206h-154l242 311h199l245 -311h-154zM1209 548q0 -30 -3 -62h-943q20 -154 126.5 -247t262.5 -93q114 0 203 50.5t141 140.5h184q-71 -171 -209.5 -266t-318.5 -95q-158 0 -287.5 75t-203 207t-73.5 295q0 162 73.5 294.5t203 207.5t287.5 75
q164 0 292 -78t196.5 -210.5t68.5 -293.5zM652 965q-150 0 -254 -86.5t-131 -231.5h768q-28 147 -131.5 232.5t-251.5 85.5z" />
    <glyph glyph-name="edieresis" unicode="&#xeb;" horiz-adv-x="1294" 
d="M545 1497v-200h-200v200h200zM949 1497v-200h-200v200h200zM1209 548q0 -30 -3 -62h-943q20 -154 126.5 -247t262.5 -93q114 0 203 50.5t141 140.5h184q-71 -171 -209.5 -266t-318.5 -95q-158 0 -287.5 75t-203 207t-73.5 295q0 162 73.5 294.5t203 207.5t287.5 75
q164 0 292 -78t196.5 -210.5t68.5 -293.5zM652 965q-150 0 -254 -86.5t-131 -231.5h768q-28 147 -131.5 232.5t-251.5 85.5z" />
    <glyph glyph-name="igrave" unicode="&#xec;" horiz-adv-x="524" 
d="M329 1236h-138l-144 311h182zM175 0v1106h175v-1106h-175z" />
    <glyph glyph-name="iacute" unicode="&#xed;" horiz-adv-x="524" 
d="M186 1236l101 311h181l-143 -311h-139zM175 0v1106h175v-1106h-175z" />
    <glyph glyph-name="icircumflex" unicode="&#xee;" horiz-adv-x="524" 
d="M352 1547l212 -311h-147l-155 205l-156 -205h-145l212 311h179zM175 0v1106h175v-1106h-175z" />
    <glyph glyph-name="idieresis" unicode="&#xef;" horiz-adv-x="524" 
d="M18 1297v200h177v-200h-177zM328 1295v200h177v-200h-177zM175 0v1106h175v-1106h-175z" />
    <glyph glyph-name="eth" unicode="&#xf0;" horiz-adv-x="1323" 
d="M796 1458q200 -125 306 -349.5t107 -527.5q0 -271 -154 -437t-407 -166q-246 0 -402 151t-156 390q0 153 71 275.5t193.5 190t272.5 67.5q107 0 207 -38t175 -108q-33 148 -117.5 260.5t-211.5 181.5l-233 -222l-76 74l204 195q-144 52 -315 52v150q245 0 437 -86
l144 137l74 -77zM648 139q166 0 276 109t110 273q-1 109 -52 197t-139 137t-195 49q-168 0 -279 -109.5t-111 -273.5t111 -273t279 -109z" />
    <glyph glyph-name="ntilde" unicode="&#xf1;" horiz-adv-x="1314" 
d="M421 1281v-22h-107v26q0 113 53.5 179.5t145.5 66.5q42 0 78 -14.5t56.5 -31.5t49.5 -46q33 -35 60 -52t62 -17q42 0 67 35.5t25 94.5v18h108v-22q0 -112 -53.5 -179t-144.5 -67q-44 0 -83.5 16t-61 33t-52.5 47q-26 24 -37.5 33.5t-31.5 19.5t-40 10q-41 0 -67.5 -35.5
t-26.5 -92.5zM729 1130q194 0 310.5 -131t116.5 -337v-662h-174v621q0 168 -77 259t-221 91q-142 0 -238 -106t-96 -262v-603h-175v1106h124l34 -173q63 93 166 145t230 52z" />
    <glyph glyph-name="ograve" unicode="&#xf2;" horiz-adv-x="1349" 
d="M759 1236h-137l-187 311h186zM674 -24q-251 0 -418.5 164.5t-167.5 412.5q0 164 76 296t210.5 206.5t299.5 74.5t299.5 -74.5t211 -207t76.5 -295.5t-76.5 -295.5t-211 -207t-299.5 -74.5zM674 144q178 0 293.5 115.5t115.5 293.5t-115.5 293.5t-293.5 115.5t-293 -115.5
t-115 -293.5t115 -293.5t293 -115.5z" />
    <glyph glyph-name="oacute" unicode="&#xf3;" horiz-adv-x="1349" 
d="M574 1236l138 311h186l-187 -311h-137zM674 -24q-251 0 -418.5 164.5t-167.5 412.5q0 164 76 296t210.5 206.5t299.5 74.5t299.5 -74.5t211 -207t76.5 -295.5t-76.5 -295.5t-211 -207t-299.5 -74.5zM674 144q178 0 293.5 115.5t115.5 293.5t-115.5 293.5t-293.5 115.5
t-293 -115.5t-115 -293.5t115 -293.5t293 -115.5z" />
    <glyph glyph-name="ocircumflex" unicode="&#xf4;" horiz-adv-x="1349" 
d="M1019 1236h-154l-189 206l-189 -206h-154l243 311h199zM674 -24q-251 0 -418.5 164.5t-167.5 412.5q0 164 76 296t210.5 206.5t299.5 74.5t299.5 -74.5t211 -207t76.5 -295.5t-76.5 -295.5t-211 -207t-299.5 -74.5zM674 144q178 0 293.5 115.5t115.5 293.5t-115.5 293.5
t-293.5 115.5t-293 -115.5t-115 -293.5t115 -293.5t293 -115.5z" />
    <glyph glyph-name="otilde" unicode="&#xf5;" horiz-adv-x="1349" 
d="M822 1250q-44 0 -83.5 16t-60.5 33t-52 47q-26 24 -37.5 33.5t-31.5 19.5t-40 10q-41 0 -67.5 -35.5t-26.5 -92.5v-22h-107v26q0 113 53.5 179.5t145.5 66.5q42 0 78 -14.5t56.5 -31.5t49.5 -46q33 -35 59.5 -52t61.5 -17q42 0 67 35.5t25 94.5v18h109v-22
q0 -112 -54 -179t-145 -67zM674 -24q-251 0 -418.5 164.5t-167.5 412.5q0 164 76 296t210.5 206.5t299.5 74.5t299.5 -74.5t211 -207t76.5 -295.5t-76.5 -295.5t-211 -207t-299.5 -74.5zM674 144q178 0 293.5 115.5t115.5 293.5t-115.5 293.5t-293.5 115.5t-293 -115.5
t-115 -293.5t115 -293.5t293 -115.5z" />
    <glyph glyph-name="odieresis" unicode="&#xf6;" horiz-adv-x="1349" 
d="M372 1297v200h199v-200h-199zM775 1297v200h200v-200h-200zM674 -24q-251 0 -418.5 164.5t-167.5 412.5q0 164 76 296t210.5 206.5t299.5 74.5t299.5 -74.5t211 -207t76.5 -295.5t-76.5 -295.5t-211 -207t-299.5 -74.5zM674 144q178 0 293.5 115.5t115.5 293.5
t-115.5 293.5t-293.5 115.5t-293 -115.5t-115 -293.5t115 -293.5t293 -115.5z" />
    <glyph glyph-name="divide" unicode="&#xf7;" horiz-adv-x="1216" 
d="M608 964q-42 0 -71 28.5t-29 71.5q0 41 29 70t71 29t71.5 -29t29.5 -70q0 -43 -29.5 -71.5t-71.5 -28.5zM117 617v161h983v-161h-983zM608 231q-42 0 -71 29.5t-29 71.5t29 70t71 28t71.5 -28t29.5 -70t-29.5 -71.5t-71.5 -29.5z" />
    <glyph glyph-name="oslash" unicode="&#xf8;" horiz-adv-x="1351" 
d="M1009 1031q118 -76 186 -201.5t68 -276.5q0 -161 -74.5 -292t-206 -205t-293.5 -74q-127 0 -232 45l-84 -152h-161l117 209q-114 77 -178.5 199t-64.5 270q0 161 75.5 292.5t208 206t294.5 74.5q110 0 214 -40l77 145h161zM664 967q-178 0 -293 -117.5t-115 -296.5
q0 -104 39.5 -189t113.5 -141l395 720q-69 24 -140 24zM689 141q175 0 290 116.5t115 295.5q0 106 -43.5 192t-121.5 142l-395 -716q74 -30 155 -30z" />
    <glyph glyph-name="ugrave" unicode="&#xf9;" horiz-adv-x="1294" 
d="M732 1236h-137l-187 311h186zM647 -24q-223 0 -356.5 134t-133.5 357v639h174v-611q0 -163 85 -257t231 -94q147 0 231.5 94.5t84.5 256.5v611h174v-639q0 -223 -133 -357t-357 -134z" />
    <glyph glyph-name="uacute" unicode="&#xfa;" horiz-adv-x="1294" 
d="M547 1236l138 311h186l-187 -311h-137zM647 -24q-223 0 -356.5 134t-133.5 357v639h174v-611q0 -163 85 -257t231 -94q147 0 231.5 94.5t84.5 256.5v611h174v-639q0 -223 -133 -357t-357 -134z" />
    <glyph glyph-name="ucircumflex" unicode="&#xfb;" horiz-adv-x="1294" 
d="M992 1236h-154l-190 206l-188 -206h-154l242 311h199zM647 -24q-223 0 -356.5 134t-133.5 357v639h174v-611q0 -163 85 -257t231 -94q147 0 231.5 94.5t84.5 256.5v611h174v-639q0 -223 -133 -357t-357 -134z" />
    <glyph glyph-name="udieresis" unicode="&#xfc;" horiz-adv-x="1294" 
d="M344 1297v200h200v-200h-200zM748 1297v200h200v-200h-200zM647 -24q-223 0 -356.5 134t-133.5 357v639h174v-611q0 -163 85 -257t231 -94q147 0 231.5 94.5t84.5 256.5v611h174v-639q0 -223 -133 -357t-357 -134z" />
    <glyph glyph-name="yacute" unicode="&#xfd;" horiz-adv-x="1200" 
d="M829 1547l-187 -311h-137l138 311h186zM984 1106h185l-527 -1152q-90 -197 -183.5 -273t-249.5 -76h-104v158h89q110 0 166 45t123 185l40 82l-492 1031h190l393 -837z" />
    <glyph glyph-name="thorn" unicode="&#xfe;" horiz-adv-x="1421" 
d="M763 1128q162 0 292.5 -75t203 -206t72.5 -294q0 -248 -161 -412.5t-407 -164.5q-122 0 -228.5 45t-184.5 127v-543h-175v1896h175v-544q78 81 184 126t229 45zM750 144q175 0 290 116.5t115 292.5q0 175 -115 291t-290 116t-291.5 -116.5t-116.5 -290.5
q0 -175 116.5 -292t291.5 -117z" />
    <glyph glyph-name="ydieresis" unicode="&#xff;" horiz-adv-x="1200" 
d="M303 1297v200h199v-200h-199zM706 1297v200h200v-200h-200zM984 1106h185l-527 -1152q-90 -197 -183.5 -273t-249.5 -76h-104v158h89q110 0 166 45t123 185l40 82l-492 1031h190l393 -837z" />
    <glyph glyph-name="Amacron" unicode="&#x100;" horiz-adv-x="1427" 
d="M391 1664v150h641v-150h-641zM1197 0l-142 343h-689l-140 -343h-191l586 1434h168l603 -1434h-195zM708 1186l-275 -678h555z" />
    <glyph glyph-name="amacron" unicode="&#x101;" horiz-adv-x="1431" 
d="M1012 1467v-139h-641v139h641zM1118 1106h139v-1106h-144l-19 168q-78 -91 -189.5 -141.5t-244.5 -50.5q-161 0 -292 75t-205.5 207.5t-74.5 294.5q0 248 163.5 412.5t408.5 164.5q133 0 246 -51t191 -143zM673 144q175 0 290.5 116.5t115.5 292.5t-115.5 292.5
t-290.5 116.5t-291 -117t-116 -292t116 -292t291 -117z" />
    <glyph glyph-name="Abreve" unicode="&#x102;" horiz-adv-x="1427" 
d="M710 1584q-144 0 -231 81t-87 220h137v-6q0 -85 49 -131t132 -46t130.5 46t47.5 131v6h140q0 -139 -87 -220t-231 -81zM1197 0l-142 343h-689l-140 -343h-191l586 1434h168l603 -1434h-195zM708 1186l-275 -678h555z" />
    <glyph glyph-name="abreve" unicode="&#x103;" horiz-adv-x="1431" 
d="M693 1225q-148 0 -238 86.5t-90 235.5h137v-6q0 -94 52 -146t139 -52t137 52t50 146v6h140q0 -149 -89.5 -235.5t-237.5 -86.5zM1118 1106h139v-1106h-144l-19 168q-78 -91 -189.5 -141.5t-244.5 -50.5q-161 0 -292 75t-205.5 207.5t-74.5 294.5q0 248 163.5 412.5
t408.5 164.5q133 0 246 -51t191 -143zM673 144q175 0 290.5 116.5t115.5 292.5t-115.5 292.5t-290.5 116.5t-291 -117t-116 -292t116 -292t291 -117z" />
    <glyph glyph-name="Aogonek" unicode="&#x104;" horiz-adv-x="1427" 
d="M1129 -222q0 -57 41 -90.5t113 -33.5q59 0 103 20v-105q-68 -35 -149 -35q-108 0 -175.5 57t-67.5 148q0 84 52 160.5t140 128.5l-131 315h-689l-140 -343h-191l586 1434h168l595 -1414l12 -20q-130 -33 -198.5 -90t-68.5 -132zM708 1186l-275 -678h555z" />
    <glyph glyph-name="aogonek" unicode="&#x105;" horiz-adv-x="1431" 
d="M1189 -346q55 0 106 20v-102q-66 -38 -153 -38q-103 0 -171 56t-68 149q0 96 54 174t151 134l-14 121q-78 -91 -189.5 -141.5t-244.5 -50.5q-161 0 -292 75t-205.5 207.5t-74.5 294.5q0 248 163.5 412.5t408.5 164.5q133 0 246 -51t191 -143l21 170h139v-1106
q-100 -31 -159.5 -91t-59.5 -129q0 -59 41.5 -92.5t109.5 -33.5zM673 144q175 0 290.5 116.5t115.5 292.5t-115.5 292.5t-290.5 116.5t-291 -117t-116 -292t116 -292t291 -117z" />
    <glyph glyph-name="Cacute" unicode="&#x106;" horiz-adv-x="1589" 
d="M735 1594l149 291h186l-198 -291h-137zM833 -22q-210 0 -378 94.5t-262.5 263.5t-94.5 381t94.5 381t262.5 263.5t378 94.5q249 0 433 -137.5t246 -369.5h-183q-57 155 -188.5 243t-307.5 88q-241 0 -396 -158t-155 -405t155 -405t396 -158q181 0 314 93.5t189 258.5h183
q-61 -243 -246.5 -385.5t-439.5 -142.5z" />
    <glyph glyph-name="cacute" unicode="&#x107;" horiz-adv-x="1269" 
d="M560 1236l138 311h186l-187 -311h-137zM663 -24q-161 0 -293 75t-207 207.5t-75 294.5q0 163 75 295t207 207t293 75q197 0 341.5 -108t195.5 -289h-172q-49 107 -146 168t-219 61q-170 0 -283.5 -117.5t-113.5 -291.5q0 -173 114 -291t283 -118q122 0 217 62t146 173
h176q-51 -183 -197.5 -293t-341.5 -110z" />
    <glyph glyph-name="Ccircumflex" unicode="&#x108;" horiz-adv-x="1589" 
d="M1163 1594h-154l-189 193l-186 -193h-155l243 291h199zM833 -22q-210 0 -378 94.5t-262.5 263.5t-94.5 381t94.5 381t262.5 263.5t378 94.5q249 0 433 -137.5t246 -369.5h-183q-57 155 -188.5 243t-307.5 88q-241 0 -396 -158t-155 -405t155 -405t396 -158
q181 0 314 93.5t189 258.5h183q-61 -243 -246.5 -385.5t-439.5 -142.5z" />
    <glyph glyph-name="ccircumflex" unicode="&#x109;" horiz-adv-x="1269" 
d="M1005 1236h-154l-190 206l-188 -206h-154l243 311h198zM663 -24q-161 0 -293 75t-207 207.5t-75 294.5q0 163 75 295t207 207t293 75q197 0 341.5 -108t195.5 -289h-172q-49 107 -146 168t-219 61q-170 0 -283.5 -117.5t-113.5 -291.5q0 -173 114 -291t283 -118
q122 0 217 62t146 173h176q-51 -183 -197.5 -293t-341.5 -110z" />
    <glyph glyph-name="Cdotaccent" unicode="&#x10a;" horiz-adv-x="1589" 
d="M722 1614v200h200v-200h-200zM833 -22q-210 0 -378 94.5t-262.5 263.5t-94.5 381t94.5 381t262.5 263.5t378 94.5q249 0 433 -137.5t246 -369.5h-183q-57 155 -188.5 243t-307.5 88q-241 0 -396 -158t-155 -405t155 -405t396 -158q181 0 314 93.5t189 258.5h183
q-61 -243 -246.5 -385.5t-439.5 -142.5z" />
    <glyph glyph-name="cdotaccent" unicode="&#x10b;" horiz-adv-x="1269" 
d="M566 1297v200h188v-200h-188zM663 -24q-161 0 -293 75t-207 207.5t-75 294.5q0 163 75 295t207 207t293 75q197 0 341.5 -108t195.5 -289h-172q-49 107 -146 168t-219 61q-170 0 -283.5 -117.5t-113.5 -291.5q0 -173 114 -291t283 -118q122 0 217 62t146 173h176
q-51 -183 -197.5 -293t-341.5 -110z" />
    <glyph glyph-name="Ccaron" unicode="&#x10c;" horiz-adv-x="1589" 
d="M1009 1885h154l-242 -291h-199l-243 291h155l186 -192zM833 -22q-210 0 -378 94.5t-262.5 263.5t-94.5 381t94.5 381t262.5 263.5t378 94.5q249 0 433 -137.5t246 -369.5h-183q-57 155 -188.5 243t-307.5 88q-241 0 -396 -158t-155 -405t155 -405t396 -158
q181 0 314 93.5t189 258.5h183q-61 -243 -246.5 -385.5t-439.5 -142.5z" />
    <glyph glyph-name="ccaron" unicode="&#x10d;" horiz-adv-x="1269" 
d="M849 1547h154l-244 -311h-199l-243 311h154l188 -206zM663 -24q-161 0 -293 75t-207 207.5t-75 294.5q0 163 75 295t207 207t293 75q197 0 341.5 -108t195.5 -289h-172q-49 107 -146 168t-219 61q-170 0 -283.5 -117.5t-113.5 -291.5q0 -173 114 -291t283 -118
q122 0 217 62t146 173h176q-51 -183 -197.5 -293t-341.5 -110z" />
    <glyph glyph-name="Dcaron" unicode="&#x10e;" horiz-adv-x="1501" 
d="M705 1594h-199l-242 291h154l186 -192l190 192h154zM674 1434q208 0 374.5 -92t259.5 -256t93 -369t-93 -369t-259.5 -256t-374.5 -92h-478v1434h478zM668 168q240 0 394.5 155.5t154.5 393.5q0 157 -69.5 282t-195 195.5t-284.5 70.5h-293v-1097h293z" />
    <glyph glyph-name="dcaron" unicode="&#x10f;" horiz-adv-x="1417" 
d="M1068 966v535h174v-1501h-135l-23 157q-78 -86 -188 -133.5t-238 -47.5q-248 0 -409 164.5t-161 412.5q0 164 72.5 295.5t203 206.5t294.5 75q122 0 227 -43t183 -121zM1360 1501h180v-150q0 -80 -49 -143t-123 -76v84q40 10 62.5 42t22.5 79h-93v164zM672 144
q175 0 291 117.5t116 291.5q0 175 -116 292t-291 117t-290.5 -116.5t-115.5 -292.5t115.5 -292.5t290.5 -116.5z" />
    <glyph glyph-name="Dcroat" unicode="&#x110;" horiz-adv-x="1546" 
d="M720 1434q208 0 374.5 -92t259.5 -256t93 -369t-93 -369t-259.5 -256t-374.5 -92h-478v643h-206v150h206v641h478zM714 168q240 0 394.5 155.5t154.5 393.5q0 157 -69.5 282t-195 195.5t-284.5 70.5h-292v-472h413v-150h-413v-475h292z" />
    <glyph glyph-name="dcroat" unicode="&#x111;" horiz-adv-x="1417" 
d="M1405 1363v-146h-163v-1217h-135l-23 157q-78 -86 -188 -133.5t-238 -47.5q-248 0 -409 164.5t-161 412.5q0 164 72.5 295.5t203 206.5t294.5 75q122 0 227 -43t183 -121v251h-409v146h409v138h174v-138h163zM672 144q175 0 291 117.5t116 291.5q0 175 -116 292t-291 117
t-290.5 -116.5t-115.5 -292.5t115.5 -292.5t290.5 -116.5z" />
    <glyph glyph-name="Emacron" unicode="&#x112;" horiz-adv-x="1132" 
d="M279 1664v150h641v-150h-641zM375 172h655v-172h-834v1434h812v-171h-633v-443h579v-166h-579v-482z" />
    <glyph glyph-name="emacron" unicode="&#x113;" horiz-adv-x="1294" 
d="M967 1467v-139h-641v139h641zM1209 548q0 -30 -3 -62h-943q20 -154 126.5 -247t262.5 -93q114 0 203 50.5t141 140.5h184q-71 -171 -209.5 -266t-318.5 -95q-158 0 -287.5 75t-203 207t-73.5 295q0 162 73.5 294.5t203 207.5t287.5 75q164 0 292 -78t196.5 -210.5
t68.5 -293.5zM652 965q-150 0 -254 -86.5t-131 -231.5h768q-28 147 -131.5 232.5t-251.5 85.5z" />
    <glyph glyph-name="Ebreve" unicode="&#x114;" horiz-adv-x="1132" 
d="M598 1584q-144 0 -231 81t-87 220h137v-6q0 -85 49 -131t132 -46t130.5 46t47.5 131v6h140q0 -139 -87 -220t-231 -81zM375 172h655v-172h-834v1434h812v-171h-633v-443h579v-166h-579v-482z" />
    <glyph glyph-name="ebreve" unicode="&#x115;" horiz-adv-x="1294" 
d="M648 1225q-148 0 -238 86.5t-90 235.5h137v-6q0 -94 52 -146t139 -52t137 52t50 146v6h140q0 -149 -89.5 -235.5t-237.5 -86.5zM1210 548q0 -20 -4 -62h-943q20 -154 126.5 -247t262.5 -93q114 0 203.5 50.5t141.5 140.5h183q-71 -171 -209.5 -266t-318.5 -95
q-158 0 -287.5 75t-203 207t-73.5 295q0 162 73.5 294.5t203 207.5t287.5 75q164 0 292.5 -78t197 -210.5t68.5 -293.5zM652 965q-150 0 -254 -86.5t-131 -231.5h768q-28 147 -131.5 232.5t-251.5 85.5z" />
    <glyph glyph-name="Edotaccent" unicode="&#x116;" horiz-adv-x="1132" 
d="M498 1614v200h200v-200h-200zM375 172h655v-172h-834v1434h812v-171h-633v-443h579v-166h-579v-482z" />
    <glyph glyph-name="edotaccent" unicode="&#x117;" horiz-adv-x="1294" 
d="M742 1497v-200h-188v200h188zM1209 548q0 -30 -3 -62h-943q20 -154 126.5 -247t262.5 -93q114 0 203 50.5t141 140.5h184q-71 -171 -209.5 -266t-318.5 -95q-158 0 -287.5 75t-203 207t-73.5 295q0 162 73.5 294.5t203 207.5t287.5 75q164 0 292 -78t196.5 -210.5
t68.5 -293.5zM652 965q-150 0 -254 -86.5t-131 -231.5h768q-28 147 -131.5 232.5t-251.5 85.5z" />
    <glyph glyph-name="Eogonek" unicode="&#x118;" horiz-adv-x="1132" 
d="M949 -346q58 0 107 20v-102q-70 -38 -154 -38q-107 0 -173 57t-66 148q0 77 40.5 145.5t112.5 115.5h-620v1434h812v-171h-633v-443h579v-166h-579v-482h655v-172q-103 -25 -167.5 -86.5t-64.5 -133.5q0 -58 41 -92t110 -34z" />
    <glyph glyph-name="eogonek" unicode="&#x119;" horiz-adv-x="1298" 
d="M1213 565q0 -45 -5 -79h-944q20 -153 127 -246.5t265 -93.5q112 0 200.5 50t141.5 141h184q-83 -205 -299 -315q-88 -45 -137 -109.5t-49 -128.5q0 -61 40 -95.5t111 -34.5q58 0 107 20v-100q-70 -40 -152 -40q-106 0 -172.5 56.5t-66.5 146.5q0 61 32.5 126t86.5 115
h-27q-159 0 -289 75.5t-203.5 207.5t-73.5 294q0 160 73.5 291.5t203.5 206.5t289 75q161 0 290 -78t198 -206t69 -279zM656 965q-152 0 -259 -88t-129 -230h770q-27 145 -130.5 231.5t-251.5 86.5z" />
    <glyph glyph-name="Ecaron" unicode="&#x11a;" horiz-adv-x="1132" 
d="M697 1594h-199l-243 291h154l187 -192l189 192h154zM375 172h655v-172h-834v1434h812v-171h-633v-443h579v-166h-579v-482z" />
    <glyph glyph-name="ecaron" unicode="&#x11b;" horiz-adv-x="1294" 
d="M746 1236h-199l-242 311h154l188 -206l190 206h154zM1209 548q0 -30 -3 -62h-943q20 -154 126.5 -247t262.5 -93q114 0 203 50.5t141 140.5h184q-71 -171 -209.5 -266t-318.5 -95q-158 0 -287.5 75t-203 207t-73.5 295q0 162 73.5 294.5t203 207.5t287.5 75
q164 0 292 -78t196.5 -210.5t68.5 -293.5zM652 965q-150 0 -254 -86.5t-131 -231.5h768q-28 147 -131.5 232.5t-251.5 85.5z" />
    <glyph glyph-name="Gcircumflex" unicode="&#x11c;" horiz-adv-x="1634" 
d="M824 1787l-186 -193h-154l242 291h199l242 -291h-154zM774 712h769q-3 -160 -58 -296.5t-148.5 -233.5t-225.5 -151.5t-285 -54.5q-208 0 -374.5 95.5t-260 265t-93.5 380.5q0 210 93.5 379t259 264.5t371.5 95.5q259 0 455 -146.5t243 -375.5h-185q-46 155 -186.5 250.5
t-322.5 95.5q-238 0 -391 -158t-153 -405q0 -250 151 -407.5t393 -157.5q197 0 339.5 106.5t181.5 282.5h-573v171z" />
    <glyph glyph-name="gcircumflex" unicode="&#x11d;" horiz-adv-x="1380" 
d="M659 1442l-188 -206h-154l242 311h199l244 -311h-154zM1089 1106h116v-951q0 -268 -145 -421t-397 -153q-203 0 -341 99.5t-183 276.5h174q36 -102 131.5 -159.5t218.5 -57.5q168 0 270 105t102 287v68q-75 -78 -179 -121.5t-224 -43.5q-151 0 -276 72t-196.5 197.5
t-71.5 277.5t71.5 278t196.5 198t276 72q131 0 242.5 -52t187.5 -144zM651 202q166 0 274 107.5t108 272.5t-108 273t-274 108t-275.5 -108.5t-109.5 -272.5q0 -163 109.5 -271.5t275.5 -108.5z" />
    <glyph glyph-name="Gbreve" unicode="&#x11e;" horiz-adv-x="1634" 
d="M826 1584q-144 0 -231 81t-87 220h137v-6q0 -85 49 -131t132 -46t130.5 46t47.5 131v6h141q0 -139 -87 -220t-232 -81zM774 712h769q-3 -160 -58 -296.5t-148.5 -233.5t-225.5 -151.5t-285 -54.5q-208 0 -374.5 95.5t-260 265t-93.5 380.5q0 210 93.5 379t259 264.5
t371.5 95.5q259 0 455 -146.5t243 -375.5h-185q-46 155 -186.5 250.5t-322.5 95.5q-238 0 -391 -158t-153 -405q0 -250 151 -407.5t393 -157.5q197 0 339.5 106.5t181.5 282.5h-573v171z" />
    <glyph glyph-name="gbreve" unicode="&#x11f;" horiz-adv-x="1380" 
d="M658 1225q-148 0 -238 86.5t-90 235.5h137v-6q0 -94 52 -146t139 -52t137 52t50 146v6h140q0 -149 -89.5 -235.5t-237.5 -86.5zM1089 1106h116v-951q0 -268 -145 -421t-397 -153q-203 0 -341 99.5t-183 276.5h174q36 -102 131.5 -159.5t218.5 -57.5q168 0 270 105
t102 287v68q-75 -78 -179 -121.5t-224 -43.5q-151 0 -276 72t-196.5 197.5t-71.5 277.5t71.5 278t196.5 198t276 72q131 0 242.5 -52t187.5 -144zM651 202q166 0 274 107.5t108 272.5t-108 273t-274 108t-275.5 -108.5t-109.5 -272.5q0 -163 109.5 -271.5t275.5 -108.5z" />
    <glyph glyph-name="Gdotaccent" unicode="&#x120;" horiz-adv-x="1634" 
d="M926 1814v-200h-199v200h199zM774 712h769q-3 -160 -58 -296.5t-148.5 -233.5t-225.5 -151.5t-285 -54.5q-208 0 -374.5 95.5t-260 265t-93.5 380.5q0 210 93.5 379t259 264.5t371.5 95.5q259 0 455 -146.5t243 -375.5h-185q-46 155 -186.5 250.5t-322.5 95.5
q-238 0 -391 -158t-153 -405q0 -250 151 -407.5t393 -157.5q197 0 339.5 106.5t181.5 282.5h-573v171z" />
    <glyph glyph-name="gdotaccent" unicode="&#x121;" horiz-adv-x="1380" 
d="M752 1497v-200h-189v200h189zM1089 1106h116v-951q0 -268 -145 -421t-397 -153q-203 0 -341 99.5t-183 276.5h174q36 -102 131.5 -159.5t218.5 -57.5q168 0 270 105t102 287v68q-75 -78 -179 -121.5t-224 -43.5q-151 0 -276 72t-196.5 197.5t-71.5 277.5t71.5 278
t196.5 198t276 72q131 0 242.5 -52t187.5 -144zM651 202q166 0 274 107.5t108 272.5t-108 273t-274 108t-275.5 -108.5t-109.5 -272.5q0 -163 109.5 -271.5t275.5 -108.5z" />
    <glyph glyph-name="uni0122" unicode="&#x122;" horiz-adv-x="1634" 
d="M774 712h769q-3 -160 -58 -296.5t-148.5 -233.5t-225.5 -151.5t-285 -54.5q-208 0 -374.5 95.5t-260 265t-93.5 380.5q0 210 93.5 379t259 264.5t371.5 95.5q259 0 455 -146.5t243 -375.5h-185q-46 155 -186.5 250.5t-322.5 95.5q-238 0 -391 -158t-153 -405
q0 -250 151 -407.5t393 -157.5q197 0 339.5 106.5t181.5 282.5h-573v171zM741 -278v164h180v-150q0 -81 -48.5 -143.5t-122.5 -75.5l-2 82q41 10 64 43t23 80h-94z" />
    <glyph glyph-name="uni0123" unicode="&#x123;" horiz-adv-x="1380" 
d="M747 1458v-163h-180v150q0 80 48.5 142.5t122.5 75.5l1 -82q-41 -10 -63.5 -42.5t-23.5 -80.5h95zM1089 1106h117v-951q0 -267 -145.5 -420.5t-397.5 -153.5q-203 0 -341 99.5t-183 276.5h174q36 -102 131.5 -159.5t218.5 -57.5q168 0 270 105t102 287v68
q-75 -78 -179 -121.5t-224 -43.5q-151 0 -276 72t-196.5 197.5t-71.5 277.5t71.5 278t196.5 198t276 72q131 0 242.5 -52t187.5 -144zM651 202q166 0 274 107.5t108 272.5t-108 273t-274 108t-275.5 -108.5t-109.5 -272.5q0 -163 109.5 -271.5t275.5 -108.5z" />
    <glyph glyph-name="Hcircumflex" unicode="&#x124;" horiz-adv-x="1492" 
d="M752 1787l-186 -193h-154l242 291h199l242 -291h-154zM1117 1434h180v-1434h-180v651h-742v-651h-179v1434h179v-610h742v610z" />
    <glyph glyph-name="hcircumflex" unicode="&#x125;" horiz-adv-x="1314" 
d="M449 1630l-189 193l-186 -193h-154l242 291h199l242 -291h-154zM729 1130q197 0 312 -126.5t115 -341.5v-662h-174v621q0 168 -77 259t-221 91q-142 0 -238 -106t-96 -262v-603h-175v1501h175v-546q65 83 163 129t216 46z" />
    <glyph glyph-name="Hbar" unicode="&#x126;" horiz-adv-x="1533" 
d="M1486 1240v-138h-170v-1102h-179v653h-742v-653h-180v1102h-163v138h163v194h180v-194h742v194h179v-194h170zM1137 822v280h-742v-280h742z" />
    <glyph glyph-name="hbar" unicode="&#x127;" horiz-adv-x="1314" 
d="M729 1130q197 0 312 -126.5t115 -341.5v-662h-174v621q0 168 -77 259t-221 91q-142 0 -238 -106t-96 -262v-603h-175v1217h-192v146h192v138h175v-138h380v-146h-380v-262q65 83 163 129t216 46z" />
    <glyph glyph-name="Itilde" unicode="&#x128;" horiz-adv-x="571" 
d="M445 1597q-44 0 -84 17t-59.5 33t-52.5 46q-24 24 -36.5 34.5t-34.5 22t-43 11.5q-36 0 -59.5 -36.5t-23.5 -95.5v-23h-102v28q0 115 48.5 182.5t134.5 67.5q44 0 81.5 -15t57 -31t48.5 -46q46 -46 69 -58q25 -13 54 -13q37 0 59 35.5t22 96.5v18h103v-22
q0 -115 -49 -183.5t-133 -68.5zM196 0v1434h179v-1434h-179z" />
    <glyph glyph-name="itilde" unicode="&#x129;" horiz-adv-x="524" 
d="M409 1244q-31 0 -57.5 8t-50 26t-36 30t-35.5 36q-46 47 -66 58q-18 9 -37 9q-35 0 -54.5 -25.5t-19.5 -70.5v-51h-114v41q0 111 44 174t133 63q42 0 79 -17.5t54 -34t46 -48.5q30 -34 52.5 -51t50.5 -17q33 0 52.5 26.5t19.5 73.5v44h114v-37q0 -113 -45.5 -175
t-129.5 -62zM175 0v1106h175v-1106h-175z" />
    <glyph glyph-name="Imacron" unicode="&#x12a;" horiz-adv-x="571" 
d="M33 1665v153h508v-153h-508zM196 0v1434h179v-1434h-179z" />
    <glyph glyph-name="imacron" unicode="&#x12b;" horiz-adv-x="524" 
d="M11 1328v139h503v-139h-503zM175 0v1106h175v-1106h-175z" />
    <glyph glyph-name="Ibreve" unicode="&#x12c;" horiz-adv-x="571" 
d="M287 1584q-135 0 -216.5 81t-81.5 220h137v-6q0 -85 43.5 -131t117.5 -46q73 0 114.5 46t41.5 131v6h141q0 -139 -81 -220t-216 -81zM196 0v1434h179v-1434h-179z" />
    <glyph glyph-name="ibreve" unicode="&#x12d;" horiz-adv-x="524" 
d="M264 1225q-139 0 -223 86.5t-84 235.5h137v-6q0 -94 46 -146t124 -52q77 0 122 52t45 146v6h140q0 -149 -84 -235.5t-223 -86.5zM175 0v1106h175v-1106h-175z" />
    <glyph glyph-name="Iogonek" unicode="&#x12e;" horiz-adv-x="571" 
d="M343 -346q56 0 105 20v-102q-70 -38 -154 -38q-106 0 -171.5 56.5t-65.5 148.5q0 74 36.5 143t102.5 120v1432h180v-1434q-87 -38 -136.5 -96t-49.5 -124q0 -58 41 -92t112 -34z" />
    <glyph glyph-name="iogonek" unicode="&#x12f;" horiz-adv-x="524" 
d="M357 1497v-200h-189v200h189zM283 -346q56 0 107 20v-102q-66 -38 -153 -38q-103 0 -171 56t-68 149q0 75 47 145t131 123v1099h174v-1082l2 -24q-100 -31 -159.5 -91t-59.5 -129q0 -59 41 -92.5t109 -33.5z" />
    <glyph glyph-name="Idotaccent" unicode="&#x130;" horiz-adv-x="571" 
d="M185 1614v200h200v-200h-200zM196 0v1434h179v-1434h-179z" />
    <glyph glyph-name="dotlessi" unicode="&#x131;" horiz-adv-x="524" 
d="M175 0v1106h175v-1106h-175z" />
    <glyph glyph-name="IJ" unicode="&#x132;" horiz-adv-x="1695" 
d="M196 0v1434h179v-1434h-179zM1026 -24q-214 0 -355 141.5t-141 357.5v29h178v-21q0 -144 90 -237.5t228 -93.5q134 0 223.5 94t89.5 237v951h178v-959q0 -217 -139 -358t-352 -141z" />
    <glyph glyph-name="ij" unicode="&#x133;" horiz-adv-x="1179" 
d="M168 1297v200h189v-200h-189zM824 1297v200h188v-200h-188zM175 0v1106h175v-1106h-175zM543 -395v159h66q106 0 163 58t57 164v1120h174v-1133q0 -166 -101 -267t-268 -101h-91z" />
    <glyph glyph-name="Jcircumflex" unicode="&#x134;" horiz-adv-x="1222" 
d="M1038 1885l211 -291h-147l-154 192l-155 -192h-145l211 291h179zM865 483v951h178v-959q0 -217 -138.5 -358t-351.5 -141q-214 0 -355 141.5t-141 357.5v29h177v-21q0 -144 90.5 -237.5t228.5 -93.5q134 0 223 94t89 237z" />
    <glyph glyph-name="jcircumflex" unicode="&#x135;" horiz-adv-x="548" 
d="M373 1547l212 -311h-147l-156 205l-155 -205h-145l212 311h179zM200 -1v1107h174v-1116q0 -167 -101.5 -268.5t-267.5 -101.5h-88v159h61q106 0 164 58t58 162z" />
    <glyph glyph-name="uni0136" unicode="&#x136;" horiz-adv-x="1300" 
d="M729 744l572 -744h-230l-505 657h-191v-657h-179v1434h179v-609h190l460 609h229zM607 -278v164h180v-150q0 -81 -48.5 -143.5t-122.5 -75.5l-2 83q41 10 64 42.5t23 79.5h-94z" />
    <glyph glyph-name="uni0137" unicode="&#x137;" horiz-adv-x="1132" 
d="M679 576l444 -576h-218l-379 496h-158v-496h-174v1501h174v-844h161l341 449h212zM495 -278v164h180v-150q0 -80 -49 -142.5t-123 -75.5v83q40 10 62.5 42t22.5 79h-93z" />
    <glyph glyph-name="kgreenlandic" unicode="&#x138;" horiz-adv-x="1105" 
d="M886 0l-378 496h-159v-496h-174v1106h174v-449h161l341 449h212l-403 -530l444 -576h-218z" />
    <glyph glyph-name="Lacute" unicode="&#x139;" horiz-adv-x="1048" 
d="M555 1885l-197 -291h-137l149 291h185zM375 168h630v-168h-809v1434h179v-1266z" />
    <glyph glyph-name="lacute" unicode="&#x13a;" horiz-adv-x="524" 
d="M177 1661l149 291h186l-198 -291h-137zM175 0v1501h175v-1501h-175z" />
    <glyph glyph-name="uni013B" unicode="&#x13b;" horiz-adv-x="1048" 
d="M375 168h630v-168h-809v1434h179v-1266zM499 -114h180v-150q0 -81 -48.5 -143.5t-122.5 -75.5l-2 83q41 10 64 42.5t23 79.5h-94v164z" />
    <glyph glyph-name="uni013C" unicode="&#x13c;" horiz-adv-x="524" 
d="M175 0v1501h175v-1501h-175zM179 -482v83q40 10 63 42t23 79h-94v164h180v-150q0 -80 -49 -142.5t-123 -75.5z" />
    <glyph glyph-name="Lcaron" unicode="&#x13d;" horiz-adv-x="1048" 
d="M751 1216q40 10 63 42t23 79h-93v164h180v-150q0 -80 -49.5 -143t-123.5 -76v84zM375 168h630v-168h-809v1434h179v-1266z" />
    <glyph glyph-name="lcaron" unicode="&#x13e;" horiz-adv-x="524" 
d="M175 0v1501h175v-1501h-175zM483 1132v84q40 10 63 42t23 79h-94v164h181v-150q0 -80 -49.5 -143t-123.5 -76z" />
    <glyph glyph-name="Ldot" unicode="&#x13f;" horiz-adv-x="1056" 
d="M375 168h630v-168h-809v1434h179v-1266zM875 817v-218h-200v218h200z" />
    <glyph glyph-name="ldot" unicode="&#x140;" horiz-adv-x="708" 
d="M175 0v1501h175v-1501h-175zM516 631v218h200v-218h-200z" />
    <glyph glyph-name="Lslash" unicode="&#x141;" horiz-adv-x="1048" 
d="M375 168h630v-168h-809v512l-174 -90v156l174 91v765h179v-670l437 229v-161l-437 -227v-437z" />
    <glyph glyph-name="lslash" unicode="&#x142;" horiz-adv-x="524" 
d="M556 1089v-163l-206 -121v-805h-175v704l-207 -120v163l207 120v634h175v-532z" />
    <glyph glyph-name="Nacute" unicode="&#x143;" horiz-adv-x="1533" 
d="M1027 1885l-198 -291h-137l150 291h185zM1163 1434h176v-1434h-151l-816 1119v-1119h-176v1434h162l805 -1106v1106z" />
    <glyph glyph-name="nacute" unicode="&#x144;" horiz-adv-x="1314" 
d="M896 1547l-186 -311h-137l138 311h185zM729 1130q194 0 310.5 -131t116.5 -337v-662h-174v621q0 168 -77 259t-221 91q-142 0 -238 -106t-96 -262v-603h-175v1106h124l34 -173q63 93 166 145t230 52z" />
    <glyph glyph-name="uni0145" unicode="&#x145;" horiz-adv-x="1533" 
d="M1163 1434h176v-1434h-151l-816 1119v-1119h-176v1434h162l805 -1106v1106zM678 -278v164h180v-150q0 -81 -48.5 -143.5t-122.5 -75.5l-1 83q41 10 63.5 42.5t22.5 79.5h-94z" />
    <glyph glyph-name="uni0146" unicode="&#x146;" horiz-adv-x="1314" 
d="M729 1130q194 0 310.5 -131t116.5 -337v-662h-174v621q0 168 -77 259t-221 91q-142 0 -238 -106t-96 -262v-603h-175v1106h124l34 -173q63 93 166 145t230 52zM569 -278v164h180v-150q0 -80 -49 -142.5t-124 -75.5v83q40 10 63 42t23 79h-93z" />
    <glyph glyph-name="Ncaron" unicode="&#x147;" horiz-adv-x="1533" 
d="M878 1594h-199l-242 291h154l187 -192l189 192h154zM1163 1434h176v-1434h-151l-816 1119v-1119h-176v1434h162l805 -1106v1106z" />
    <glyph glyph-name="ncaron" unicode="&#x148;" horiz-adv-x="1314" 
d="M771 1236h-199l-242 311h154l188 -206l190 206h154zM729 1130q194 0 310.5 -131t116.5 -337v-662h-174v621q0 168 -77 259t-221 91q-142 0 -238 -106t-96 -262v-603h-175v1106h124l34 -173q63 93 166 145t230 52z" />
    <glyph glyph-name="Eng" unicode="&#x14a;" horiz-adv-x="1533" 
d="M872 -389v166h58q108 0 176 67t68 174l-802 1102v-1120h-176v1434h162l805 -1108v1108h176v-1395q0 -202 -112 -315t-312 -113h-43z" />
    <glyph glyph-name="eng" unicode="&#x14b;" horiz-adv-x="1314" 
d="M729 1128q197 0 312 -126t115 -341v-660q0 -182 -106 -289t-288 -107h-64v159h39q114 0 179.5 66.5t65.5 180.5v608q0 170 -77 261t-221 91q-141 0 -237.5 -106.5t-96.5 -262.5v-602h-175v1106h124l34 -175q63 93 166 145t230 52z" />
    <glyph glyph-name="Omacron" unicode="&#x14c;" horiz-adv-x="1697" 
d="M529 1665v149h641v-149h-641zM848 -24q-214 0 -385.5 96.5t-268 266t-96.5 378.5t96.5 378.5t268 266t385.5 96.5t386 -96.5t268.5 -266t96.5 -378.5t-96.5 -378.5t-268.5 -266t-386 -96.5zM848 152q161 0 291 73.5t203 203t73 288.5t-73 288.5t-203 203t-291 73.5
q-160 0 -290 -74t-203 -203t-73 -288t73 -288t203 -203t290 -74z" />
    <glyph glyph-name="omacron" unicode="&#x14d;" horiz-adv-x="1349" 
d="M353 1328v139h641v-139h-641zM674 -24q-251 0 -418.5 164.5t-167.5 412.5q0 164 76 296t210.5 206.5t299.5 74.5t299.5 -74.5t211 -207t76.5 -295.5t-76.5 -295.5t-211 -207t-299.5 -74.5zM674 144q178 0 293.5 115.5t115.5 293.5t-115.5 293.5t-293.5 115.5t-293 -115.5
t-115 -293.5t115 -293.5t293 -115.5z" />
    <glyph glyph-name="Obreve" unicode="&#x14e;" horiz-adv-x="1697" 
d="M848 1584q-144 0 -231 81t-87 220h137v-6q0 -85 49 -131t132 -46t130.5 46t47.5 131v6h141q0 -139 -87 -220t-232 -81zM848 -24q-214 0 -385.5 96.5t-268 266t-96.5 378.5t96.5 378.5t268 266t385.5 96.5t386 -96.5t268.5 -266t96.5 -378.5t-96.5 -378.5t-268.5 -266
t-386 -96.5zM848 152q161 0 291 73.5t203 203t73 288.5t-73 288.5t-203 203t-291 73.5q-160 0 -290 -74t-203 -203t-73 -288t73 -288t203 -203t290 -74z" />
    <glyph glyph-name="obreve" unicode="&#x14f;" horiz-adv-x="1349" 
d="M674 1225q-148 0 -237.5 86.5t-89.5 235.5h137v-6q0 -94 51.5 -146t138.5 -52t137 52t50 146v6h141q0 -149 -90 -235.5t-238 -86.5zM674 -24q-251 0 -418.5 164.5t-167.5 412.5q0 164 76 296t210.5 206.5t299.5 74.5t299.5 -74.5t211 -207t76.5 -295.5t-76.5 -295.5
t-211 -207t-299.5 -74.5zM674 144q178 0 293.5 115.5t115.5 293.5t-115.5 293.5t-293.5 115.5t-293 -115.5t-115 -293.5t115 -293.5t293 -115.5z" />
    <glyph glyph-name="Ohungarumlaut" unicode="&#x150;" horiz-adv-x="1697" 
d="M591 1594l129 291h165l-164 -291h-130zM931 1594l166 291h173l-207 -291h-132zM848 -24q-214 0 -385.5 96.5t-268 266t-96.5 378.5t96.5 378.5t268 266t385.5 96.5t386 -96.5t268.5 -266t96.5 -378.5t-96.5 -378.5t-268.5 -266t-386 -96.5zM848 152q161 0 291 73.5
t203 203t73 288.5t-73 288.5t-203 203t-291 73.5q-160 0 -290 -74t-203 -203t-73 -288t73 -288t203 -203t290 -74z" />
    <glyph glyph-name="ohungarumlaut" unicode="&#x151;" horiz-adv-x="1349" 
d="M414 1236l128 311h177l-172 -311h-133zM773 1236l156 311h171l-198 -311h-129zM674 -24q-251 0 -418.5 164.5t-167.5 412.5q0 164 76 296t210.5 206.5t299.5 74.5t299.5 -74.5t211 -207t76.5 -295.5t-76.5 -295.5t-211 -207t-299.5 -74.5zM674 144q178 0 293.5 115.5
t115.5 293.5t-115.5 293.5t-293.5 115.5t-293 -115.5t-115 -293.5t115 -293.5t293 -115.5z" />
    <glyph glyph-name="OE" unicode="&#x152;" horiz-adv-x="1964" 
d="M1196 168h667v-168h-849v2q-110 -26 -219 -26q-143 0 -271.5 56.5t-222 154t-148.5 236t-55 294.5q0 155 54 292.5t146.5 236t222 155.5t274.5 57q115 0 219 -25v1h827v-167h-645v-452h591v-162h-591v-485zM818 154q101 0 196 16v1090q-111 22 -202 22q-147 0 -269 -74
t-191.5 -203.5t-69.5 -287.5q0 -251 151.5 -407t384.5 -156z" />
    <glyph glyph-name="oe" unicode="&#x153;" horiz-adv-x="2281" 
d="M2197 552q0 -20 -4 -66h-943q20 -153 126 -245.5t263 -92.5q114 0 204 49.5t141 139.5h183q-71 -171 -209.5 -266t-318.5 -95q-153 0 -278.5 72t-198.5 198q-74 -125 -203 -196.5t-287 -71.5q-164 0 -298 74.5t-210 206t-76 294.5q0 249 167 413t417 164q158 0 287 -72
t203 -197q73 125 198.5 197t278.5 72q159 0 287 -75.5t199.5 -207.5t71.5 -295zM1639 967q-151 0 -255 -88t-130 -234h769q-26 147 -130.5 234.5t-253.5 87.5zM672 144q175 0 290 116t115 293t-115 293t-290 116q-176 0 -291 -115.5t-115 -293.5t115 -293.5t291 -115.5z" />
    <glyph glyph-name="Racute" unicode="&#x154;" horiz-adv-x="1318" 
d="M861 1885l-198 -291h-137l149 291h186zM1031 0l-329 561h-327v-561h-179v1434h543q202 0 334.5 -124t132.5 -315q0 -150 -86 -260.5t-230 -152.5l343 -582h-202zM375 1263v-532h355q131 0 212 74.5t81 191.5q0 116 -81.5 191t-211.5 75h-355z" />
    <glyph glyph-name="racute" unicode="&#x155;" horiz-adv-x="790" 
d="M696 1549l-187 -311h-137l138 311h186zM681 1112h98v-165h-113q-150 0 -233 -92t-83 -254v-601h-175v1106h124l28 -168q120 174 354 174z" />
    <glyph glyph-name="uni0156" unicode="&#x156;" horiz-adv-x="1318" 
d="M890 582l343 -582h-202l-329 561h-327v-561h-179v1434h543q202 0 334.5 -124t132.5 -315q0 -150 -86 -260.5t-230 -152.5zM375 1263v-532h355q131 0 212 74.5t81 191.5q0 116 -81.5 191t-211.5 75h-355zM593 -278v164h180v-150q0 -81 -48.5 -143.5t-122.5 -75.5l-1 83
q41 10 63.5 42.5t22.5 79.5h-94z" />
    <glyph glyph-name="uni0157" unicode="&#x157;" horiz-adv-x="790" 
d="M681 1112h98v-165h-113q-150 0 -233 -92t-83 -254v-601h-175v1106h124l28 -168q120 174 354 174zM173 -278v164h180v-150q0 -80 -49 -142.5t-123 -75.5v83q40 10 62.5 42t22.5 79h-93z" />
    <glyph glyph-name="Rcaron" unicode="&#x158;" horiz-adv-x="1318" 
d="M712 1594h-199l-243 291h155l186 -192l189 192h154zM1031 0l-329 561h-327v-561h-179v1434h543q202 0 334.5 -124t132.5 -315q0 -150 -86 -260.5t-230 -152.5l343 -582h-202zM375 1263v-532h355q131 0 212 74.5t81 191.5q0 116 -81.5 191t-211.5 75h-355z" />
    <glyph glyph-name="rcaron" unicode="&#x159;" horiz-adv-x="790" 
d="M571 1238h-199l-242 311h154l188 -207l189 207h154zM327 938q120 174 354 174h98v-165h-113q-150 0 -233 -92t-83 -254v-601h-175v1106h124z" />
    <glyph glyph-name="Sacute" unicode="&#x15a;" horiz-adv-x="1222" 
d="M508 1594l149 291h185l-197 -291h-137zM623 -18q-238 0 -383.5 125t-145.5 335h183q0 -131 96 -207.5t248 -76.5q138 0 230 67.5t92 179.5q0 27 -7 51.5t-16 43t-28.5 35.5t-35 29t-45.5 24.5t-48.5 20t-56.5 17.5l-57 15t-62 15q-183 44 -262 81q-173 83 -199 249
q-5 32 -5 67q0 185 132 292t356 107q222 0 350.5 -114.5t128.5 -310.5h-178q0 117 -85.5 185t-219.5 68q-133 0 -218.5 -59.5t-85.5 -159.5q0 -33 10.5 -60.5t25.5 -48t44 -39t53 -30t66.5 -24.5t70.5 -20t78 -19q183 -45 262 -82q178 -82 210 -247q8 -39 8 -84
q0 -132 -67.5 -229.5t-181 -146.5t-257.5 -49z" />
    <glyph glyph-name="sacute" unicode="&#x15b;" horiz-adv-x="1050" 
d="M423 1236l138 311h186l-187 -311h-137zM525 -24q-196 0 -315 98t-126 265h170q7 -96 82.5 -149t194.5 -53q115 0 187.5 46t72.5 126q0 31 -10 56t-32 42.5t-44 30t-60.5 22.5t-66 15.5t-74.5 13.5q-37 6 -57.5 10t-56 12t-56.5 15t-52 18t-49.5 24t-41.5 30.5t-36.5 38.5
t-26.5 46.5t-18.5 57.5t-5.5 69q0 143 115 231.5t302 88.5t299.5 -92.5t117.5 -249.5h-165q-5 90 -72 138.5t-184 48.5q-112 0 -178 -43.5t-66 -115.5q0 -28 9 -50.5t30 -38.5t42 -27t58 -20t63 -14t73 -12q164 -27 235 -57q164 -69 178 -242q2 -19 2 -38q0 -155 -120 -248
t-318 -93z" />
    <glyph glyph-name="Scircumflex" unicode="&#x15c;" horiz-adv-x="1222" 
d="M936 1594h-154l-189 193l-187 -193h-154l243 291h198zM623 -18q-238 0 -383.5 125t-145.5 335h183q0 -131 96 -207.5t248 -76.5q138 0 230 67.5t92 179.5q0 27 -7 51.5t-16 43t-28.5 35.5t-35 29t-45.5 24.5t-48.5 20t-56.5 17.5l-57 15t-62 15q-183 44 -262 81
q-173 83 -199 249q-5 32 -5 67q0 185 132 292t356 107q222 0 350.5 -114.5t128.5 -310.5h-178q0 117 -85.5 185t-219.5 68q-133 0 -218.5 -59.5t-85.5 -159.5q0 -33 10.5 -60.5t25.5 -48t44 -39t53 -30t66.5 -24.5t70.5 -20t78 -19q183 -45 262 -82q178 -82 210 -247
q8 -39 8 -84q0 -132 -67.5 -229.5t-181 -146.5t-257.5 -49z" />
    <glyph glyph-name="scircumflex" unicode="&#x15d;" horiz-adv-x="1050" 
d="M868 1236h-154l-189 206l-189 -206h-154l243 311h199zM525 -24q-196 0 -315 98t-126 265h170q7 -96 82.5 -149t194.5 -53q115 0 187.5 46t72.5 126q0 31 -10 56t-32 42.5t-44 30t-60.5 22.5t-66 15.5t-74.5 13.5q-37 6 -57.5 10t-56 12t-56.5 15t-52 18t-49.5 24
t-41.5 30.5t-36.5 38.5t-26.5 46.5t-18.5 57.5t-5.5 69q0 143 115 231.5t302 88.5t299.5 -92.5t117.5 -249.5h-165q-5 90 -72 138.5t-184 48.5q-112 0 -178 -43.5t-66 -115.5q0 -28 9 -50.5t30 -38.5t42 -27t58 -20t63 -14t73 -12q164 -27 235 -57q164 -69 178 -242
q2 -19 2 -38q0 -155 -120 -248t-318 -93z" />
    <glyph glyph-name="Scedilla" unicode="&#x15e;" horiz-adv-x="1222" 
d="M1129 407q0 -185 -125 -296.5t-324 -126.5l-22 -81q84 -12 135.5 -64t51.5 -126q0 -86 -70 -141t-178 -55h-138v107h136q50 0 81 25.5t31 65.5t-32 66t-82 26h-54l-20 26l39 151q-211 17 -337.5 140t-126.5 318h183q0 -131 96 -207.5t248 -76.5q138 0 230 67.5t92 179.5
q0 27 -7 51.5t-16 43t-28.5 35.5t-35 29t-45.5 24.5t-48.5 20t-56.5 17.5l-57 15t-62 15q-183 44 -262 81q-173 83 -199 249q-5 32 -5 67q0 185 132 292t356 107q222 0 350.5 -114.5t128.5 -310.5h-178q0 117 -85.5 185t-219.5 68q-133 0 -218.5 -59.5t-85.5 -159.5
q0 -33 10.5 -60.5t25.5 -48t44 -39t53 -30t66.5 -24.5t70.5 -20t78 -19q183 -45 262 -82q178 -82 210 -247q8 -39 8 -84z" />
    <glyph glyph-name="scedilla" unicode="&#x15f;" horiz-adv-x="1050" 
d="M963 317q0 -142 -102.5 -233.5t-274.5 -105.5l-21 -78q86 -10 139.5 -62.5t53.5 -129.5q0 -87 -62.5 -141t-165.5 -54h-151v101h130q53 0 86.5 27.5t33.5 71.5t-33 71t-87 27h-52l-19 19l38 148q-176 13 -280.5 109t-111.5 252h170q7 -96 82.5 -149t194.5 -53
q115 0 187.5 46t72.5 126q0 31 -10 56t-32 42.5t-44 30t-60.5 22.5t-66 15.5t-74.5 13.5q-37 6 -57.5 10t-56 12t-56.5 15t-52 18t-49.5 24t-41.5 30.5t-36.5 38.5t-26.5 46.5t-18.5 57.5t-5.5 69q0 143 115 231.5t302 88.5t299.5 -92.5t117.5 -249.5h-165q-5 90 -72 138.5
t-184 48.5q-112 0 -178 -43.5t-66 -115.5q0 -28 9 -50.5t30 -38.5t42 -27t58 -20t63 -14t73 -12q164 -27 235 -57q164 -69 178 -242q2 -19 2 -38z" />
    <glyph glyph-name="Scaron" unicode="&#x160;" horiz-adv-x="1222" 
d="M782 1885h154l-243 -291h-198l-243 291h154l187 -192zM623 -18q-238 0 -383.5 125t-145.5 335h183q0 -131 96 -207.5t248 -76.5q138 0 230 67.5t92 179.5q0 27 -7 51.5t-16 43t-28.5 35.5t-35 29t-45.5 24.5t-48.5 20t-56.5 17.5l-57 15t-62 15q-183 44 -262 81
q-173 83 -199 249q-5 32 -5 67q0 185 132 292t356 107q222 0 350.5 -114.5t128.5 -310.5h-178q0 117 -85.5 185t-219.5 68q-133 0 -218.5 -59.5t-85.5 -159.5q0 -33 10.5 -60.5t25.5 -48t44 -39t53 -30t66.5 -24.5t70.5 -20t78 -19q183 -45 262 -82q178 -82 210 -247
q8 -39 8 -84q0 -132 -67.5 -229.5t-181 -146.5t-257.5 -49z" />
    <glyph glyph-name="scaron" unicode="&#x161;" horiz-adv-x="1050" 
d="M712 1547h154l-244 -311h-199l-242 311h154l188 -206zM525 -24q-196 0 -315 98t-126 265h170q7 -96 82.5 -149t194.5 -53q115 0 187.5 46t72.5 126q0 31 -10 56t-32 42.5t-44 30t-60.5 22.5t-66 15.5t-74.5 13.5q-37 6 -57.5 10t-56 12t-56.5 15t-52 18t-49.5 24
t-41.5 30.5t-36.5 38.5t-26.5 46.5t-18.5 57.5t-5.5 69q0 143 115 231.5t302 88.5t299.5 -92.5t117.5 -249.5h-165q-5 90 -72 138.5t-184 48.5q-112 0 -178 -43.5t-66 -115.5q0 -28 9 -50.5t30 -38.5t42 -27t58 -20t63 -14t73 -12q164 -27 235 -57q164 -69 178 -242
q2 -19 2 -38q0 -155 -120 -248t-318 -93z" />
    <glyph glyph-name="uni0162" unicode="&#x162;" horiz-adv-x="1138" 
d="M659 0h-32l-25 -87q84 -12 136 -64t52 -126q0 -86 -70 -141.5t-178 -55.5h-138v107h136q49 0 80.5 25.5t31.5 66.5q0 39 -32 65t-82 26h-53l-22 27l41 157h-25v1265h-436v169h1052v-169h-436v-1265z" />
    <glyph glyph-name="uni0163" unicode="&#x163;" horiz-adv-x="806" 
d="M560 -87q86 -10 139.5 -62.5t53.5 -129.5q0 -87 -62.5 -141t-165.5 -54h-151v101h130q53 0 86.5 27.5t33.5 71.5t-33 71t-87 27h-52l-19 19l45 173q-121 33 -189 130t-68 241v562h-194v27l345 364h24v-234h348v-157h-348v-557q0 -112 59.5 -171.5t172.5 -59.5h123v-161
h-145h-22z" />
    <glyph glyph-name="Tcaron" unicode="&#x164;" horiz-adv-x="1138" 
d="M669 1594h-199l-243 291h154l187 -192l189 192h154zM1095 1434v-169h-436v-1265h-180v1265h-436v169h1052z" />
    <glyph glyph-name="tcaron" unicode="&#x165;" horiz-adv-x="815" 
d="M765 1501h180v-150q0 -81 -48.5 -143.5t-122.5 -75.5l-2 82q41 10 64 43t23 80h-94v164zM396 392q0 -112 59.5 -171.5t172.5 -59.5h121v-161h-143q-179 0 -282 103.5t-103 283.5v562h-194v27l345 364h24v-234h324v-157h-324v-557z" />
    <glyph glyph-name="Tbar" unicode="&#x166;" horiz-adv-x="1138" 
d="M1095 1265h-436v-458h311v-157h-311v-650h-180v650h-308v157h308v458h-436v169h1052v-169z" />
    <glyph glyph-name="tbar" unicode="&#x167;" horiz-adv-x="841" 
d="M657 161h120v-161h-143q-179 0 -281.5 103.5t-102.5 283.5v106h-195v157h195v299h-195v31l342 360h27v-234h347v-157h-347v-299h344v-157h-344v-101q0 -112 60 -171.5t173 -59.5z" />
    <glyph glyph-name="Utilde" unicode="&#x168;" horiz-adv-x="1482" 
d="M892 1597q-66 0 -111.5 26.5t-92.5 73.5q-23 22 -36 33t-32.5 21t-38.5 10q-42 0 -69 -35.5t-27 -96.5v-23h-108v28q0 115 53.5 182.5t148.5 67.5q41 0 78 -15.5t55 -30t51 -45.5q35 -36 63 -54t64 -18q43 0 68.5 34.5t25.5 97.5v18h111v-22q0 -115 -55 -183.5
t-148 -68.5zM743 -24q-244 0 -404 157t-160 401v900h182v-887q0 -176 106.5 -285.5t275.5 -109.5q167 0 273.5 109.5t106.5 285.5v887h182v-900q0 -161 -73 -289t-201.5 -198.5t-287.5 -70.5z" />
    <glyph glyph-name="utilde" unicode="&#x169;" horiz-adv-x="1294" 
d="M795 1250q-44 0 -83.5 16t-61 33t-52.5 47q-26 24 -37.5 33.5t-31.5 19.5t-40 10q-41 0 -67.5 -35.5t-26.5 -92.5v-22h-106v26q0 113 53 179.5t145 66.5q42 0 78 -14.5t56.5 -31.5t49.5 -46q33 -35 60 -52t62 -17q42 0 67 35.5t25 94.5v18h109v-22q0 -112 -54 -179
t-145 -67zM647 -24q-223 0 -356.5 134t-133.5 357v639h174v-611q0 -163 85 -257t231 -94q147 0 231.5 94.5t84.5 256.5v611h174v-639q0 -223 -133 -357t-357 -134z" />
    <glyph glyph-name="Umacron" unicode="&#x16a;" horiz-adv-x="1482" 
d="M423 1664v150h641v-150h-641zM743 -24q-244 0 -404 157t-160 401v900h182v-887q0 -176 106.5 -285.5t275.5 -109.5q167 0 273.5 109.5t106.5 285.5v887h182v-900q0 -161 -73 -289t-201.5 -198.5t-287.5 -70.5z" />
    <glyph glyph-name="umacron" unicode="&#x16b;" horiz-adv-x="1294" 
d="M325 1328v139h641v-139h-641zM647 -24q-223 0 -356.5 134t-133.5 357v639h174v-611q0 -163 85 -257t231 -94q147 0 231.5 94.5t84.5 256.5v611h174v-639q0 -223 -133 -357t-357 -134z" />
    <glyph glyph-name="Ubreve" unicode="&#x16c;" horiz-adv-x="1482" 
d="M743 1584q-144 0 -231 81t-87 220h136v-6q0 -85 49.5 -131t132.5 -46t130 46t47 131v6h141q0 -139 -87 -220t-231 -81zM743 -24q-244 0 -404 157t-160 401v900h182v-887q0 -176 106.5 -285.5t275.5 -109.5q167 0 273.5 109.5t106.5 285.5v887h182v-900q0 -161 -73 -289
t-201.5 -198.5t-287.5 -70.5z" />
    <glyph glyph-name="ubreve" unicode="&#x16d;" horiz-adv-x="1294" 
d="M647 1225q-148 0 -237.5 86.5t-89.5 235.5h136v-6q0 -94 52 -146t139 -52t137 52t50 146v6h140q0 -149 -89.5 -235.5t-237.5 -86.5zM647 -24q-223 0 -356.5 134t-133.5 357v639h174v-611q0 -163 85 -257t231 -94q147 0 231.5 94.5t84.5 256.5v611h174v-639
q0 -223 -133 -357t-357 -134z" />
    <glyph glyph-name="Uring" unicode="&#x16e;" horiz-adv-x="1482" 
d="M743 1559q-110 0 -180 66.5t-70 168.5q0 103 69.5 167.5t180.5 64.5q109 0 178 -64.5t69 -167.5q0 -102 -69.5 -168.5t-177.5 -66.5zM743 1664q58 0 95.5 36.5t37.5 93.5q0 58 -37 93.5t-96 35.5q-60 0 -98 -35.5t-38 -93.5q0 -57 38 -93.5t98 -36.5zM743 -24
q-244 0 -404 157t-160 401v900h182v-887q0 -176 106.5 -285.5t275.5 -109.5q167 0 273.5 109.5t106.5 285.5v887h182v-900q0 -161 -73 -289t-201.5 -198.5t-287.5 -70.5z" />
    <glyph glyph-name="uring" unicode="&#x16f;" horiz-adv-x="1294" 
d="M647 1208q-103 0 -168.5 62t-65.5 158q0 97 65.5 158.5t168.5 61.5t168.5 -61.5t65.5 -158.5q0 -96 -65.5 -158t-168.5 -62zM647 1307q56 0 91.5 33.5t35.5 87.5q0 55 -35.5 88.5t-91.5 33.5t-91.5 -33.5t-35.5 -88.5q0 -54 35.5 -87.5t91.5 -33.5zM647 -24
q-223 0 -356.5 134t-133.5 357v639h174v-611q0 -163 85 -257t231 -94q147 0 231.5 94.5t84.5 256.5v611h174v-639q0 -223 -133 -357t-357 -134z" />
    <glyph glyph-name="Uhungarumlaut" unicode="&#x170;" horiz-adv-x="1482" 
d="M485 1594l129 291h165l-164 -291h-130zM826 1594l166 291h172l-207 -291h-131zM743 -24q-244 0 -404 157t-160 401v900h182v-887q0 -176 106.5 -285.5t275.5 -109.5q167 0 273.5 109.5t106.5 285.5v887h182v-900q0 -161 -73 -289t-201.5 -198.5t-287.5 -70.5z" />
    <glyph glyph-name="uhungarumlaut" unicode="&#x171;" horiz-adv-x="1294" 
d="M386 1236l129 311h176l-171 -311h-134zM745 1236l157 311h171l-198 -311h-130zM647 -24q-223 0 -356.5 134t-133.5 357v639h174v-611q0 -163 85 -257t231 -94q147 0 231.5 94.5t84.5 256.5v611h174v-639q0 -223 -133 -357t-357 -134z" />
    <glyph glyph-name="Uogonek" unicode="&#x172;" horiz-adv-x="1480" 
d="M1123 1434h180v-896q0 -104 -29.5 -191t-82 -149.5t-114.5 -106.5t-139 -76q-85 -36 -141 -100t-56 -133q0 -61 44 -95.5t113 -34.5q51 0 101 22v-103q-73 -37 -159 -37q-107 0 -177.5 56.5t-70.5 152.5q0 60 29.5 124.5t81.5 113.5q-230 12 -377 167.5t-147 389.5v896
h180v-889q0 -173 106.5 -280t275.5 -107t275.5 107t106.5 280v889z" />
    <glyph glyph-name="uogonek" unicode="&#x173;" horiz-adv-x="1292" 
d="M961 1106h174v-638q0 -303 -275 -444q-81 -41 -129.5 -103.5t-48.5 -127.5q0 -61 42 -95.5t111 -34.5q45 0 105 20v-103q-70 -37 -150 -37q-102 0 -170.5 57t-68.5 154q0 61 25 120.5t65 103.5h-18q-200 0 -333 140t-133 354v634h174v-613q0 -161 84 -254t230 -93t231 93
t85 254v613z" />
    <glyph glyph-name="Wcircumflex" unicode="&#x174;" horiz-adv-x="2103" 
d="M1047 1787l-187 -193h-154l243 291h198l243 -291h-154zM1865 1434h190l-452 -1434h-159l-394 1019l-385 -1019h-158l-462 1434h191l357 -1139l420 1111h72l432 -1112z" />
    <glyph glyph-name="wcircumflex" unicode="&#x175;" horiz-adv-x="1738" 
d="M865 1442l-188 -206h-154l242 311h199l245 -311h-154zM1524 1106h176l-377 -1106h-142l-312 754l-313 -754h-141l-374 1106h182l275 -815l339 798h63l341 -805z" />
    <glyph glyph-name="Ycircumflex" unicode="&#x176;" horiz-adv-x="1347" 
d="M673 1787l-186 -193h-154l242 291h199l243 -291h-155zM1295 1434l-529 -862v-572h-185v572l-525 862h196l422 -693l424 693h197z" />
    <glyph glyph-name="ycircumflex" unicode="&#x177;" horiz-adv-x="1200" 
d="M606 1442l-188 -206h-154l243 311h198l245 -311h-154zM984 1106h185l-527 -1152q-90 -197 -183.5 -273t-249.5 -76h-104v158h89q110 0 166 45t123 185l40 82l-492 1031h190l393 -837z" />
    <glyph glyph-name="Ydieresis" unicode="&#x178;" horiz-adv-x="1347" 
d="M352 1614v200h200v-200h-200zM797 1614v200h200v-200h-200zM1295 1434l-529 -862v-572h-185v572l-525 862h196l422 -693l424 693h197z" />
    <glyph glyph-name="Zacute" unicode="&#x179;" horiz-adv-x="1153" 
d="M852 1885l-197 -291h-137l149 291h185zM339 168h760v-168h-1046v31l740 1234h-708v169h992v-35z" />
    <glyph glyph-name="zacute" unicode="&#x17a;" horiz-adv-x="985" 
d="M733 1547l-186 -311h-137l138 311h185zM332 163h586v-163h-867v26l587 919h-548v161h825v-29z" />
    <glyph glyph-name="Zdotaccent" unicode="&#x17b;" horiz-adv-x="1153" 
d="M705 1814v-200h-200v200h200zM339 168h760v-168h-1046v31l740 1234h-708v169h992v-35z" />
    <glyph glyph-name="zdotaccent" unicode="&#x17c;" horiz-adv-x="985" 
d="M604 1497v-200h-189v200h189zM332 163h586v-163h-867v26l587 919h-548v161h825v-29z" />
    <glyph glyph-name="Zcaron" unicode="&#x17d;" horiz-adv-x="1153" 
d="M703 1594h-198l-243 291h154l187 -192l189 192h154zM339 168h760v-168h-1046v31l740 1234h-708v169h992v-35z" />
    <glyph glyph-name="zcaron" unicode="&#x17e;" horiz-adv-x="985" 
d="M608 1236h-199l-242 311h154l188 -206l189 206h155zM332 163h586v-163h-867v26l587 919h-548v161h825v-29z" />
    <glyph glyph-name="longs" unicode="&#x17f;" horiz-adv-x="565" 
d="M175 0v1204q0 143 78 220t223 77h192v-159h-142q-91 0 -133.5 -42.5t-42.5 -132.5v-1167h-175z" />
    <glyph glyph-name="florin" unicode="&#x192;" horiz-adv-x="890" 
d="M698 1240q-79 0 -134 -45.5t-63 -118.5l-22 -162h310l-20 -134h-305l-132 -920q-18 -131 -108 -209t-222 -78h-113l21 151h68q78 0 129 46t64 126l125 884h-201l19 134h201l25 181q17 124 107.5 199t221.5 75h181l-15 -129h-137z" />
    <glyph glyph-name="AEacute" unicode="&#x1fc;" horiz-adv-x="1835" 
d="M1280 1885l-198 -291h-137l150 291h185zM1078 172h655v-172h-835v318h-524l-190 -318h-214l861 1434h879v-171h-632v-444h579v-167h-579v-480zM472 483h426v715z" />
    <glyph glyph-name="aeacute" unicode="&#x1fd;" horiz-adv-x="2267" 
d="M1378 1547l-186 -311h-137l138 311h185zM2182 552q0 -21 -4 -67h-945q20 -153 126 -245t265 -92q114 0 204 49.5t141 139.5h183q-71 -171 -209.5 -266t-318.5 -95q-123 0 -228 50t-180 140l-10 -170h-127l-8 151q-75 -81 -178.5 -125t-224.5 -44q-163 0 -296 75
t-208.5 207t-75.5 293t75 293t208 207t297 75q121 0 225 -44.5t179 -126.5l9 153h127l9 -171q75 89 180 139t227 50q241 0 399.5 -165t158.5 -411zM1624 965q-151 0 -255.5 -88t-131.5 -233h771q-26 146 -130.5 233.5t-253.5 87.5zM668 146q175 0 288.5 115t113.5 292
q0 178 -113 292.5t-289 114.5q-174 0 -288 -115.5t-114 -291.5t114 -291.5t288 -115.5z" />
    <glyph glyph-name="Oslashacute" unicode="&#x1fe;" horiz-adv-x="1710" 
d="M1099 1885l-197 -291h-138l150 291h185zM1314 1309q139 -100 218.5 -255t79.5 -339q0 -207 -97 -374.5t-268.5 -263t-382.5 -95.5q-166 0 -309 61l-103 -170h-195l150 243q-145 98 -228 255t-83 344q0 208 97.5 377t269.5 265.5t383 96.5q174 0 322 -68l105 175h195z
M280 717q0 -139 59 -257t163 -194l578 967q-110 45 -234 45q-119 0 -224.5 -43.5t-180 -118t-118 -178.5t-43.5 -221zM860 158q242 0 404 159t162 398q0 136 -54.5 250.5t-150.5 191.5l-576 -961q103 -38 215 -38z" />
    <glyph glyph-name="oslashacute" unicode="&#x1ff;" horiz-adv-x="1351" 
d="M899 1547l-187 -311h-137l138 311h186zM1009 1031q118 -76 186 -201.5t68 -276.5q0 -161 -74.5 -292t-206 -205t-293.5 -74q-127 0 -232 45l-84 -152h-161l117 209q-114 77 -178.5 199t-64.5 270q0 161 75.5 292.5t208 206t294.5 74.5q110 0 214 -40l77 145h161zM664 967
q-178 0 -293 -117.5t-115 -296.5q0 -104 39.5 -189t113.5 -141l395 720q-69 24 -140 24zM689 141q175 0 290 116.5t115 295.5q0 106 -43.5 192t-121.5 142l-395 -716q74 -30 155 -30z" />
    <glyph glyph-name="uni0218" unicode="&#x218;" horiz-adv-x="1222" 
d="M623 -18q-238 0 -383.5 125t-145.5 335h183q0 -131 96 -207.5t248 -76.5q138 0 230 67.5t92 179.5q0 27 -7 51.5t-16 43t-28.5 35.5t-35 29t-45.5 24.5t-48.5 20t-56.5 17.5l-57 15t-62 15q-183 44 -262 81q-173 83 -199 249q-5 32 -5 67q0 185 132 292t356 107
q222 0 350.5 -114.5t128.5 -310.5h-178q0 117 -85.5 185t-219.5 68q-133 0 -218.5 -59.5t-85.5 -159.5q0 -33 10.5 -60.5t25.5 -48t44 -39t53 -30t66.5 -24.5t70.5 -20t78 -19q183 -45 262 -82q178 -82 210 -247q8 -39 8 -84q0 -132 -67.5 -229.5t-181 -146.5t-257.5 -49z
M560 -492l-2 82q41 10 64 43t23 80h-94v163h180v-150q0 -80 -48.5 -142.5t-122.5 -75.5z" />
    <glyph glyph-name="uni0219" unicode="&#x219;" horiz-adv-x="1050" 
d="M525 -24q-196 0 -315 98t-126 265h170q7 -96 82.5 -149t194.5 -53q115 0 187.5 46t72.5 126q0 31 -10 56t-32 42.5t-44 30t-60.5 22.5t-66 15.5t-74.5 13.5q-37 6 -57.5 10t-56 12t-56.5 15t-52 18t-49.5 24t-41.5 30.5t-36.5 38.5t-26.5 46.5t-18.5 57.5t-5.5 69
q0 143 115 231.5t302 88.5t299.5 -92.5t117.5 -249.5h-165q-5 90 -72 138.5t-184 48.5q-112 0 -178 -43.5t-66 -115.5q0 -28 9 -50.5t30 -38.5t42 -27t58 -20t63 -14t73 -12q164 -27 235 -57q164 -69 178 -242q2 -19 2 -38q0 -155 -120 -248t-318 -93zM472 -496v84
q40 10 62.5 42t22.5 79h-93v164h180v-150q0 -80 -49 -143t-123 -76z" />
    <glyph glyph-name="uni021A" unicode="&#x21a;" horiz-adv-x="1138" 
d="M43 1434h1052v-169h-436v-1265h-180v1265h-436v169zM479 -114h180v-150q0 -81 -48.5 -143.5t-122.5 -75.5l-1 83q41 10 63.5 42.5t22.5 79.5h-94v164z" />
    <glyph glyph-name="uni021B" unicode="&#x21b;" horiz-adv-x="811" 
d="M634 161h120v-161h-143q-179 0 -281.5 103.5t-102.5 283.5v562h-195v31l342 360h27v-234h347v-157h-347v-557q0 -112 60 -171.5t173 -59.5zM410 -278v164h180v-150q0 -80 -49 -142.5t-124 -75.5v83q40 10 63 42t23 79h-93z" />
    <glyph glyph-name="circumflex" unicode="&#x2c6;" horiz-adv-x="1228" 
d="M990 1236h-154l-189 206l-188 -206h-155l243 311h199z" />
    <glyph glyph-name="caron" unicode="&#x2c7;" horiz-adv-x="1228" 
d="M775 1547h154l-245 -311h-199l-242 311h154l188 -206z" />
    <glyph glyph-name="breve" unicode="&#x2d8;" horiz-adv-x="1228" 
d="M555 1225q-148 0 -237.5 86.5t-89.5 235.5h136v-6q0 -94 52 -146t139 -52t137 52t50 146v6h140q0 -149 -89.5 -235.5t-237.5 -86.5z" />
    <glyph glyph-name="dotaccent" unicode="&#x2d9;" horiz-adv-x="604" 
d="M209 1297v200h188v-200h-188z" />
    <glyph glyph-name="ring" unicode="&#x2da;" horiz-adv-x="839" 
d="M420 1208q-103 0 -168.5 62t-65.5 158q0 97 65.5 158.5t168.5 61.5t168 -61.5t65 -158.5q0 -96 -65.5 -158t-167.5 -62zM420 1307q56 0 91.5 33.5t35.5 87.5q0 55 -35.5 88.5t-91.5 33.5t-91.5 -33.5t-35.5 -88.5q0 -54 35.5 -87.5t91.5 -33.5z" />
    <glyph glyph-name="ogonek" unicode="&#x2db;" horiz-adv-x="886" 
d="M467 -466q-106 0 -172.5 58.5t-66.5 150.5q0 114 99 217.5t255 153.5l5 -93q-101 -28 -165.5 -95.5t-64.5 -143.5q0 -59 42 -94.5t112 -35.5q52 0 102 22v-105q-73 -35 -146 -35z" />
    <glyph glyph-name="tilde" unicode="&#x2dc;" horiz-adv-x="1228" 
d="M761 1250q-44 0 -83.5 16t-60.5 33t-52 47q-25 23 -37.5 33t-32.5 20t-40 10q-41 0 -67 -35.5t-26 -92.5v-22h-107v26q0 113 53 179.5t145 66.5q42 0 78 -14.5t56.5 -31.5t49.5 -46q33 -35 60 -52t62 -17q42 0 67 35.5t25 94.5v18h109v-22q0 -112 -54 -179t-145 -67z" />
    <glyph glyph-name="hungarumlaut" unicode="&#x2dd;" horiz-adv-x="1087" 
d="M194 1236l128 311h177l-172 -311h-133zM552 1236l157 311h171l-198 -311h-130z" />
    <glyph glyph-name="gravecomb" unicode="&#x300;" 
d="M-186 1236h-137l-187 311h186z" />
    <glyph glyph-name="acutecomb" unicode="&#x301;" 
d="M-528 1236l138 311h185l-186 -311h-137z" />
    <glyph glyph-name="uni0302" unicode="&#x302;" 
d="M-304 1236h-154l-190 206l-188 -206h-154l242 311h199z" />
    <glyph glyph-name="tildecomb" unicode="&#x303;" 
d="M-468 1250q-44 0 -83.5 16t-60.5 33t-52 47q-25 23 -37.5 33t-32.5 20t-40 10q-41 0 -67 -35.5t-26 -92.5v-22h-107v26q0 113 53.5 179.5t145.5 66.5q42 0 78 -14.5t56.5 -31.5t49.5 -46q33 -35 59.5 -52t61.5 -17q42 0 67 35.5t25 94.5v18h109v-22q0 -112 -54 -179
t-145 -67z" />
    <glyph glyph-name="uni0304" unicode="&#x304;" 
d="M-840 1328v139h641v-139h-641z" />
    <glyph glyph-name="uni0306" unicode="&#x306;" 
d="M-549 1225q-148 0 -237.5 86.5t-89.5 235.5h136v-6q0 -94 52 -146t139 -52t137 52t50 146v6h141q0 -149 -90 -235.5t-238 -86.5z" />
    <glyph glyph-name="uni0307" unicode="&#x307;" 
d="M-395 1297v200h188v-200h-188z" />
    <glyph glyph-name="uni0308" unicode="&#x308;" 
d="M-800 1297v200h199v-200h-199zM-397 1297v200h200v-200h-200z" />
    <glyph glyph-name="uni030A" unicode="&#x30a;" 
d="M-420 1208q-102 0 -167.5 62t-65.5 158q0 97 65 158.5t168 61.5t168.5 -61.5t65.5 -158.5q0 -96 -65.5 -158t-168.5 -62zM-420 1307q56 0 91.5 33.5t35.5 87.5q0 55 -35.5 88.5t-91.5 33.5t-91.5 -33.5t-35.5 -88.5q0 -54 35.5 -87.5t91.5 -33.5z" />
    <glyph glyph-name="uni030B" unicode="&#x30b;" 
d="M-943 1236l128 311h177l-172 -311h-133zM-585 1236l157 311h171l-198 -311h-130z" />
    <glyph glyph-name="uni030C" unicode="&#x30c;" 
d="M-454 1547h154l-245 -311h-199l-242 311h154l188 -206z" />
    <glyph glyph-name="uni0312" unicode="&#x312;" 
d="M-661 1458h94v-163h-180v150q0 80 48.5 142.5t122.5 75.5l1 -82q-41 -10 -63 -42.5t-23 -80.5z" />
    <glyph glyph-name="uni0326" unicode="&#x326;" 
d="M-247 -482v83q40 10 63 42t23 79h-94v164h181v-150q0 -80 -49 -142.5t-124 -75.5z" />
    <glyph glyph-name="uni0327" unicode="&#x327;" 
d="M-402 -87q86 -10 139 -62.5t53 -129.5q0 -87 -62 -141t-165 -54h-152v101h131q53 0 86 27.5t33 71.5t-32.5 71t-86.5 27h-53l-19 19l56 215h111z" />
    <glyph glyph-name="uni0328" unicode="&#x328;" 
d="M-420 -466q-106 0 -172.5 58.5t-66.5 150.5q0 114 99.5 217.5t255.5 153.5l4 -93q-101 -28 -165.5 -95.5t-64.5 -143.5q0 -59 42.5 -94.5t112.5 -35.5q51 0 101 22v-105q-73 -35 -146 -35z" />
    <glyph glyph-name="uni0335" unicode="&#x335;" 
d="M-1016 1251v146h747v-146h-747z" />
    <glyph glyph-name="uni0337" unicode="&#x337;" 
d="M-822 488v163l588 342v-163z" />
    <glyph glyph-name="tonos" unicode="&#x384;" horiz-adv-x="733" 
d="M205 1236l138 311h185l-186 -311h-137z" />
    <glyph glyph-name="dieresistonos" unicode="&#x385;" horiz-adv-x="917" 
d="M304 1236l99 311h165l-131 -311h-133zM79 1314v166h157v-166h-157zM637 1314v166h157v-166h-157z" />
    <glyph glyph-name="Alphatonos" unicode="&#x386;" horiz-adv-x="1427" 
d="M1197 0l-142 343h-689l-140 -343h-191l586 1434h168l603 -1434h-195zM135 1143l147 291h188l-198 -291h-137zM708 1186l-275 -678h555z" />
    <glyph glyph-name="Epsilontonos" unicode="&#x388;" horiz-adv-x="1132" 
d="M-211 1143l148 291h187l-198 -291h-137zM375 172h655v-172h-834v1434h812v-171h-633v-443h579v-166h-579v-482z" />
    <glyph glyph-name="Etatonos" unicode="&#x389;" horiz-adv-x="1492" 
d="M-211 1143l148 291h187l-198 -291h-137zM1117 1434h180v-1434h-180v651h-742v-651h-179v1434h179v-610h742v610z" />
    <glyph glyph-name="Iotatonos" unicode="&#x38a;" horiz-adv-x="571" 
d="M-215 1143l148 291h187l-197 -291h-138zM196 0v1434h179v-1434h-179z" />
    <glyph glyph-name="Omicrontonos" unicode="&#x38c;" horiz-adv-x="1697" 
d="M848 -24q-214 0 -385.5 96.5t-268 266t-96.5 378.5t96.5 378.5t268 266t385.5 96.5t386 -96.5t268.5 -266t96.5 -378.5t-96.5 -378.5t-268.5 -266t-386 -96.5zM-76 1143l147 291h188l-198 -291h-137zM848 152q161 0 291 73.5t203 203t73 288.5t-73 288.5t-203 203
t-291 73.5q-160 0 -290 -74t-203 -203t-73 -288t73 -288t203 -203t290 -74z" />
    <glyph glyph-name="Upsilontonos" unicode="&#x38e;" horiz-adv-x="1347" 
d="M1098 1434h197l-529 -862v-572h-185v572l-524 859l-195 -288h-138l148 291h380l422 -693z" />
    <glyph glyph-name="Omegatonos" unicode="&#x38f;" horiz-adv-x="1765" 
d="M1350 168h293v-168h-639v165q202 59 323 215.5t121 357.5q0 113 -44 214t-119.5 173t-180 114.5t-221.5 42.5q-116 0 -220.5 -42.5t-179.5 -114.5t-119 -173t-44 -214q0 -201 120.5 -357.5t320.5 -215.5v-165h-638v168h293q-133 105 -206.5 254t-73.5 330q0 147 58 278
t157.5 224.5t238 148.5t293.5 55q207 0 378.5 -93t270.5 -255t99 -358q0 -181 -73.5 -330t-207.5 -254zM100 1434h187l-197 -291h-137z" />
    <glyph glyph-name="iotadieresistonos" unicode="&#x390;" horiz-adv-x="706" 
d="M184 1236l75 311h153l-114 -311h-114zM-38 1314v166h157v-166h-157zM480 1314v166h157v-166h-157zM539 -6q-176 0 -277 98.5t-101 271.5v742h174v-725q0 -107 60.5 -165.5t169.5 -58.5h114v-163h-140z" />
    <glyph glyph-name="Alpha" unicode="&#x391;" horiz-adv-x="1427" 
d="M1197 0l-142 343h-689l-140 -343h-191l586 1434h168l603 -1434h-195zM708 1186l-275 -678h555z" />
    <glyph glyph-name="Beta" unicode="&#x392;" horiz-adv-x="1320" 
d="M990 744q99 -43 156.5 -137t57.5 -212q0 -167 -125 -281t-309 -114h-574v1434h566q175 0 289.5 -105t114.5 -262q0 -98 -48 -187t-128 -136zM983 1043q0 91 -65 153t-160 62h-384v-430h385q95 0 159.5 62.5t64.5 152.5zM768 178q108 0 179 67.5t71 169.5q0 101 -71.5 169
t-178.5 68h-394v-474h394z" />
    <glyph glyph-name="Gamma" unicode="&#x393;" horiz-adv-x="1007" 
d="M965 1434v-169h-590v-1265h-179v1434h769z" />
    <glyph glyph-name="uni0394" unicode="&#x394;" horiz-adv-x="1427" 
d="M785 1434l612 -1434h-1358l589 1434h157zM708 1172l-400 -1004h808z" />
    <glyph glyph-name="Epsilon" unicode="&#x395;" horiz-adv-x="1132" 
d="M375 172h655v-172h-834v1434h812v-171h-633v-443h579v-166h-579v-482z" />
    <glyph glyph-name="Zeta" unicode="&#x396;" horiz-adv-x="1153" 
d="M339 168h760v-168h-1046v31l740 1234h-708v169h992v-35z" />
    <glyph glyph-name="Eta" unicode="&#x397;" horiz-adv-x="1492" 
d="M1117 1434h180v-1434h-180v651h-742v-651h-179v1434h179v-610h742v610z" />
    <glyph glyph-name="Theta" unicode="&#x398;" horiz-adv-x="1697" 
d="M848 -24q-158 0 -297.5 56.5t-238.5 154.5t-156.5 235t-57.5 293q0 157 57.5 295t156.5 236t238.5 155t297.5 57q212 0 384 -96.5t269.5 -266.5t97.5 -380q0 -157 -57.5 -294t-156.5 -235t-238.5 -154t-298.5 -56zM848 152q159 0 289 73.5t204 203t74 288.5t-74 288.5
t-204 203t-289 73.5t-288.5 -74t-203.5 -203.5t-74 -287.5q0 -120 41 -224.5t114.5 -179.5t179.5 -118t231 -43zM454 632v174h783v-174h-783z" />
    <glyph glyph-name="Iota" unicode="&#x399;" horiz-adv-x="571" 
d="M196 0v1434h179v-1434h-179z" />
    <glyph glyph-name="Kappa" unicode="&#x39a;" horiz-adv-x="1300" 
d="M1071 0l-505 657h-191v-657h-179v1434h179v-609h190l460 609h229l-525 -690l572 -744h-230z" />
    <glyph glyph-name="Lambda" unicode="&#x39b;" horiz-adv-x="1372" 
d="M1332 0h-194l-452 1173l-455 -1173h-190l561 1434h168z" />
    <glyph glyph-name="Mu" unicode="&#x39c;" horiz-adv-x="1959" 
d="M1868 0h-183l-187 1120l-494 -1083h-48l-495 1082l-188 -1119h-183l241 1434h174l473 -1052l476 1052h177z" />
    <glyph glyph-name="Nu" unicode="&#x39d;" horiz-adv-x="1533" 
d="M1163 1434h176v-1434h-151l-816 1119v-1119h-176v1434h162l805 -1106v1106z" />
    <glyph glyph-name="Xi" unicode="&#x39e;" horiz-adv-x="1148" 
d="M116 1258v176h919v-176h-919zM196 654v172h760v-172h-760zM99 0v178h951v-178h-951z" />
    <glyph glyph-name="Omicron" unicode="&#x39f;" horiz-adv-x="1697" 
d="M848 -24q-214 0 -385.5 96.5t-268 266t-96.5 378.5t96.5 378.5t268 266t385.5 96.5t386 -96.5t268.5 -266t96.5 -378.5t-96.5 -378.5t-268.5 -266t-386 -96.5zM848 152q161 0 291 73.5t203 203t73 288.5t-73 288.5t-203 203t-291 73.5q-160 0 -290 -74t-203 -203
t-73 -288t73 -288t203 -203t290 -74z" />
    <glyph glyph-name="Pi" unicode="&#x3a0;" horiz-adv-x="1435" 
d="M196 1434h1044v-1434h-181v1265h-684v-1265h-179v1434z" />
    <glyph glyph-name="Rho" unicode="&#x3a1;" horiz-adv-x="1249" 
d="M710 1434q203 0 339.5 -131.5t136.5 -328.5t-136 -328t-340 -131h-335v-515h-179v1434h514zM700 689q132 0 217 81t85 204t-85 204.5t-217 81.5h-325v-571h325z" />
    <glyph glyph-name="Sigma" unicode="&#x3a3;" horiz-adv-x="1148" 
d="M361 168h713v-168h-1030v41l504 686l-491 665v42h998v-169h-681l387 -524v-30z" />
    <glyph glyph-name="Tau" unicode="&#x3a4;" horiz-adv-x="1138" 
d="M1095 1434v-169h-436v-1265h-180v1265h-436v169h1052z" />
    <glyph glyph-name="Upsilon" unicode="&#x3a5;" horiz-adv-x="1347" 
d="M1295 1434l-529 -862v-572h-185v572l-525 862h196l422 -693l424 693h197z" />
    <glyph glyph-name="Phi" unicode="&#x3a6;" horiz-adv-x="1783" 
d="M1684 718q0 -145 -49 -276t-138 -231.5t-223.5 -163t-294.5 -69.5v-219h-176v220q-159 7 -293 69.5t-223.5 162.5t-139 230.5t-49.5 273.5q0 144 49.5 275t139 231.5t223.5 163.5t293 70v196h176v-196q160 -7 294.5 -69t223.5 -162.5t138 -231t49 -274.5zM979 151
q154 9 274.5 89t184 205t63.5 272t-63.5 271.5t-184 204t-274.5 88.5v-1130zM282 717q0 -147 63 -272t183.5 -204.5t274.5 -89.5v1130q-232 -15 -376.5 -177t-144.5 -387z" />
    <glyph glyph-name="Chi" unicode="&#x3a7;" horiz-adv-x="1228" 
d="M1214 0h-203l-396 606l-393 -606h-205l488 751l-450 683h203l358 -547l356 547h202l-447 -689z" />
    <glyph glyph-name="Psi" unicode="&#x3a8;" horiz-adv-x="1636" 
d="M1351 1433h180v-490q0 -262 -166 -425.5t-432 -163.5h-23v-354h-182v354h-23q-266 0 -432 163.5t-166 425.5v490h180v-469q0 -195 114 -309.5t306 -114.5h25v894h174v-894h25q192 0 306 114.5t114 309.5v469z" />
    <glyph glyph-name="uni03A9" unicode="&#x3a9;" horiz-adv-x="1765" 
d="M1350 168h293v-168h-639v165q202 59 323 215.5t121 357.5q0 113 -44 214t-119.5 173t-180 114.5t-221.5 42.5q-116 0 -220.5 -42.5t-179.5 -114.5t-119 -173t-44 -214q0 -201 120.5 -357.5t320.5 -215.5v-165h-638v168h293q-133 105 -206.5 254t-73.5 330q0 147 58 278
t157.5 224.5t238 148.5t293.5 55q207 0 378.5 -93t270.5 -255t99 -358q0 -181 -73.5 -330t-207.5 -254z" />
    <glyph glyph-name="Iotadieresis" unicode="&#x3aa;" horiz-adv-x="571" 
d="M52 1614v200h181v-200h-181zM340 1614v200h181v-200h-181zM196 0v1434h179v-1434h-179z" />
    <glyph glyph-name="Upsilondieresis" unicode="&#x3ab;" horiz-adv-x="1347" 
d="M352 1614v200h200v-200h-200zM797 1614v200h200v-200h-200zM1295 1434l-529 -862v-572h-185v572l-525 862h196l422 -693l424 693h197z" />
    <glyph glyph-name="alphatonos" unicode="&#x3ac;" horiz-adv-x="1431" 
d="M930 1547l-187 -311h-137l138 311h186zM1118 1106h139v-1106h-144l-19 168q-78 -91 -189.5 -141.5t-244.5 -50.5q-161 0 -292 75t-205.5 207.5t-74.5 294.5q0 248 163.5 412.5t408.5 164.5q133 0 246 -51t191 -143zM673 144q175 0 290.5 116.5t115.5 292.5t-115.5 292.5
t-290.5 116.5t-291 -117t-116 -292t116 -292t291 -117z" />
    <glyph glyph-name="epsilontonos" unicode="&#x3ad;" horiz-adv-x="999" 
d="M739 1547l-187 -311h-137l138 311h186zM774 308h164q-15 -151 -128.5 -241.5t-287.5 -90.5q-188 0 -307 96.5t-119 247.5q0 93 40.5 163t116.5 108q-129 78 -129 233q0 133 111.5 219.5t280.5 86.5q163 0 272.5 -83t122.5 -218h-161q-14 73 -75 116t-153 43
q-103 0 -167.5 -48.5t-64.5 -126.5q0 -73 53 -119t138 -46h163v-131h-163q-94 0 -153.5 -52.5t-59.5 -133.5q0 -87 71 -141.5t183 -54.5q104 0 172.5 47t79.5 126z" />
    <glyph glyph-name="etatonos" unicode="&#x3ae;" horiz-adv-x="1314" 
d="M932 1547l-187 -311h-137l138 311h186zM729 1130q197 0 312 -126.5t115 -341.5v-1057h-174v1016q0 168 -77 259t-221 91q-142 0 -238 -106t-96 -262v-603h-175v1106h124l34 -173q63 93 166 145t230 52z" />
    <glyph glyph-name="iotatonos" unicode="&#x3af;" horiz-adv-x="706" 
d="M165 1236l138 311h186l-187 -311h-137zM539 -6q-176 0 -277 98.5t-101 271.5v742h174v-725q0 -107 60.5 -165.5t169.5 -58.5h114v-163h-140z" />
    <glyph glyph-name="upsilondieresistonos" unicode="&#x3b0;" horiz-adv-x="1294" 
d="M528 1236l99 311h165l-131 -311h-133zM303 1314v166h157v-166h-157zM861 1314v166h157v-166h-157zM647 -24q-223 0 -356.5 134t-133.5 357v639h174v-611q0 -163 85 -257t231 -94q147 0 231.5 94.5t84.5 256.5v611h174v-639q0 -223 -133 -357t-357 -134z" />
    <glyph glyph-name="alpha" unicode="&#x3b1;" horiz-adv-x="1431" 
d="M1118 1106h139v-1106h-144l-19 168q-78 -91 -189.5 -141.5t-244.5 -50.5q-161 0 -292 75t-205.5 207.5t-74.5 294.5q0 248 163.5 412.5t408.5 164.5q133 0 246 -51t191 -143zM673 144q175 0 290.5 116.5t115.5 292.5t-115.5 292.5t-290.5 116.5t-291 -117t-116 -292
t116 -292t291 -117z" />
    <glyph glyph-name="beta" unicode="&#x3b2;" horiz-adv-x="1275" 
d="M955 788q109 -44 169 -141t60 -232q0 -188 -145.5 -313.5t-362.5 -125.5q-171 0 -327 78v-426h-174v1324q0 273 130 423t366 150q203 0 332.5 -113t129.5 -289q0 -113 -46.5 -200.5t-131.5 -134.5zM659 144q163 0 259.5 77.5t96.5 208.5q0 118 -83.5 193.5t-213.5 75.5
h-206v157h201q116 0 189.5 68t73.5 175q0 119 -83.5 193t-217.5 74q-157 0 -241.5 -107.5t-84.5 -306.5v-714q133 -94 310 -94z" />
    <glyph glyph-name="gamma" unicode="&#x3b3;" horiz-adv-x="1165" 
d="M1129 1106l-453 -1051v-444h-171v443l-472 1052h186l369 -836l356 836h185z" />
    <glyph glyph-name="delta" unicode="&#x3b4;" horiz-adv-x="1253" 
d="M496 1299q137 -62 256 -145.5t213 -185t148.5 -223t54.5 -245.5q0 -143 -66.5 -262t-191 -190.5t-282.5 -71.5q-233 0 -387.5 150t-154.5 376q0 140 69 258.5t184.5 186.5t248.5 68q84 0 141 -20q-240 192 -594 305v156h958v-157h-597zM628 137q161 0 266 104t105 261
q0 158 -105.5 262.5t-265.5 104.5q-161 0 -265.5 -104t-104.5 -263q0 -157 104.5 -261t265.5 -104z" />
    <glyph glyph-name="epsilon" unicode="&#x3b5;" horiz-adv-x="999" 
d="M774 308h164q-15 -151 -128.5 -241.5t-287.5 -90.5q-188 0 -307 96.5t-119 247.5q0 93 40.5 163t116.5 108q-129 78 -129 233q0 133 111.5 219.5t280.5 86.5q163 0 272.5 -83t122.5 -218h-161q-14 73 -75 116t-153 43q-103 0 -167.5 -48.5t-64.5 -126.5q0 -73 53 -119
t138 -46h163v-131h-163q-94 0 -153.5 -52.5t-59.5 -133.5q0 -87 71 -141.5t183 -54.5q104 0 172.5 47t79.5 126z" />
    <glyph glyph-name="zeta" unicode="&#x3b6;" horiz-adv-x="1038" 
d="M1029 1401q-391 -301 -577.5 -521.5t-186.5 -400.5q0 -67 25 -118.5t67 -84.5t96.5 -59.5t114.5 -46.5t120 -40.5t114.5 -48t96.5 -62.5t67 -89t25 -124q0 -96 -31 -201h-168q26 81 26 162q0 64 -40.5 110t-104.5 73.5t-142 52.5t-156 58.5t-142 79t-104.5 126
t-40.5 189.5q0 205 145.5 407.5t462.5 468.5h-551v169h884v-100z" />
    <glyph glyph-name="eta" unicode="&#x3b7;" horiz-adv-x="1314" 
d="M729 1130q197 0 312 -126.5t115 -341.5v-1057h-174v1016q0 168 -77 259t-221 91q-142 0 -238 -106t-96 -262v-603h-175v1106h124l34 -173q63 93 166 145t230 52z" />
    <glyph glyph-name="theta" unicode="&#x3b8;" horiz-adv-x="1427" 
d="M712 1512q187 0 326 -100.5t210 -273.5t71 -394t-71 -394t-210 -273.5t-326 -100.5q-188 0 -326.5 101t-208.5 273.5t-70 393.5t70 393.5t208.5 273.5t326.5 101zM712 1343q-185 0 -298 -137.5t-130 -378.5h858q-17 240 -131.5 378t-298.5 138zM712 144q184 0 299 140
t132 380h-859q17 -241 131 -380.5t297 -139.5z" />
    <glyph glyph-name="iota" unicode="&#x3b9;" horiz-adv-x="706" 
d="M539 -6q-176 0 -277 98.5t-101 271.5v742h174v-725q0 -107 60.5 -165.5t169.5 -58.5h114v-163h-140z" />
    <glyph glyph-name="kappa" unicode="&#x3ba;" horiz-adv-x="1105" 
d="M886 0l-378 496h-159v-496h-174v1106h174v-449h161l341 449h212l-403 -530l444 -576h-218z" />
    <glyph glyph-name="lambda" unicode="&#x3bb;" horiz-adv-x="1161" 
d="M1116 0h-190l-335 823l-376 -823h-191l477 1033l-29 64q-48 115 -95.5 156.5t-134.5 41.5h-63v163h82q137 0 218.5 -70.5t155.5 -246.5z" />
    <glyph glyph-name="uni03BC" unicode="&#x3bc;" horiz-adv-x="1331" 
d="M982 1106h174v-1106h-118l-35 186q-63 -92 -171 -150t-218 -58q-82 0 -154.5 20t-113.5 59v-452h-171v1501h175v-629q0 -160 73 -245.5t210 -85.5q143 0 246 102t103 245v613z" />
    <glyph glyph-name="nu" unicode="&#x3bd;" horiz-adv-x="1171" 
d="M956 1106h178l-466 -1106h-158l-479 1106h182l375 -880z" />
    <glyph glyph-name="xi" unicode="&#x3be;" horiz-adv-x="1075" 
d="M629 130q50 -17 77 -26.5t71 -28.5t68.5 -34.5t55.5 -40.5t47 -52t27.5 -63.5t11.5 -78.5q0 -94 -32 -201h-176q27 79 27 164q0 71 -60.5 116.5t-217.5 96.5q-233 76 -333.5 175.5t-100.5 265.5q0 129 63.5 229t172.5 146q-92 43 -145 127t-53 191q0 173 131 285t332 112
q190 0 318.5 -107.5t141.5 -279.5h-172q-15 104 -94.5 168t-193.5 64q-125 0 -203 -69t-78 -179q0 -103 70 -170t176 -67h198v-155h-200q-120 0 -198.5 -79t-78.5 -199q0 -55 21.5 -100t46 -72.5t81.5 -57t87 -41t104 -36.5q5 -2 8 -3z" />
    <glyph glyph-name="omicron" unicode="&#x3bf;" horiz-adv-x="1349" 
d="M674 -24q-251 0 -418.5 164.5t-167.5 412.5q0 164 76 296t210.5 206.5t299.5 74.5t299.5 -74.5t211 -207t76.5 -295.5t-76.5 -295.5t-211 -207t-299.5 -74.5zM674 144q178 0 293.5 115.5t115.5 293.5t-115.5 293.5t-293.5 115.5t-293 -115.5t-115 -293.5t115 -293.5
t293 -115.5z" />
    <glyph glyph-name="pi" unicode="&#x3c0;" horiz-adv-x="1290" 
d="M175 1106h940v-1106h-172v947h-593v-947h-175v1106z" />
    <glyph glyph-name="rho" unicode="&#x3c1;" horiz-adv-x="1378" 
d="M720 1128q161 0 291.5 -75t204 -207t73.5 -293q0 -162 -73.5 -294t-203 -207.5t-287.5 -75.5q-111 0 -223 46.5t-178 118.5v-536h-178v935q0 257 161 422.5t413 165.5zM718 144q174 0 285.5 115.5t111.5 293.5q0 177 -111.5 292t-285.5 115t-286 -115t-112 -292
q0 -178 112.5 -293.5t285.5 -115.5z" />
    <glyph glyph-name="uni03C2" unicode="&#x3c2;" horiz-adv-x="1234" 
d="M921 -395q26 91 26 164q0 30 -9.5 55t-22 43.5t-39 36t-47 28.5t-60 24.5t-63.5 20.5t-72 20q-184 51 -270 95q-204 105 -255 315q-19 76 -19 168q0 156 75 282.5t207 198.5t294 72q197 0 344 -107t193 -288h-173q-51 109 -146.5 167t-218.5 58q-170 0 -283.5 -109
t-113.5 -274q0 -62 14.5 -114.5t34 -89.5t59.5 -69.5t69.5 -51.5t86 -40.5t87.5 -31t95 -27.5q5 -1 7 -2q44 -12 67.5 -19t63.5 -20t62.5 -23.5t54.5 -27t50.5 -33.5t40 -40.5t32.5 -49.5t18.5 -59t7.5 -71q0 -89 -30 -201h-167z" />
    <glyph glyph-name="sigma" unicode="&#x3c3;" horiz-adv-x="1411" 
d="M1371 1108v-159h-320q91 -70 143 -177t52 -229q0 -121 -43 -226.5t-119 -180t-183 -117.5t-231 -43t-232 43.5t-185 118.5t-121 180t-44 225q0 160 75.5 289t209.5 202.5t302 73.5h696zM668 144q177 0 290.5 112.5t113.5 288.5q0 172 -113.5 283t-290.5 111t-290.5 -111
t-113.5 -283q0 -176 113.5 -288.5t290.5 -112.5z" />
    <glyph glyph-name="tau" unicode="&#x3c4;" horiz-adv-x="997" 
d="M912 949h-354v-568q0 -107 60.5 -165.5t169.5 -58.5h114v-163h-140q-176 0 -277 98.5t-101 271.5v585h-353v157h881v-157z" />
    <glyph glyph-name="upsilon" unicode="&#x3c5;" horiz-adv-x="1294" 
d="M647 -24q-223 0 -356.5 134t-133.5 357v639h174v-611q0 -163 85 -257t231 -94q147 0 231.5 94.5t84.5 256.5v611h174v-639q0 -223 -133 -357t-357 -134z" />
    <glyph glyph-name="phi" unicode="&#x3c6;" horiz-adv-x="1511" 
d="M1423 545q0 -244 -161 -401.5t-418 -165.5v-373h-171v373q-166 4 -300 79t-209.5 203.5t-75.5 284.5q0 191 109 338.5t296 210.5l50 -148q-135 -50 -209 -155.5t-74 -245.5q0 -168 116 -279.5t297 -118.5v959h144q270 0 438 -156t168 -405zM841 147q181 8 295.5 118.5
t114.5 279.5t-114.5 278t-296.5 116v-749z" />
    <glyph glyph-name="chi" unicode="&#x3c7;" horiz-adv-x="1050" 
d="M1038 0h-195l-318 461l-318 -461h-191l405 575l-372 531h196l282 -409l287 409h192l-376 -523z" />
    <glyph glyph-name="psi" unicode="&#x3c8;" horiz-adv-x="1607" 
d="M1283 1106h174v-572q0 -241 -150.5 -398.5t-381.5 -157.5h-30v-373h-185v373h-27q-231 0 -382 158t-151 398v572h174v-564q0 -162 105 -272.5t261 -110.5h28v945h172v-945h29q155 0 259.5 110t104.5 273v564z" />
    <glyph glyph-name="omega" unicode="&#x3c9;" horiz-adv-x="1802" 
d="M1573 1106q122 -284 122 -562q0 -260 -109 -413t-298 -153q-143 0 -246 65t-141 174q-39 -109 -142 -174t-246 -65q-189 0 -297 151.5t-108 412.5q0 276 120 564h184q-62 -131 -96 -273.5t-34 -271.5q0 -195 70 -306t194 -111q118 0 196 85t78 213v374h161v-374
q0 -128 77.5 -213t194.5 -85q125 0 194.5 110.5t69.5 308.5q0 128 -33 270.5t-93 272.5h182z" />
    <glyph glyph-name="iotadieresis" unicode="&#x3ca;" horiz-adv-x="706" 
d="M-51 1297v200h200v-200h-200zM353 1297v200h199v-200h-199zM539 -6q-176 0 -277 98.5t-101 271.5v742h174v-725q0 -107 60.5 -165.5t169.5 -58.5h114v-163h-140z" />
    <glyph glyph-name="upsilondieresis" unicode="&#x3cb;" horiz-adv-x="1294" 
d="M344 1297v200h200v-200h-200zM748 1297v200h200v-200h-200zM647 -24q-223 0 -356.5 134t-133.5 357v639h174v-611q0 -163 85 -257t231 -94q147 0 231.5 94.5t84.5 256.5v611h174v-639q0 -223 -133 -357t-357 -134z" />
    <glyph glyph-name="omicrontonos" unicode="&#x3cc;" horiz-adv-x="1349" 
d="M588 1236l138 311h186l-187 -311h-137zM674 -24q-251 0 -418.5 164.5t-167.5 412.5q0 164 76 296t210.5 206.5t299.5 74.5t299.5 -74.5t211 -207t76.5 -295.5t-76.5 -295.5t-211 -207t-299.5 -74.5zM674 144q178 0 293.5 115.5t115.5 293.5t-115.5 293.5t-293.5 115.5
t-293 -115.5t-115 -293.5t115 -293.5t293 -115.5z" />
    <glyph glyph-name="upsilontonos" unicode="&#x3cd;" horiz-adv-x="1294" 
d="M561 1236l138 311h185l-186 -311h-137zM647 -24q-223 0 -356.5 134t-133.5 357v639h174v-611q0 -163 85 -257t231 -94q147 0 231.5 94.5t84.5 256.5v611h174v-639q0 -223 -133 -357t-357 -134z" />
    <glyph glyph-name="omegatonos" unicode="&#x3ce;" horiz-adv-x="1802" 
d="M1134 1547l-187 -311h-137l138 311h186zM1573 1106q122 -284 122 -562q0 -260 -109 -413t-298 -153q-143 0 -246 65t-141 174q-39 -109 -142 -174t-246 -65q-189 0 -297 151.5t-108 412.5q0 276 120 564h184q-62 -131 -96 -273.5t-34 -271.5q0 -195 70 -306t194 -111
q118 0 196 85t78 213v374h161v-374q0 -128 77.5 -213t194.5 -85q125 0 194.5 110.5t69.5 308.5q0 128 -33 270.5t-93 272.5h182z" />
    <glyph glyph-name="uni0401" unicode="&#x401;" horiz-adv-x="1132" 
d="M275 1614v200h200v-200h-200zM720 1614v200h200v-200h-200zM375 172h655v-172h-834v1434h812v-171h-633v-443h579v-166h-579v-482z" />
    <glyph glyph-name="uni0402" unicode="&#x402;" horiz-adv-x="1513" 
d="M945 966q220 0 356 -136t136 -357t-138.5 -356.5t-364.5 -135.5h-14v176h14q146 -1 233.5 88t87.5 228t-88.5 228t-234.5 89q-78 0 -154 -33t-128 -90v-667h-180v1265h-427v169h1041v-169h-434v-395q133 96 295 96z" />
    <glyph glyph-name="uni0403" unicode="&#x403;" horiz-adv-x="1007" 
d="M776 1885l-198 -291h-137l149 291h186zM965 1434v-169h-590v-1265h-179v1434h769z" />
    <glyph glyph-name="uni0404" unicode="&#x404;" horiz-adv-x="1597" 
d="M1351 506h179q-63 -244 -250.5 -387t-444.5 -143q-157 0 -294 56.5t-234 154.5t-153 235.5t-56 294.5t56.5 295t154 235.5t234.5 154t292 56.5q251 0 433.5 -134.5t255.5 -372.5h-182q-67 157 -199 243t-308 86q-215 0 -367.5 -132.5t-181.5 -343.5h689v-166h-690
q26 -214 178.5 -349t371.5 -135q183 0 319.5 93.5t196.5 258.5z" />
    <glyph glyph-name="uni0405" unicode="&#x405;" horiz-adv-x="1222" 
d="M623 -18q-238 0 -383.5 125t-145.5 335h183q0 -131 96 -207.5t248 -76.5q138 0 230 67.5t92 179.5q0 27 -7 51.5t-16 43t-28.5 35.5t-35 29t-45.5 24.5t-48.5 20t-56.5 17.5l-57 15t-62 15q-183 44 -262 81q-173 83 -199 249q-5 32 -5 67q0 185 132 292t356 107
q222 0 350.5 -114.5t128.5 -310.5h-178q0 117 -85.5 185t-219.5 68q-133 0 -218.5 -59.5t-85.5 -159.5q0 -33 10.5 -60.5t25.5 -48t44 -39t53 -30t66.5 -24.5t70.5 -20t78 -19q183 -45 262 -82q178 -82 210 -247q8 -39 8 -84q0 -132 -67.5 -229.5t-181 -146.5t-257.5 -49z
" />
    <glyph glyph-name="uni0406" unicode="&#x406;" horiz-adv-x="571" 
d="M196 0v1434h179v-1434h-179z" />
    <glyph glyph-name="uni0407" unicode="&#x407;" horiz-adv-x="571" 
d="M52 1614v200h181v-200h-181zM340 1614v200h181v-200h-181zM196 0v1434h179v-1434h-179z" />
    <glyph glyph-name="uni0408" unicode="&#x408;" horiz-adv-x="1222" 
d="M553 -24q-214 0 -355 141.5t-141 357.5v29h177v-21q0 -144 90.5 -237.5t228.5 -93.5q134 0 223 94t89 237v951h178v-959q0 -217 -138.5 -358t-351.5 -141z" />
    <glyph glyph-name="uni0409" unicode="&#x409;" horiz-adv-x="2205" 
d="M1659 924q210 0 345.5 -130.5t135.5 -332.5q0 -200 -136.5 -330.5t-344.5 -130.5h-527v1265h-541l-69 -812q-42 -455 -432 -455h-55v178h57q114 0 176 67t74 204l91 987h881v-510h345zM1646 168q135 0 223 84t88 211q0 128 -88 211t-223 83h-332v-589h332z" />
    <glyph glyph-name="uni040A" unicode="&#x40a;" horiz-adv-x="2076" 
d="M1550 859q210 0 337 -119.5t127 -308.5q0 -191 -127 -311t-337 -120h-519v680h-656v-680h-179v1434h179v-584h656v584h179v-575h340zM1541 170q134 0 212 71t78 190t-78 188.5t-212 69.5h-331v-519h331z" />
    <glyph glyph-name="uni040B" unicode="&#x40b;" horiz-adv-x="1560" 
d="M967 942q220 0 355.5 -129.5t135.5 -370.5v-442h-182v423q0 174 -88.5 261.5t-243.5 87.5q-120 0 -283 -57v-715h-182v1265h-436v169h1052v-169h-434v-380q161 57 306 57z" />
    <glyph glyph-name="uni040E" unicode="&#x40e;" horiz-adv-x="1236" 
d="M354 1664v137h582v-137h-582zM1029 1434h192l-442 -992q-79 -179 -151 -273t-160 -133.5t-221 -39.5h-66v168h81q116 0 177.5 48t134.5 196l-548 1026h207l435 -818z" />
    <glyph glyph-name="uni040F" unicode="&#x40f;" horiz-adv-x="1472" 
d="M1276 1434v-1434h-452v-288h-178v288h-450v1434h179v-1266h719v1266h182z" />
    <glyph glyph-name="uni0410" unicode="&#x410;" horiz-adv-x="1427" 
d="M1197 0l-142 343h-689l-140 -343h-191l586 1434h168l603 -1434h-195zM708 1186l-275 -678h555z" />
    <glyph glyph-name="uni0411" unicode="&#x411;" horiz-adv-x="1255" 
d="M720 887q200 0 328.5 -124.5t128.5 -317.5q0 -194 -130.5 -319.5t-331.5 -125.5h-519v1434h878v-171h-699v-376h345zM702 176q127 0 209.5 76t82.5 193t-81 191.5t-208 74.5h-330v-535h327z" />
    <glyph glyph-name="uni0412" unicode="&#x412;" horiz-adv-x="1320" 
d="M990 744q99 -43 156.5 -137t57.5 -212q0 -167 -125 -281t-309 -114h-574v1434h566q175 0 289.5 -105t114.5 -262q0 -98 -48 -187t-128 -136zM983 1043q0 91 -65 153t-160 62h-384v-430h385q95 0 159.5 62.5t64.5 152.5zM768 178q108 0 179 67.5t71 169.5q0 101 -71.5 169
t-178.5 68h-394v-474h394z" />
    <glyph glyph-name="uni0413" unicode="&#x413;" horiz-adv-x="1007" 
d="M965 1434v-169h-590v-1265h-179v1434h769z" />
    <glyph glyph-name="uni0414" unicode="&#x414;" horiz-adv-x="1548" 
d="M1310 168h148v-461h-166v293h-1079v-293h-167v461h112q36 23 60.5 53t47.5 95t39 143t34.5 226t34.5 314t39 435h897v-1266zM579 1265q-44 -575 -87.5 -796t-131.5 -301h768v1097h-549z" />
    <glyph glyph-name="uni0415" unicode="&#x415;" horiz-adv-x="1132" 
d="M375 172h655v-172h-834v1434h812v-171h-633v-443h579v-166h-579v-482z" />
    <glyph glyph-name="uni0416" unicode="&#x416;" horiz-adv-x="1961" 
d="M1732 0l-486 657h-174v-657h-182v657h-174l-486 -657h-227l553 747l-499 687h219l441 -609h173v609h182v-609h173l441 609h218l-498 -687l553 -747h-227z" />
    <glyph glyph-name="uni0417" unicode="&#x417;" horiz-adv-x="1177" 
d="M861 757q93 -47 148.5 -143t55.5 -211q0 -184 -140 -304.5t-353 -120.5q-205 0 -340.5 118t-146.5 306h176q12 -115 98 -185.5t213 -70.5q138 0 226.5 74t88.5 190q0 115 -76 189.5t-195 74.5h-166v157h166q106 0 174.5 65.5t68.5 165.5q0 104 -79.5 168.5t-207.5 64.5
q-112 0 -193 -63.5t-96 -162.5h-172q13 170 143 279.5t318 109.5q201 0 331 -110t130 -281q0 -99 -46.5 -182.5t-125.5 -127.5z" />
    <glyph glyph-name="uni0418" unicode="&#x418;" horiz-adv-x="1511" 
d="M1186 1434h131v-1434h-180v1091l-816 -1091h-125v1434h179v-1083z" />
    <glyph glyph-name="uni0419" unicode="&#x419;" horiz-adv-x="1511" 
d="M456 1664v137h582v-137h-582zM1186 1434h131v-1434h-180v1091l-816 -1091h-125v1434h179v-1083z" />
    <glyph glyph-name="uni041A" unicode="&#x41a;" horiz-adv-x="1300" 
d="M1071 0l-505 657h-191v-657h-179v1434h179v-609h190l460 609h229l-525 -690l572 -744h-230z" />
    <glyph glyph-name="uni041B" unicode="&#x41b;" horiz-adv-x="1511" 
d="M429 1434h886v-1434h-179v1265h-541l-69 -812q-39 -455 -432 -455h-59v178h57q114 0 176 67t74 204z" />
    <glyph glyph-name="uni041C" unicode="&#x41c;" horiz-adv-x="1959" 
d="M1868 0h-183l-187 1120l-494 -1083h-48l-495 1082l-188 -1119h-183l241 1434h174l473 -1052l476 1052h177z" />
    <glyph glyph-name="uni041D" unicode="&#x41d;" horiz-adv-x="1492" 
d="M1117 1434h180v-1434h-180v651h-742v-651h-179v1434h179v-610h742v610z" />
    <glyph glyph-name="uni041E" unicode="&#x41e;" horiz-adv-x="1697" 
d="M848 -24q-214 0 -385.5 96.5t-268 266t-96.5 378.5t96.5 378.5t268 266t385.5 96.5t386 -96.5t268.5 -266t96.5 -378.5t-96.5 -378.5t-268.5 -266t-386 -96.5zM848 152q161 0 291 73.5t203 203t73 288.5t-73 288.5t-203 203t-291 73.5q-160 0 -290 -74t-203 -203
t-73 -288t73 -288t203 -203t290 -74z" />
    <glyph glyph-name="uni041F" unicode="&#x41f;" horiz-adv-x="1435" 
d="M196 1434h1044v-1434h-181v1265h-684v-1265h-179v1434z" />
    <glyph glyph-name="uni0420" unicode="&#x420;" horiz-adv-x="1249" 
d="M710 1434q203 0 339.5 -131.5t136.5 -328.5t-136 -328t-340 -131h-335v-515h-179v1434h514zM700 689q132 0 217 81t85 204t-85 204.5t-217 81.5h-325v-571h325z" />
    <glyph glyph-name="uni0421" unicode="&#x421;" horiz-adv-x="1589" 
d="M833 -22q-210 0 -378 94.5t-262.5 263.5t-94.5 381t94.5 381t262.5 263.5t378 94.5q249 0 433 -137.5t246 -369.5h-183q-57 155 -188.5 243t-307.5 88q-241 0 -396 -158t-155 -405t155 -405t396 -158q181 0 314 93.5t189 258.5h183q-61 -243 -246.5 -385.5t-439.5 -142.5
z" />
    <glyph glyph-name="uni0422" unicode="&#x422;" horiz-adv-x="1138" 
d="M1095 1434v-169h-436v-1265h-180v1265h-436v169h1052z" />
    <glyph glyph-name="uni0423" unicode="&#x423;" horiz-adv-x="1236" 
d="M1029 1434h192l-442 -992q-79 -179 -151 -273t-160 -133.5t-221 -39.5h-66v168h81q116 0 177.5 48t134.5 196l-548 1026h207l435 -818z" />
    <glyph glyph-name="uni0424" unicode="&#x424;" horiz-adv-x="1783" 
d="M1684 718q0 -145 -49 -276t-138 -231.5t-223.5 -163t-294.5 -69.5v-219h-176v220q-159 7 -293 69.5t-223.5 162.5t-139 230.5t-49.5 273.5q0 144 49.5 275t139 231.5t223.5 163.5t293 70v196h176v-196q160 -7 294.5 -69t223.5 -162.5t138 -231t49 -274.5zM979 151
q154 9 274.5 89t184 205t63.5 272t-63.5 271.5t-184 204t-274.5 88.5v-1130zM282 717q0 -147 63 -272t183.5 -204.5t274.5 -89.5v1130q-232 -15 -376.5 -177t-144.5 -387z" />
    <glyph glyph-name="uni0425" unicode="&#x425;" horiz-adv-x="1228" 
d="M1214 0h-203l-396 606l-393 -606h-205l488 751l-450 683h203l358 -547l356 547h202l-447 -689z" />
    <glyph glyph-name="uni0426" unicode="&#x426;" horiz-adv-x="1466" 
d="M1228 168h147v-461h-166v293h-1013v1434h179v-1266h674v1266h179v-1266z" />
    <glyph glyph-name="uni0427" unicode="&#x427;" horiz-adv-x="1308" 
d="M931 1434h182v-1434h-182v569q-171 -67 -330 -67q-226 0 -364.5 135.5t-138.5 376.5v420h181v-407q0 -168 88 -258.5t251 -90.5q134 0 313 75v681z" />
    <glyph glyph-name="uni0428" unicode="&#x428;" horiz-adv-x="1988" 
d="M1614 1434h180v-1434h-1598v1434h179v-1266h531v1266h176v-1266h532v1266z" />
    <glyph glyph-name="uni0429" unicode="&#x429;" horiz-adv-x="2033" 
d="M1794 168h152v-461h-166v293h-1584v1434h179v-1266h531v1266h176v-1266h532v1266h180v-1266z" />
    <glyph glyph-name="uni042A" unicode="&#x42a;" horiz-adv-x="1435" 
d="M890 924q210 0 345.5 -130.5t135.5 -332.5q0 -200 -136.5 -330.5t-344.5 -130.5h-525v1265h-329v169h508v-510h346zM876 168q135 0 223.5 84t88.5 211q0 128 -88 211t-224 83h-332v-589h332z" />
    <glyph glyph-name="uni042B" unicode="&#x42b;" horiz-adv-x="1792" 
d="M721 924q210 0 345.5 -130.5t135.5 -332.5q0 -200 -136.5 -330.5t-344.5 -130.5h-525v1434h179v-510h346zM1416 1434h180v-1434h-180v1434zM707 168q135 0 223.5 84t88.5 211q0 128 -88 211t-224 83h-332v-589h332z" />
    <glyph glyph-name="uni042C" unicode="&#x42c;" horiz-adv-x="1267" 
d="M721 924q210 0 345.5 -130.5t135.5 -332.5q0 -200 -136.5 -330.5t-344.5 -130.5h-525v1434h179v-510h346zM707 168q135 0 223.5 84t88.5 211q0 128 -88 211t-224 83h-332v-589h332z" />
    <glyph glyph-name="uni042D" unicode="&#x42d;" horiz-adv-x="1597" 
d="M762 1458q155 0 292 -56.5t234.5 -154t154 -235.5t56.5 -295t-56 -294.5t-153 -235.5t-234 -154.5t-294 -56.5q-257 0 -444.5 143t-250.5 387h180q60 -167 196 -260.5t319 -93.5q218 0 370.5 135.5t178.5 350.5h-688v166h687q-29 211 -181 344.5t-367 133.5
q-176 0 -308 -86.5t-199 -244.5h-182q73 238 255.5 372.5t433.5 134.5z" />
    <glyph glyph-name="uni042E" unicode="&#x42e;" horiz-adv-x="2142" 
d="M1318 1458q155 0 289.5 -56t230.5 -153.5t151 -235.5t55 -296q0 -212 -93.5 -381.5t-259.5 -264.5t-373 -95q-290 0 -490.5 184t-228.5 473h-224v-633h-179v1434h179v-632h224q29 289 229 472.5t490 183.5zM1312 154q238 0 393 159t155 404t-155 405t-393 160
q-115 0 -216.5 -43t-174 -117.5t-114.5 -179.5t-42 -225q0 -242 156.5 -402.5t390.5 -160.5z" />
    <glyph glyph-name="uni042F" unicode="&#x42f;" horiz-adv-x="1329" 
d="M581 1434h552v-1434h-181v557h-317l-332 -557h-212l351 580q-152 40 -242 151.5t-90 263.5q0 188 134.5 313.5t336.5 125.5zM588 726h364v537h-364q-129 0 -212 -75t-83 -193t83 -193.5t212 -75.5z" />
    <glyph glyph-name="uni0430" unicode="&#x430;" horiz-adv-x="1431" 
d="M1118 1106h139v-1106h-144l-19 168q-78 -91 -189.5 -141.5t-244.5 -50.5q-161 0 -292 75t-205.5 207.5t-74.5 294.5q0 248 163.5 412.5t408.5 164.5q133 0 246 -51t191 -143zM673 144q175 0 290.5 116.5t115.5 292.5t-115.5 292.5t-290.5 116.5t-291 -117t-116 -292
t116 -292t291 -117z" />
    <glyph glyph-name="uni0431" unicode="&#x431;" horiz-adv-x="1347" 
d="M718 1048q237 0 388 -148.5t151 -380.5q0 -239 -157.5 -391t-405.5 -152q-260 0 -414.5 164t-154.5 441q0 288 67 471.5t215 295.5t404 173l327 78v-172l-322 -77q-214 -50 -335 -163t-158 -298q146 159 395 159zM694 144q165 0 275 107t110 268t-110 269.5t-275 108.5
q-166 0 -276.5 -108t-110.5 -270q0 -161 110.5 -268t276.5 -107z" />
    <glyph glyph-name="uni0432" unicode="&#x432;" horiz-adv-x="1175" 
d="M887 574q84 -30 134 -102t50 -164q0 -132 -97 -220t-243 -88h-556v1106h550q137 0 223 -78.5t86 -202.5q0 -83 -40 -150.5t-107 -100.5zM862 795q0 67 -44.5 107.5t-116.5 40.5h-355v-295h355q73 0 117 40.5t44 106.5zM710 165q79 0 130.5 46t51.5 116q0 71 -52 116.5
t-132 45.5h-362v-324h364z" />
    <glyph glyph-name="uni0433" unicode="&#x433;" horiz-adv-x="899" 
d="M865 1106v-155h-519v-951h-171v1106h690z" />
    <glyph glyph-name="uni0434" unicode="&#x434;" horiz-adv-x="1331" 
d="M1102 165h149v-458h-160v293h-891v-293h-159v458h119q50 43 76.5 126t47.5 255.5t52 559.5h766v-941zM492 953q-28 -402 -57.5 -560.5t-88.5 -227.5h585v788h-439z" />
    <glyph glyph-name="uni0435" unicode="&#x435;" horiz-adv-x="1294" 
d="M1209 548q0 -30 -3 -62h-943q20 -154 126.5 -247t262.5 -93q114 0 203 50.5t141 140.5h184q-71 -171 -209.5 -266t-318.5 -95q-158 0 -287.5 75t-203 207t-73.5 295q0 162 73.5 294.5t203 207.5t287.5 75q164 0 292 -78t196.5 -210.5t68.5 -293.5zM652 965
q-150 0 -254 -86.5t-131 -231.5h768q-28 147 -131.5 232.5t-251.5 85.5z" />
    <glyph glyph-name="uni0436" unicode="&#x436;" horiz-adv-x="1646" 
d="M1427 0l-371 496h-148v-496h-169v496h-148l-372 -496h-214l438 583l-397 523h203l343 -455h147v455h169v-455h147l342 455h203l-396 -523l437 -583h-214z" />
    <glyph glyph-name="uni0437" unicode="&#x437;" horiz-adv-x="999" 
d="M752 584q72 -39 111.5 -109t39.5 -161q0 -149 -119.5 -243.5t-305.5 -94.5q-175 0 -289 90t-129 240h160q16 -77 85 -121t173 -44q112 0 183.5 52t71.5 134q0 78 -60 129.5t-153 51.5h-163v142h163q86 0 138.5 43.5t52.5 113.5q0 76 -64.5 123t-167.5 47
q-92 0 -153.5 -40.5t-76.5 -111.5h-160q13 137 122.5 221t271.5 84q170 0 281 -88t111 -222q0 -161 -123 -236z" />
    <glyph glyph-name="uni0438" unicode="&#x438;" horiz-adv-x="1261" 
d="M990 1106h96v-1106h-164v790l-646 -790h-101v1106h167v-785z" />
    <glyph glyph-name="uni0439" unicode="&#x439;" horiz-adv-x="1261" 
d="M902 1459v-131h-538v131h538zM990 1106h96v-1106h-164v790l-646 -790h-101v1106h167v-785z" />
    <glyph glyph-name="uni043A" unicode="&#x43a;" horiz-adv-x="1105" 
d="M886 0l-378 496h-159v-496h-174v1106h174v-449h161l341 449h212l-403 -530l444 -576h-218z" />
    <glyph glyph-name="uni043B" unicode="&#x43b;" horiz-adv-x="1263" 
d="M364 1106h725v-1106h-173v954h-406l-58 -559q-22 -219 -111.5 -310t-271.5 -91h-30v163h39q94 0 143 54t62 175z" />
    <glyph glyph-name="uni043C" unicode="&#x43c;" horiz-adv-x="1630" 
d="M1550 0h-168l-158 822l-391 -799h-38l-390 799l-157 -822h-168l212 1106h145l378 -774l378 774h145z" />
    <glyph glyph-name="uni043D" unicode="&#x43d;" horiz-adv-x="1284" 
d="M938 1106h170v-1106h-170v490h-592v-490h-171v1106h171v-453h592v453z" />
    <glyph glyph-name="uni043E" unicode="&#x43e;" horiz-adv-x="1349" 
d="M674 -24q-251 0 -418.5 164.5t-167.5 412.5q0 164 76 296t210.5 206.5t299.5 74.5t299.5 -74.5t211 -207t76.5 -295.5t-76.5 -295.5t-211 -207t-299.5 -74.5zM674 144q178 0 293.5 115.5t115.5 293.5t-115.5 293.5t-293.5 115.5t-293 -115.5t-115 -293.5t115 -293.5
t293 -115.5z" />
    <glyph glyph-name="uni043F" unicode="&#x43f;" horiz-adv-x="1290" 
d="M175 1106h940v-1106h-172v947h-593v-947h-175v1106z" />
    <glyph glyph-name="uni0440" unicode="&#x440;" horiz-adv-x="1419" 
d="M763 1130q163 0 293 -75t202.5 -206.5t72.5 -295.5q0 -248 -161 -412.5t-407 -164.5q-122 0 -228.5 45t-184.5 127v-543h-175v1501h120l35 -169q78 91 190 142t243 51zM750 144q175 0 290 116.5t115 292.5t-115 292.5t-290 116.5t-291.5 -117t-116.5 -292t116.5 -292
t291.5 -117z" />
    <glyph glyph-name="uni0441" unicode="&#x441;" horiz-adv-x="1269" 
d="M663 -24q-161 0 -293 75t-207 207.5t-75 294.5q0 163 75 295t207 207t293 75q197 0 341.5 -108t195.5 -289h-172q-49 107 -146 168t-219 61q-170 0 -283.5 -117.5t-113.5 -291.5q0 -173 114 -291t283 -118q122 0 217 62t146 173h176q-51 -183 -197.5 -293t-341.5 -110z
" />
    <glyph glyph-name="uni0442" unicode="&#x442;" horiz-adv-x="1062" 
d="M1028 1106v-157h-412v-949h-170v949h-411v157h993z" />
    <glyph glyph-name="uni0443" unicode="&#x443;" horiz-adv-x="1200" 
d="M984 1106h185l-527 -1152q-90 -197 -183.5 -273t-249.5 -76h-104v158h89q110 0 166 45t123 185l40 82l-492 1031h190l393 -837z" />
    <glyph glyph-name="uni0444" unicode="&#x444;" horiz-adv-x="1499" 
d="M1411 549q0 -162 -74 -291t-204.5 -202.5t-295.5 -79.5v-324h-175v324q-165 6 -295.5 79.5t-204.5 202.5t-74 291q0 163 74.5 293.5t205 206t294.5 81.5v309h175v-309q164 -6 294.5 -81t205 -205.5t74.5 -294.5zM260 551q0 -170 111.5 -281.5t290.5 -120.5v808
q-177 -9 -289.5 -122.5t-112.5 -283.5zM837 149q177 9 289.5 121t112.5 281q0 170 -113 283.5t-289 122.5v-808z" />
    <glyph glyph-name="uni0445" unicode="&#x445;" horiz-adv-x="1050" 
d="M1038 0h-195l-318 461l-318 -461h-191l405 575l-372 531h196l282 -409l287 409h192l-376 -523z" />
    <glyph glyph-name="uni0446" unicode="&#x446;" horiz-adv-x="1306" 
d="M1077 161h153v-454h-159v293h-896v1106h171v-945h561v945h170v-945z" />
    <glyph glyph-name="uni0447" unicode="&#x447;" horiz-adv-x="1126" 
d="M783 1106h169v-1106h-169v423q-126 -49 -262 -49q-198 0 -318 114t-120 318v300h171v-287q0 -133 72.5 -204.5t207.5 -71.5q131 0 249 60v503z" />
    <glyph glyph-name="uni0448" unicode="&#x448;" horiz-adv-x="1728" 
d="M1380 1106h173v-1106h-1378v1106h171v-945h435v945h166v-945h433v945z" />
    <glyph glyph-name="uni0449" unicode="&#x449;" horiz-adv-x="1781" 
d="M1553 161h152v-454h-159v293h-1371v1106h171v-945h435v945h166v-945h433v945h173v-945z" />
    <glyph glyph-name="uni044A" unicode="&#x44a;" horiz-adv-x="1265" 
d="M810 757q175 0 285.5 -105.5t110.5 -273.5q0 -167 -111 -272.5t-285 -105.5h-445v954h-328v152h498v-349h275zM788 155q108 0 174 62t66 161t-66 161.5t-174 62.5h-253v-447h253z" />
    <glyph glyph-name="uni044B" unicode="&#x44b;" horiz-adv-x="1566" 
d="M621 757q174 0 284.5 -105.5t110.5 -273.5q0 -167 -110.5 -272.5t-284.5 -105.5h-446v1106h171v-349h275zM1216 1106h174v-1106h-174v1106zM598 155q108 0 174 62t66 161t-66 161.5t-174 62.5h-252v-447h252z" />
    <glyph glyph-name="uni044C" unicode="&#x44c;" horiz-adv-x="1077" 
d="M621 757q174 0 284.5 -105.5t110.5 -273.5q0 -167 -110.5 -272.5t-284.5 -105.5h-446v1106h171v-349h275zM598 155q108 0 174 62t66 161t-66 161.5t-174 62.5h-252v-447h252z" />
    <glyph glyph-name="uni044D" unicode="&#x44d;" horiz-adv-x="1275" 
d="M613 1130q246 0 411 -164.5t165 -408.5q0 -162 -75.5 -295.5t-207.5 -209.5t-293 -76q-199 0 -349 117.5t-198 307.5h172q42 -122 144 -195t232 -73q158 0 269 98t134 254h-501v144h501q-23 154 -134 250t-269 96q-128 0 -230 -70t-146 -186h-168q48 185 196.5 298
t346.5 113z" />
    <glyph glyph-name="uni044E" unicode="&#x44e;" horiz-adv-x="1755" 
d="M1102 1130q160 0 289.5 -75t203 -207.5t73.5 -296.5q0 -248 -160.5 -411.5t-405.5 -163.5q-224 0 -380 138.5t-182 357.5h-190v-474h-175v1108h175v-472h190q28 218 184 357t378 139zM1102 144q167 0 277.5 116t110.5 291q0 176 -111 293.5t-277 117.5
q-167 0 -278 -117.5t-111 -293.5q0 -175 111 -291t278 -116z" />
    <glyph glyph-name="uni044F" unicode="&#x44f;" horiz-adv-x="1146" 
d="M464 1106h508v-1106h-170v423h-278l-262 -423h-193l278 449q-109 34 -173 118.5t-64 197.5q0 148 100.5 244.5t253.5 96.5zM478 592h324v345h-323q-86 0 -139 -47.5t-53 -124.5t53 -125t138 -48z" />
    <glyph glyph-name="uni0451" unicode="&#x451;" horiz-adv-x="1294" 
d="M545 1497v-200h-200v200h200zM949 1497v-200h-200v200h200zM1209 548q0 -30 -3 -62h-943q20 -154 126.5 -247t262.5 -93q114 0 203 50.5t141 140.5h184q-71 -171 -209.5 -266t-318.5 -95q-158 0 -287.5 75t-203 207t-73.5 295q0 162 73.5 294.5t203 207.5t287.5 75
q164 0 292 -78t196.5 -210.5t68.5 -293.5zM652 965q-150 0 -254 -86.5t-131 -231.5h768q-28 147 -131.5 232.5t-251.5 85.5z" />
    <glyph glyph-name="uni0452" unicode="&#x452;" horiz-adv-x="1314" 
d="M729 1128q197 0 312 -126t115 -341v-654q0 -179 -108.5 -287.5t-287.5 -108.5h-62v161h38q114 0 180 66t66 180v601q0 170 -77 261t-221 91q-141 0 -237.5 -106.5t-96.5 -262.5v-602h-175v1217h-196v146h196v138h175v-138h376v-146h-376v-256q65 79 163 123t216 44z" />
    <glyph glyph-name="uni0453" unicode="&#x453;" horiz-adv-x="899" 
d="M734 1547l-187 -311h-137l138 311h186zM865 1106v-155h-519v-951h-171v1106h690z" />
    <glyph glyph-name="uni0454" unicode="&#x454;" horiz-adv-x="1275" 
d="M1039 401h172q-48 -190 -198 -307.5t-349 -117.5q-161 0 -293 76t-207.5 209.5t-75.5 295.5q0 244 165 408.5t411 164.5q198 0 346.5 -113t196.5 -298h-169q-44 116 -146 186t-230 70q-158 0 -268.5 -96t-133.5 -250h500v-144h-500q23 -156 133.5 -254t268.5 -98
q130 0 232.5 73t144.5 195z" />
    <glyph glyph-name="uni0455" unicode="&#x455;" horiz-adv-x="1050" 
d="M525 -24q-196 0 -315 98t-126 265h170q7 -96 82.5 -149t194.5 -53q115 0 187.5 46t72.5 126q0 31 -10 56t-32 42.5t-44 30t-60.5 22.5t-66 15.5t-74.5 13.5q-37 6 -57.5 10t-56 12t-56.5 15t-52 18t-49.5 24t-41.5 30.5t-36.5 38.5t-26.5 46.5t-18.5 57.5t-5.5 69
q0 143 115 231.5t302 88.5t299.5 -92.5t117.5 -249.5h-165q-5 90 -72 138.5t-184 48.5q-112 0 -178 -43.5t-66 -115.5q0 -28 9 -50.5t30 -38.5t42 -27t58 -20t63 -14t73 -12q164 -27 235 -57q164 -69 178 -242q2 -19 2 -38q0 -155 -120 -248t-318 -93z" />
    <glyph glyph-name="uni0456" unicode="&#x456;" horiz-adv-x="524" 
d="M168 1297v200h189v-200h-189zM175 0v1106h175v-1106h-175z" />
    <glyph glyph-name="uni0457" unicode="&#x457;" horiz-adv-x="524" 
d="M18 1297v200h177v-200h-177zM328 1295v200h177v-200h-177zM175 0v1106h175v-1106h-175z" />
    <glyph glyph-name="uni0458" unicode="&#x458;" horiz-adv-x="548" 
d="M195 1297v200h188v-200h-188zM-86 -395v159h66q106 0 163 58t57 164v1120h174v-1133q0 -166 -101 -267t-268 -101h-91z" />
    <glyph glyph-name="uni0459" unicode="&#x459;" horiz-adv-x="1783" 
d="M1330 750q174 0 284 -104.5t110 -271.5q0 -166 -110 -270t-284 -104h-447v954h-370l-58 -557q-22 -219 -111 -310t-271 -91h-34v159h43q94 0 143 54t62 175l80 722h681v-356h282zM1314 146q107 0 173.5 63t66.5 165t-67 166t-173 64h-266v-458h266z" />
    <glyph glyph-name="uni045A" unicode="&#x45a;" horiz-adv-x="1751" 
d="M1309 729q173 0 276.5 -100.5t103.5 -263.5q0 -165 -103 -265t-277 -100h-438v512h-525v-512h-171v1106h171v-431h525v431h170v-377h268zM1285 159q105 0 166 55t61 151q0 95 -61 150t-166 55h-244v-411h244z" />
    <glyph glyph-name="uni045B" unicode="&#x45b;" horiz-adv-x="1314" 
d="M729 1130q197 0 312 -126.5t115 -341.5v-662h-174v621q0 168 -77 259t-221 91q-142 0 -238 -106t-96 -262v-603h-175v1217h-192v146h192v138h175v-138h380v-146h-380v-262q65 83 163 129t216 46z" />
    <glyph glyph-name="uni045C" unicode="&#x45c;" horiz-adv-x="1105" 
d="M828 1547l-186 -311h-138l138 311h186zM886 0l-378 496h-159v-496h-174v1106h174v-449h161l341 449h212l-403 -530l444 -576h-218z" />
    <glyph glyph-name="uni045D" unicode="&#x45d;" horiz-adv-x="1261" 
d="M718 1236h-137l-187 311h186zM990 1106h96v-1106h-164v790l-646 -790h-101v1106h167v-785z" />
    <glyph glyph-name="uni045E" unicode="&#x45e;" horiz-adv-x="1200" 
d="M336 1328v131h538v-131h-538zM984 1106h185l-527 -1152q-90 -197 -183.5 -273t-249.5 -76h-104v158h89q110 0 166 45t123 185l40 82l-492 1031h190l393 -837z" />
    <glyph glyph-name="uni045F" unicode="&#x45f;" horiz-adv-x="1290" 
d="M1116 1106v-1106h-386v-288h-167v288h-388v1106h171v-945h599v945h171z" />
    <glyph glyph-name="uni0490" unicode="&#x490;" horiz-adv-x="1007" 
d="M796 1649h169v-384h-590v-1265h-179v1434h600v215z" />
    <glyph glyph-name="uni0491" unicode="&#x491;" horiz-adv-x="899" 
d="M698 1349h167v-398h-519v-951h-171v1106h523v243z" />
    <glyph glyph-name="Wgrave" unicode="&#x1e80;" horiz-adv-x="2103" 
d="M987 1594l-197 291h185l149 -291h-137zM1865 1434h190l-452 -1434h-159l-394 1019l-385 -1019h-158l-462 1434h191l357 -1139l420 1111h72l432 -1112z" />
    <glyph glyph-name="wgrave" unicode="&#x1e81;" horiz-adv-x="1738" 
d="M949 1236h-137l-187 311h186zM1524 1106h176l-377 -1106h-142l-312 754l-313 -754h-141l-374 1106h182l275 -815l339 798h63l341 -805z" />
    <glyph glyph-name="Wacute" unicode="&#x1e82;" horiz-adv-x="2103" 
d="M1296 1885l-197 -291h-138l150 291h185zM1865 1434h190l-452 -1434h-159l-394 1019l-385 -1019h-158l-462 1434h191l357 -1139l420 1111h72l432 -1112z" />
    <glyph glyph-name="wacute" unicode="&#x1e83;" horiz-adv-x="1738" 
d="M1088 1547l-187 -311h-137l138 311h186zM1524 1106h176l-377 -1106h-142l-312 754l-313 -754h-141l-374 1106h182l275 -815l339 798h63l341 -805z" />
    <glyph glyph-name="Wdieresis" unicode="&#x1e84;" horiz-adv-x="2103" 
d="M726 1614v200h200v-200h-200zM1171 1614v200h199v-200h-199zM1865 1434h190l-452 -1434h-159l-394 1019l-385 -1019h-158l-462 1434h191l357 -1139l420 1111h72l432 -1112z" />
    <glyph glyph-name="wdieresis" unicode="&#x1e85;" horiz-adv-x="1738" 
d="M561 1297v200h200v-200h-200zM965 1297v200h200v-200h-200zM1524 1106h176l-377 -1106h-142l-312 754l-313 -754h-141l-374 1106h182l275 -815l339 798h63l341 -805z" />
    <glyph glyph-name="uni1E9E" unicode="&#x1e9e;" horiz-adv-x="1409" 
d="M923 917q183 -23 288 -140.5t105 -303.5q0 -209 -142.5 -341t-380.5 -132h-189v174h189q152 0 245.5 83t93.5 216t-93.5 216.5t-244.5 83.5h-139v37l261 451h-237q-155 0 -236.5 -80.5t-81.5 -235.5v-945h-180v964q0 219 125.5 344.5t344.5 125.5h550v-34z" />
    <glyph glyph-name="Ygrave" unicode="&#x1ef2;" horiz-adv-x="1347" 
d="M614 1594l-198 291h186l149 -291h-137zM1295 1434l-529 -862v-572h-185v572l-525 862h196l422 -693l424 693h197z" />
    <glyph glyph-name="ygrave" unicode="&#x1ef3;" horiz-adv-x="1200" 
d="M690 1236h-137l-187 311h186zM984 1106h185l-527 -1152q-90 -197 -183.5 -273t-249.5 -76h-104v158h89q110 0 166 45t123 185l40 82l-492 1031h190l393 -837z" />
    <glyph glyph-name="endash" unicode="&#x2013;" horiz-adv-x="1310" 
d="M141 488v168h1029v-168h-1029z" />
    <glyph glyph-name="emdash" unicode="&#x2014;" horiz-adv-x="1837" 
d="M141 488v168h1554v-168h-1554z" />
    <glyph glyph-name="quoteleft" unicode="&#x2018;" horiz-adv-x="460" 
d="M324 1548v-96q-107 -37 -107 -176h116v-215h-210v200q0 230 201 287z" />
    <glyph glyph-name="quoteright" unicode="&#x2019;" horiz-adv-x="448" 
d="M142 984v97q107 37 107 175h-117v215h211v-200q0 -230 -201 -287z" />
    <glyph glyph-name="quotesinglbase" unicode="&#x201a;" horiz-adv-x="493" 
d="M151 -272v97q107 37 107 175h-117v215h211v-200q0 -230 -201 -287z" />
    <glyph glyph-name="quotedblleft" unicode="&#x201c;" horiz-adv-x="813" 
d="M323 1551l1 -95q-108 -39 -108 -175h117v-216h-210v201q0 229 200 285zM675 1551l2 -95q-108 -39 -108 -175h117v-216h-211v201q0 229 200 285z" />
    <glyph glyph-name="quotedblright" unicode="&#x201d;" horiz-adv-x="800" 
d="M143 985l-1 95q107 38 107 175h-117v216h211v-200q0 -230 -200 -286zM496 985l-2 95q108 39 108 175h-117v216h211v-200q0 -230 -200 -286z" />
    <glyph glyph-name="quotedblbase" unicode="&#x201e;" horiz-adv-x="845" 
d="M152 -270l-1 95q107 38 107 175h-117v215h211v-200q0 -229 -200 -285zM505 -270l-2 95q108 39 108 175h-117v215h211v-200q0 -229 -200 -285z" />
    <glyph glyph-name="dagger" unicode="&#x2020;" horiz-adv-x="1040" 
d="M981 1036v-159h-376v-959h-170v959h-376v159h376v398h170v-398h376z" />
    <glyph glyph-name="daggerdbl" unicode="&#x2021;" horiz-adv-x="1122" 
d="M1022 877h-376v-402h376v-159h-376v-398h-170v398h-376v159h376v402h-376v159h376v398h170v-398h376v-159z" />
    <glyph glyph-name="bullet" unicode="&#x2022;" horiz-adv-x="700" 
d="M350 421q-76 0 -127.5 51.5t-51.5 127.5q0 77 51.5 128t127.5 51q77 0 128 -51t51 -128q0 -76 -51 -127.5t-128 -51.5z" />
    <glyph glyph-name="ellipsis" unicode="&#x2026;" horiz-adv-x="1134" 
d="M139 0v218h200v-218h-200zM467 0v218h200v-218h-200zM795 0v218h200v-218h-200z" />
    <glyph glyph-name="perthousand" unicode="&#x2030;" horiz-adv-x="2322" 
d="M374 768q-136 0 -223 86t-87 221q0 134 87 219.5t223 85.5t222.5 -85.5t86.5 -219.5q0 -135 -87 -221t-222 -86zM274 1l822 1363h173l-821 -1363h-174zM374 901q75 0 124 49t49 125q0 75 -49 123.5t-124 48.5t-123.5 -48.5t-48.5 -123.5q0 -76 48.5 -125t123.5 -49z
M1198 -16q-135 0 -221.5 85t-86.5 218t86.5 218t221.5 85t221.5 -85t86.5 -218t-86.5 -218t-221.5 -85zM1954 -16q-135 0 -221.5 85t-86.5 218t86.5 218t221.5 85t221.5 -85t86.5 -218t-86.5 -218t-221.5 -85zM1198 117q74 0 122 48t48 122t-48 122t-122 48t-122 -48
t-48 -122t48 -122t122 -48zM1954 117q74 0 122 48t48 122t-48 122t-122 48t-122.5 -48t-48.5 -122t48.5 -122t122.5 -48z" />
    <glyph glyph-name="guilsinglleft" unicode="&#x2039;" horiz-adv-x="733" 
d="M423 120l-344 413v28l344 413h206l-352 -427l352 -427h-206z" />
    <glyph glyph-name="guilsinglright" unicode="&#x203a;" horiz-adv-x="733" 
d="M310 120h-207l353 427l-353 427h207l344 -413v-28z" />
    <glyph glyph-name="fraction" unicode="&#x2044;" horiz-adv-x="323" 
d="M-320 -61l828 1556h140l-827 -1556h-141z" />
    <glyph glyph-name="Euro" unicode="&#x20ac;" horiz-adv-x="1327" 
d="M971 1243q-168 0 -305 -85.5t-203 -233.5h685l-36 -146h-691q-6 -45 -6 -92q0 -55 7 -100h642l-34 -146h-563q67 -145 202.5 -228t299.5 -83q115 0 222 41v-156q-116 -40 -244 -40q-225 0 -407.5 126.5t-255.5 339.5h-216l34 146h148q-6 48 -6 100q0 42 5 92h-175l34 146
h172q70 219 255 347t417 128q160 0 305 -60l-36 -146q-117 50 -250 50z" />
    <glyph glyph-name="uni20BD" unicode="&#x20bd;" horiz-adv-x="1226" 
d="M744 561h-311v-163h450v-126h-450v-272h-171v272h-153v126h153v169h-153v138h153v657h482q182 0 298.5 -112.5t116.5 -288.5q0 -175 -116.5 -287.5t-298.5 -112.5zM990 961q0 108 -74.5 179.5t-187.5 71.5h-295v-501h295q113 0 187.5 71.5t74.5 178.5z" />
    <glyph glyph-name="uni2113" unicode="&#x2113;" horiz-adv-x="929" 
d="M713 313h133v-4q0 -153 -84 -243t-227 -90q-147 0 -233.5 93t-86.5 251v83q-59 -26 -142 -55v142q83 32 142 61v552q0 164 83.5 258.5t230.5 94.5q143 0 229 -89t86 -238q0 -181 -131.5 -355t-359.5 -302v-154q0 -97 48.5 -151.5t133.5 -54.5q83 0 130.5 52.5t47.5 144.5
v4zM353 1110v-482q170 107 261 237t91 268q0 90 -46 140.5t-130 47.5q-86 3 -131 -52.5t-45 -158.5z" />
    <glyph glyph-name="uni2116" unicode="&#x2116;" horiz-adv-x="2258" 
d="M1121 312v1052h167v-1364h-144l-776 1065v-1065h-169v1364h156zM1813 590q-139 0 -232 90t-93 227q0 135 93 225.5t232 90.5t231.5 -90.5t92.5 -225.5q-2 -137 -93.5 -227t-230.5 -90zM1813 1096q-83 0 -137.5 -54t-54.5 -135q0 -82 54.5 -135.5t137.5 -53.5
q84 0 137.5 53t53.5 136q0 81 -54.5 135t-136.5 54zM1481 378h663v-150h-663v150z" />
    <glyph glyph-name="uni2117" unicode="&#x2117;" horiz-adv-x="1718" 
d="M857 1452q219 0 393 -94t271.5 -262.5t97.5 -380.5t-97.5 -380.5t-271.5 -262.5t-393 -94q-218 0 -391 93.5t-269.5 262t-96.5 381.5t96.5 381.5t269.5 262t391 93.5zM857 84q186 0 333.5 80t230 224t82.5 327q0 277 -181.5 453.5t-464.5 176.5q-282 0 -462.5 -176
t-180.5 -454t180.5 -454.5t462.5 -176.5zM947 1133q129 0 215.5 -82t86.5 -204q0 -123 -86 -205t-216 -82h-222v-316h-116v889h338zM943 661q84 0 139 53t55 133q0 82 -55 134.5t-139 52.5h-220v-373h220z" />
    <glyph glyph-name="trademark" unicode="&#x2122;" horiz-adv-x="1320" 
d="M63 1357v77h434v-77h-169v-435h-83v435h-182zM1194 922h-81l-64 380l-181 -380h-18l-180 380l-66 -380h-80l86 512h73l176 -375l176 375h74z" />
    <glyph glyph-name="estimated" unicode="&#x212e;" horiz-adv-x="1544" 
d="M1470 616h-1067v-372q161 -148 383 -148q126 0 243 47t197 129l147 -4q-94 -136 -255 -212t-332 -76q-188 0 -345 91t-248 248t-91 345q0 138 55 264.5t147 218.5t218.5 146.5t263.5 54.5q135 0 262 -54.5t220 -145t149.5 -213t56.5 -251.5q0 -29 -4 -68zM786 1231
q-107 0 -206 -40t-177 -112v-350h768v350q-79 71 -179 111.5t-206 40.5z" />
    <glyph glyph-name="uni2150" unicode="&#x2150;" horiz-adv-x="1390" 
d="M940 1495h141l-828 -1556h-140zM176 659v651h-128v124h269v-775h-141zM806 775h545v-19l-301 -756h-142l262 651h-364v124z" />
    <glyph glyph-name="uni2151" unicode="&#x2151;" horiz-adv-x="1449" 
d="M940 1495h141l-828 -1556h-140zM176 659v651h-128v124h269v-775h-141zM1094 790q127 0 207.5 -76t80.5 -197q0 -109 -82 -249l-156 -270h-153l141 245q4 7 11.5 21.5t11.5 21.5q-43 -17 -89 -17q-109 0 -183 70t-74 178q0 119 80.5 196t204.5 77zM1096 374q66 0 107.5 40
t41.5 103t-41.5 103t-107.5 40q-67 0 -108.5 -39.5t-41.5 -103.5t41.5 -103.5t108.5 -39.5z" />
    <glyph glyph-name="uni2152" unicode="&#x2152;" horiz-adv-x="1957" 
d="M113 -61l827 1556h141l-828 -1556h-140zM176 659v651h-128v124h269v-775h-141zM1574 790q144 0 227 -107.5t83 -294.5q0 -186 -83 -295t-227 -109q-143 0 -226 109t-83 295q0 187 82.5 294.5t226.5 107.5zM806 652v123h268v-775h-141v652h-127zM1574 122q79 0 124 70.5
t45 195.5t-45 194t-124 69t-123 -68.5t-44 -194.5q0 -125 43.5 -195.5t123.5 -70.5z" />
    <glyph glyph-name="uni2153" unicode="&#x2153;" horiz-adv-x="1423" 
d="M940 1495h141l-828 -1556h-140zM176 659v651h-128v124h269v-775h-141zM1155 487q91 -17 146 -83.5t55 -160.5q0 -112 -76.5 -185t-192.5 -73q-111 0 -184.5 70.5t-77.5 180.5h135q4 -54 38.5 -87.5t88.5 -33.5q59 0 95.5 37t36.5 97q0 58 -40 94.5t-103 36.5h-106v25
l158 246h-283v124h482v-29z" />
    <glyph glyph-name="uni2154" unicode="&#x2154;" horiz-adv-x="1652" 
d="M1170 1495h140l-827 -1556h-141zM593 793v-133h-534v34q173 194 247 285t100.5 140t26.5 95q0 50 -30 80t-78 30q-51 0 -82.5 -31t-31.5 -81v-17h-136v17q0 108 68 173t180 65q110 0 180 -66t70 -170q0 -76 -50 -160.5t-202 -260.5h272zM1384 487q91 -17 146 -83.5
t55 -160.5q0 -112 -76.5 -185t-192.5 -73q-111 0 -184.5 70.5t-77.5 180.5h135q4 -54 38.5 -87.5t88.5 -33.5q59 0 96 37t37 97q0 58 -40 94.5t-103 36.5h-106v25l157 246h-283v124h483v-29z" />
    <glyph glyph-name="uni2155" unicode="&#x2155;" horiz-adv-x="1413" 
d="M940 1495h141l-828 -1556h-140zM176 659v651h-128v124h269v-775h-141zM1078 496q120 0 196.5 -71t76.5 -182q0 -110 -76.5 -184t-188.5 -74q-115 0 -190 70.5t-76 179.5h136q2 -54 38 -88t92 -34q55 0 90.5 36.5t35.5 93.5q0 58 -38 95.5t-98 37.5h-214l-14 20l43 379
h407v-124h-294l-18 -155h92z" />
    <glyph glyph-name="uni2156" unicode="&#x2156;" horiz-adv-x="1642" 
d="M1170 1495h140l-827 -1556h-141zM593 793v-133h-534v34q173 194 247 285t100.5 140t26.5 95q0 50 -30 80t-78 30q-51 0 -82.5 -31t-31.5 -81v-17h-136v17q0 108 68 173t180 65q110 0 180 -66t70 -170q0 -76 -50 -160.5t-202 -260.5h272zM1307 496q120 0 196.5 -71
t76.5 -182t-76 -184.5t-188 -73.5q-115 0 -190.5 70.5t-76.5 179.5h137q2 -54 38 -88t92 -34q55 0 90.5 36.5t35.5 93.5q0 58 -38.5 95.5t-98.5 37.5h-213l-14 20l42 379h408v-124h-295l-18 -155h92z" />
    <glyph glyph-name="uni2157" unicode="&#x2157;" horiz-adv-x="1648" 
d="M1175 1495h140l-827 -1556h-141zM599 902q0 -112 -76.5 -185t-192.5 -73q-111 0 -184.5 70t-77.5 180h135q4 -54 38.5 -87.5t88.5 -33.5q59 0 95.5 37.5t36.5 97.5q0 58 -40 94t-103 36h-105v26l157 246h-283v124h482v-30l-172 -258q91 -17 146 -83.5t55 -160.5z
M1312 496q120 0 196.5 -71t76.5 -182t-76 -184.5t-188 -73.5q-115 0 -190.5 70.5t-76.5 179.5h137q2 -54 38 -88t92 -34q55 0 90.5 36.5t35.5 93.5q0 58 -38.5 95.5t-98.5 37.5h-213l-14 20l42 379h408v-124h-295l-18 -155h92z" />
    <glyph glyph-name="uni2158" unicode="&#x2158;" horiz-adv-x="1665" 
d="M1193 1495h140l-827 -1556h-141zM425 659v154h-381v27l262 594h139l-222 -499h205l23 205h107v-205h74v-122h-74v-154h-133zM1330 496q120 0 196.5 -71t76.5 -182t-76 -184.5t-188 -73.5q-115 0 -190.5 70.5t-76.5 179.5h137q2 -54 38 -88t92 -34q55 0 90.5 36.5
t35.5 93.5q0 58 -38.5 95.5t-98.5 37.5h-214l-14 20l43 379h408v-124h-295l-18 -155h92z" />
    <glyph glyph-name="uni2159" unicode="&#x2159;" horiz-adv-x="1398" 
d="M940 1495h141l-828 -1556h-140zM176 659v651h-128v124h269v-775h-141zM1090 506q109 0 183 -70t74 -178q0 -119 -80.5 -196t-204.5 -77q-127 0 -207.5 76t-80.5 197q0 105 82 249l156 270h153l-141 -245l-24 -45q44 19 90 19zM1060 115q67 0 108.5 39.5t41.5 103.5
q0 63 -42 103t-108 40q-65 0 -107 -40.5t-42 -102.5q0 -63 41.5 -103t107.5 -40z" />
    <glyph glyph-name="uni215A" unicode="&#x215a;" horiz-adv-x="1622" 
d="M1164 1495h140l-827 -1556h-141zM594 901q0 -110 -76.5 -183.5t-188.5 -73.5q-115 0 -190 70.5t-76 179.5h136q2 -54 38 -88.5t92 -34.5q55 0 90.5 36.5t35.5 93.5q0 58 -38 96t-98 38h-214l-14 19l43 380h407v-124h-294l-18 -155h92q120 0 196.5 -71.5t76.5 -182.5z
M1314 506q109 0 183 -70t74 -178q0 -119 -80.5 -196t-204.5 -77q-127 0 -208 76t-81 197q0 105 82 249l156 270h154l-141 -245q-4 -8 -12.5 -23t-12.5 -22q44 19 91 19zM1284 115q67 0 108.5 39.5t41.5 103.5q0 63 -42 103t-108 40q-65 0 -107.5 -40.5t-42.5 -102.5
q0 -63 42 -103t108 -40z" />
    <glyph glyph-name="oneeighth" unicode="&#x215b;" horiz-adv-x="1470" 
d="M940 1495h141l-828 -1556h-140zM176 659v651h-128v124h269v-775h-141zM1291 414q105 -63 105 -186q0 -107 -78.5 -175t-204.5 -68q-125 0 -203 68t-78 175q0 125 105 187q-82 60 -82 160q0 94 72.5 155t187.5 61q114 0 185.5 -61t71.5 -155q0 -101 -81 -161zM1115 677
q-55 0 -90 -29.5t-35 -73.5q0 -46 35 -75t90 -29q53 0 88 29t35 75q0 44 -34.5 73.5t-88.5 29.5zM1115 107q65 0 105 33.5t40 87.5q0 56 -40 91t-105 35t-106 -35t-41 -91q0 -53 41 -87t106 -34z" />
    <glyph glyph-name="threeeighths" unicode="&#x215c;" horiz-adv-x="1705" 
d="M1175 1495h140l-827 -1556h-141zM599 902q0 -112 -76.5 -185t-192.5 -73q-111 0 -184.5 70t-77.5 180h135q4 -54 38.5 -87.5t88.5 -33.5q59 0 95.5 37.5t36.5 97.5q0 58 -40 94t-103 36h-105v26l157 246h-283v124h482v-30l-172 -258q91 -17 146 -83.5t55 -160.5z
M1525 414q106 -64 106 -186q0 -107 -79 -175t-205 -68q-125 0 -203 68t-78 175q0 124 106 187q-82 60 -82 160q0 95 72 155.5t187 60.5q114 0 186 -61t72 -155q0 -100 -82 -161zM1349 677q-54 0 -89 -29t-35 -74q0 -46 34.5 -75t89.5 -29q53 0 88 29t35 75q0 44 -34.5 73.5
t-88.5 29.5zM1349 107q65 0 105 33.5t40 87.5q0 56 -40 91t-105 35t-105.5 -35t-40.5 -91q0 -53 40.5 -87t105.5 -34z" />
    <glyph glyph-name="fiveeighths" unicode="&#x215d;" horiz-adv-x="1693" 
d="M1164 1495h140l-827 -1556h-141zM594 901q0 -110 -76.5 -183.5t-188.5 -73.5q-115 0 -190 70.5t-76 179.5h136q2 -54 38 -88.5t92 -34.5q55 0 90.5 36.5t35.5 93.5q0 58 -38 96t-98 38h-214l-14 19l43 380h407v-124h-294l-18 -155h92q120 0 196.5 -71.5t76.5 -182.5z
M1514 414q106 -64 106 -186q0 -107 -79 -175t-205 -68q-125 0 -203 68t-78 175q0 124 106 187q-82 60 -82 160q0 95 72 155.5t187 60.5q114 0 186 -61t72 -155q0 -100 -82 -161zM1338 677q-54 0 -89 -29t-35 -74q0 -46 34.5 -75t89.5 -29q53 0 88 29t35 75q0 44 -34.5 73.5
t-88.5 29.5zM1338 107q65 0 105 33.5t40 87.5q0 56 -40 91t-105 35t-105.5 -35t-40.5 -91q0 -53 40.5 -87t105.5 -34z" />
    <glyph glyph-name="seveneighths" unicode="&#x215e;" horiz-adv-x="1585" 
d="M1055 1495h141l-828 -1556h-140zM293 659h-142l262 651h-364v124h545v-20zM1406 414q105 -63 105 -186q0 -107 -78.5 -175t-204.5 -68q-125 0 -203 68t-78 175q0 125 105 187q-82 60 -82 160q0 94 72.5 155t187.5 61q114 0 186 -61t72 -155q0 -100 -82 -161zM1230 677
q-55 0 -90 -29.5t-35 -73.5q0 -46 35 -75t90 -29q53 0 88 29t35 75q0 44 -34.5 73.5t-88.5 29.5zM1230 107q65 0 105 33.5t40 87.5q0 56 -40 91t-105 35t-106 -35t-41 -91q0 -53 41 -87t106 -34z" />
    <glyph glyph-name="uni215F" unicode="&#x215f;" horiz-adv-x="757" 
d="M940 1495h141l-828 -1556h-140zM176 659v651h-128v124h269v-775h-141z" />
    <glyph glyph-name="uni2189" unicode="&#x2189;" horiz-adv-x="1761" 
d="M1277 1495h140l-827 -1556h-141zM694 1048q0 -186 -83 -295t-226 -109q-144 0 -227 109t-83 295q0 187 83 294.5t227 107.5t226.5 -107.5t82.5 -294.5zM385 783q79 0 124 70t45 195t-45 194t-124 69t-123.5 -69t-44.5 -194q0 -124 44 -194.5t124 -70.5zM1491 487
q91 -17 146 -83.5t55 -160.5q0 -112 -76.5 -185t-192.5 -73q-111 0 -184.5 70.5t-77.5 180.5h135q4 -54 38.5 -87.5t88.5 -33.5q59 0 95.5 37t36.5 97q0 58 -40 94.5t-103 36.5h-105v25l157 246h-283v124h483v-29z" />
    <glyph glyph-name="arrowleft" unicode="&#x2190;" horiz-adv-x="1339" 
d="M1269 758v-156h-936l393 -388l-108 -96l-555 550v24l555 550l108 -97l-393 -387h936z" />
    <glyph glyph-name="arrowup" unicode="&#x2191;" horiz-adv-x="1228" 
d="M1176 791l-96 -108l-388 392v-936h-156v936l-387 -392l-97 108l550 555h24z" />
    <glyph glyph-name="arrowright" unicode="&#x2192;" horiz-adv-x="1339" 
d="M721 1242l555 -550v-24l-555 -550l-108 96l393 388h-936v156h936l-393 387z" />
    <glyph glyph-name="arrowdown" unicode="&#x2193;" horiz-adv-x="1228" 
d="M1080 776l96 -108l-550 -555h-24l-550 555l97 108l387 -393v936h156v-936z" />
    <glyph glyph-name="uni2196" unicode="&#x2196;" horiz-adv-x="1196" 
d="M1136 309l-109 -110l-733 742v-587h-144v820l19 20h820v-144h-586z" />
    <glyph glyph-name="uni2197" unicode="&#x2197;" horiz-adv-x="1196" 
d="M1028 1194l19 -20v-820h-144v587l-733 -742l-109 110l733 741h-586v144h820z" />
    <glyph glyph-name="uni2198" unicode="&#x2198;" horiz-adv-x="1241" 
d="M902 991h145v-820l-20 -19h-820v144h586l-733 741l110 109l732 -741v586z" />
    <glyph glyph-name="uni2199" unicode="&#x2199;" horiz-adv-x="1241" 
d="M1181 1037l-733 -741h586v-144h-820l-19 19v820h144v-586l733 741z" />
    <glyph glyph-name="partialdiff" unicode="&#x2202;" horiz-adv-x="1261" 
d="M518 1456q310 0 472 -170t162 -509q0 -160 -31 -315q-46 -225 -203.5 -355.5t-386.5 -130.5q-146 0 -252.5 59.5t-159 158.5t-52.5 224q0 110 40 210t112 176t180.5 121t236.5 45q227 0 353 -151q-10 487 -487 487q-96 0 -236 -23v148q139 25 252 25zM552 129
q172 0 288 116t116 289q0 132 -87 213t-230 81q-173 0 -288.5 -113t-115.5 -284q0 -136 87 -219t230 -83z" />
    <glyph glyph-name="emptyset" unicode="&#x2205;" horiz-adv-x="1372" 
d="M1047 1003q106 -77 165.5 -195.5t59.5 -260.5q0 -244 -163.5 -405.5t-409.5 -161.5q-127 0 -249 52l-65 -106h-167l110 175q-108 78 -168.5 197t-60.5 262q0 160 75.5 289.5t207.5 203t293 73.5q136 0 249 -52l60 100h167zM673 967q-175 0 -288 -114.5t-113 -292.5
q0 -100 39 -183.5t108 -138.5l422 696q-79 33 -168 33zM699 139q174 0 287.5 114.5t113.5 293.5q0 98 -37.5 180.5t-105.5 138.5l-422 -695q75 -32 164 -32z" />
    <glyph glyph-name="product" unicode="&#x220f;" horiz-adv-x="1497" 
d="M1430 1434v-169h-213v-1593h-184v1593h-570v-1593h-183v1593h-214v169h1364z" />
    <glyph glyph-name="summation" unicode="&#x2211;" horiz-adv-x="1206" 
d="M381 -161h746v-169h-1067v33l580 862l-580 835v34h1059v-167h-735l481 -688v-28z" />
    <glyph glyph-name="minus" unicode="&#x2212;" horiz-adv-x="1275" 
d="M147 617v161h983v-161h-983z" />
    <glyph glyph-name="radical" unicode="&#x221a;" horiz-adv-x="1368" 
d="M647 0l-351 831h-270v150h380l279 -677l527 1232h178l-670 -1536h-73z" />
    <glyph glyph-name="infinity" unicode="&#x221e;" horiz-adv-x="1998" 
d="M1483 1086q181 0 297 -112.5t116 -287.5t-116 -287.5t-297 -112.5q-76 0 -145 22t-129.5 65.5t-107.5 88t-101 107.5q-44 -50 -79.5 -86.5t-84.5 -75.5t-95 -64t-104.5 -41t-119.5 -16q-180 0 -296.5 113t-116.5 287t116.5 287t296.5 113q75 0 144 -22.5t130 -66
t107.5 -87.5t101.5 -107q55 63 101.5 107.5t107.5 88t130 65.5t144 22zM526 434q54 0 104 19t98.5 58.5t85 77t87.5 97.5q-51 60 -87.5 98t-85 77t-98.5 58t-104 19q-121 0 -194 -68.5t-73 -183.5t73 -183.5t194 -68.5zM1475 434q121 0 193 68.5t72 183.5t-72 183.5
t-193 68.5q-54 0 -104.5 -19t-98.5 -57.5t-85 -77t-87 -98.5q50 -59 87.5 -97.5t85.5 -77.5t98 -58t104 -19z" />
    <glyph glyph-name="integral" unicode="&#x222b;" horiz-adv-x="786" 
d="M-21 -617v159h43q139 0 214 75.5t75 214.5v1640q0 187 106.5 294t293.5 107h94v-157h-45q-133 0 -204.5 -72t-71.5 -206v-1640q0 -193 -110.5 -304t-301.5 -111h-93z" />
    <glyph glyph-name="approxequal" unicode="&#x2248;" horiz-adv-x="1191" 
d="M800 746q-68 0 -125.5 28t-132.5 97q-49 48 -77 65t-59 17q-59 0 -96 -47.5t-37 -123.5v-29h-126v34q0 145 70 231t187 86q72 0 129.5 -28t124.5 -97q49 -49 77.5 -66t60.5 -17q59 0 95 46t36 121v30h126v-32q0 -145 -68 -230t-185 -85zM805 294q-68 0 -126 28t-132 96
q-49 47 -77.5 64.5t-59.5 17.5q-59 0 -96 -47.5t-37 -123.5v-29h-125v35q0 145 69.5 231t186.5 86q72 0 129.5 -28.5t124.5 -97.5q48 -48 77 -65t62 -17q59 0 95 45.5t36 120.5v31h125v-33q0 -145 -67.5 -229.5t-184.5 -84.5z" />
    <glyph glyph-name="notequal" unicode="&#x2260;" horiz-adv-x="1275" 
d="M1130 843h-389l-72 -290h461v-161h-502l-74 -293h-151l73 293h-329v161h370l73 290h-443v161h483l80 316h151l-79 -316h348v-161z" />
    <glyph glyph-name="lessequal" unicode="&#x2264;" horiz-adv-x="1134" 
d="M995 479v-169l-913 484v69l913 494v-167l-632 -361zM125 161h879v-161h-879v161z" />
    <glyph glyph-name="greaterequal" unicode="&#x2265;" horiz-adv-x="1134" 
d="M139 1357l913 -494v-69l-913 -484v169l632 350l-632 361v167zM131 0v161h878v-161h-878z" />
    <glyph glyph-name="lozenge" unicode="&#x25ca;" horiz-adv-x="1142" 
d="M558 0l-490 705v28l490 701h27l490 -701v-28l-490 -705h-27zM572 206l357 513l-357 510l-358 -512z" />
    <glyph glyph-name="K.ss01" horiz-adv-x="1267" 
d="M196 0v1434h179v-1434h-179zM624 745l657 -745h-244l-641 730v22l597 682h235z" />
    <glyph glyph-name="K.ss03" horiz-adv-x="1267" 
d="M196 0v1434h179v-1434h-179zM624 745l657 -745h-244l-641 730v22l597 682h235z" />
    <glyph glyph-name="K.ss04" horiz-adv-x="1267" 
d="M196 0v1434h179v-1434h-179zM624 745l657 -745h-244l-641 730v22l597 682h235z" />
    <glyph glyph-name="germandbls.calt" horiz-adv-x="1409" 
d="M923 917q183 -23 288 -140.5t105 -303.5q0 -209 -142.5 -341t-380.5 -132h-189v174h189q152 0 245.5 83t93.5 216t-93.5 216.5t-244.5 83.5h-139v37l261 451h-237q-155 0 -236.5 -80.5t-81.5 -235.5v-945h-180v964q0 219 125.5 344.5t344.5 125.5h550v-34z" />
    <glyph glyph-name="i.loclTRK" horiz-adv-x="524" 
d="M168 1297v200h189v-200h-189zM175 0v1106h175v-1106h-175z" />
    <glyph glyph-name="k.ss01" horiz-adv-x="1067" 
d="M175 0v1501h175v-1501h-175zM588 576l487 -576h-224l-466 566v18l436 522h218z" />
    <glyph glyph-name="k.ss03" horiz-adv-x="1067" 
d="M175 0v1501h175v-1501h-175zM588 576l487 -576h-224l-466 566v18l436 522h218z" />
    <glyph glyph-name="k.ss04" horiz-adv-x="1067" 
d="M175 0v1501h175v-1501h-175zM588 576l487 -576h-224l-466 566v18l436 522h218z" />
    <glyph glyph-name="uni0414.loclBGR" horiz-adv-x="1556" 
d="M1369 168h120v-450h-167v282h-1089v-282h-166v450h121l503 1266h164zM773 1171l-398 -1003h804z" />
    <glyph glyph-name="uni041B.loclBGR" horiz-adv-x="1372" 
d="M1332 0h-194l-452 1173l-455 -1173h-190l561 1434h168z" />
    <glyph glyph-name="uni0416.ss01" horiz-adv-x="1886" 
d="M50 1434h234l549 -682v-22l-592 -730h-244l611 746zM853 0v1434h180v-1434h-180zM1278 746l611 -746h-244l-592 730v22l548 682h235z" />
    <glyph glyph-name="uni041A.ss01" horiz-adv-x="1267" 
d="M196 0v1434h179v-1434h-179zM624 745l657 -745h-244l-641 730v22l597 682h235z" />
    <glyph glyph-name="uni0424.ss01" horiz-adv-x="1783" 
d="M1684 718q0 -145 -49 -276t-138 -231.5t-223.5 -163t-294.5 -69.5v-219h-176v220q-159 7 -293 69.5t-223.5 162.5t-139 230.5t-49.5 273.5q0 144 49.5 275t139 231.5t223.5 163.5t293 70v196h176v-196q160 -7 294.5 -69t223.5 -162.5t138 -231t49 -274.5zM979 151
q154 9 274.5 89t184 205t63.5 272t-63.5 271.5t-184 204t-274.5 88.5v-1130zM282 717q0 -147 63 -272t183.5 -204.5t274.5 -89.5v1130q-232 -15 -376.5 -177t-144.5 -387z" />
    <glyph glyph-name="uni0414.ss02" horiz-adv-x="1556" 
d="M1369 168h120v-450h-167v282h-1089v-282h-166v450h121l503 1266h164zM773 1171l-398 -1003h804z" />
    <glyph glyph-name="uni041B.ss02" horiz-adv-x="1372" 
d="M1332 0h-194l-452 1173l-455 -1173h-190l561 1434h168z" />
    <glyph glyph-name="uni0414.ss03" horiz-adv-x="1556" 
d="M1369 168h120v-450h-167v282h-1089v-282h-166v450h121l503 1266h164zM773 1171l-398 -1003h804z" />
    <glyph glyph-name="uni0416.ss03" horiz-adv-x="1886" 
d="M50 1434h234l549 -682v-22l-592 -730h-244l611 746zM853 0v1434h180v-1434h-180zM1278 746l611 -746h-244l-592 730v22l548 682h235z" />
    <glyph glyph-name="uni041A.ss03" horiz-adv-x="1267" 
d="M196 0v1434h179v-1434h-179zM624 745l657 -745h-244l-641 730v22l597 682h235z" />
    <glyph glyph-name="uni041B.ss03" horiz-adv-x="1372" 
d="M1332 0h-194l-452 1173l-455 -1173h-190l561 1434h168z" />
    <glyph glyph-name="uni0416.ss04" horiz-adv-x="1886" 
d="M50 1434h234l549 -682v-22l-592 -730h-244l611 746zM853 0v1434h180v-1434h-180zM1278 746l611 -746h-244l-592 730v22l548 682h235z" />
    <glyph glyph-name="uni041A.ss04" horiz-adv-x="1267" 
d="M196 0v1434h179v-1434h-179zM624 745l657 -745h-244l-641 730v22l597 682h235z" />
    <glyph glyph-name="uni0424.ss04" horiz-adv-x="1662" 
d="M921 1378q148 -6 272 -62t206.5 -145.5t128 -206.5t45.5 -246q0 -128 -45.5 -243.5t-128 -204.5t-206.5 -144t-272 -62v-167h-179v167q-195 9 -345.5 101.5t-228.5 237t-78 315.5q0 129 46 246t128.5 206.5t206.5 145.5t271 62v152h179v-152zM274 718q0 -131 58 -240
t166 -176t246 -72v984q-138 -7 -246 -76t-166 -179t-58 -241zM920 230q138 5 245.5 72t164.5 176t57 240q0 202 -129.5 344t-337.5 152v-984z" />
    <glyph glyph-name="uni0424.ss05" horiz-adv-x="1662" 
d="M921 1378q148 -6 272 -62t206.5 -145.5t128 -206.5t45.5 -246q0 -128 -45.5 -243.5t-128 -204.5t-206.5 -144t-272 -62v-167h-179v167q-195 9 -345.5 101.5t-228.5 237t-78 315.5q0 129 46 246t128.5 206.5t206.5 145.5t271 62v152h179v-152zM274 718q0 -131 58 -240
t166 -176t246 -72v984q-138 -7 -246 -76t-166 -179t-58 -241zM920 230q138 5 245.5 72t164.5 176t57 240q0 202 -129.5 344t-337.5 152v-984z" />
    <glyph glyph-name="uni0432.loclBGR" horiz-adv-x="1275" 
d="M958 789q107 -55 167 -156.5t60 -219.5q0 -193 -148 -314t-369 -121q-244 0 -381 154t-137 431v393q0 269 137 419.5t378 150.5q203 0 335.5 -111.5t132.5 -289.5q0 -102 -46 -192.5t-129 -143.5zM665 1357q-163 0 -253.5 -102t-90.5 -299v-92h361q130 0 210 69t80 181
q0 110 -84 176.5t-223 66.5zM668 146q154 0 248.5 77.5t94.5 202.5q0 123 -88.5 198t-231.5 75h-370v-136q0 -206 89.5 -311.5t257.5 -105.5z" />
    <glyph glyph-name="uni0433.loclBGR" horiz-adv-x="1054" 
d="M528 -16q-201 0 -322.5 90t-121.5 239q0 41 8.5 76.5t21 62.5t35 50.5t43 40t54 31t57.5 23.5t64 18.5t63.5 14t65.5 12.5q43 8 64.5 12.5t57.5 13.5t54.5 17t43 21.5t36 28.5t20 36t8.5 46q0 71 -67.5 114t-180.5 43q-121 0 -187 -50.5t-66 -145.5h-157q0 163 111 255.5
t297 92.5t300.5 -85.5t114.5 -223.5q0 -36 -5.5 -67.5t-18.5 -57t-26 -46t-36.5 -38t-41 -30t-49.5 -24t-51.5 -18.5t-56 -15t-55 -12t-57.5 -11q-49 -9 -76 -14.5t-67 -16t-62 -23t-44.5 -30.5t-32.5 -43.5t-10 -57.5q0 -74 74.5 -118t197.5 -44q129 0 201.5 54.5
t72.5 152.5h166q0 -175 -120 -274.5t-320 -99.5z" />
    <glyph glyph-name="uni0434.loclBGR" horiz-adv-x="1380" 
d="M1089 1106h116v-951q0 -268 -145 -421t-397 -153q-203 0 -341 99.5t-183 276.5h174q36 -102 131.5 -159.5t218.5 -57.5q168 0 270 105t102 287v68q-75 -78 -179 -121.5t-224 -43.5q-151 0 -276 72t-196.5 197.5t-71.5 277.5t71.5 278t196.5 198t276 72q131 0 242.5 -52
t187.5 -144zM651 202q166 0 274 107.5t108 272.5t-108 273t-274 108t-275.5 -108.5t-109.5 -272.5q0 -163 109.5 -271.5t275.5 -108.5z" />
    <glyph glyph-name="uni0436.loclBGR" horiz-adv-x="1599" 
d="M1383 0l-354 496h-145v-496h-169v496h-145l-354 -496h-210l412 579l-372 527h200l325 -455h144v854h169v-854h144l325 455h199l-371 -527l412 -579h-210z" />
    <glyph glyph-name="uni0437.loclBGR" horiz-adv-x="1163" 
d="M870 396q97 -49 154 -149t57 -222q0 -196 -142 -321t-363 -125q-209 0 -348.5 116t-159.5 302h174q20 -111 112 -180t222 -69q143 0 236 81.5t93 208.5q0 115 -79 190.5t-200 75.5h-204l-2 167h206q97 0 161.5 68t64.5 172q0 110 -80.5 179.5t-207.5 69.5
q-120 0 -202.5 -66.5t-96.5 -173.5h-168q12 182 141 295t326 113q201 0 332.5 -114.5t131.5 -290.5q0 -100 -42.5 -187t-115.5 -140z" />
    <glyph glyph-name="uni0438.loclBGR" horiz-adv-x="1314" 
d="M965 1106h174v-1106h-129l-30 171q-64 -92 -166.5 -143.5t-228.5 -51.5q-194 0 -310 130.5t-116 336.5v663h174v-621q0 -169 76 -259.5t221 -90.5q142 0 238.5 106.5t96.5 261.5v603z" />
    <glyph glyph-name="uni0439.loclBGR" horiz-adv-x="1314" 
d="M933 1459v-131h-537v131h537zM965 1106h174v-1106h-129l-30 171q-64 -92 -166.5 -143.5t-228.5 -51.5q-194 0 -310 130.5t-116 336.5v663h174v-621q0 -169 76 -259.5t221 -90.5q142 0 238.5 106.5t96.5 261.5v603z" />
    <glyph glyph-name="uni043A.loclBGR" horiz-adv-x="1132" 
d="M905 0l-379 496h-158v-496h-174v1501h174v-844h161l341 449h212l-403 -530l444 -576h-218z" />
    <glyph glyph-name="uni043B.loclBGR" horiz-adv-x="1095" 
d="M1054 0h-178l-327 871l-336 -871h-174l431 1106h156z" />
    <glyph glyph-name="uni043F.loclBGR" horiz-adv-x="1314" 
d="M729 1130q194 0 310.5 -131t116.5 -337v-662h-174v621q0 168 -77 259t-221 91q-142 0 -238 -106t-96 -262v-603h-175v1106h124l34 -173q63 93 166 145t230 52z" />
    <glyph glyph-name="uni0442.loclBGR" horiz-adv-x="1945" 
d="M1398 1130q174 0 281 -118t107 -305v-707h-173l-1 653q0 150 -66 234t-184 84q-122 0 -208.5 -103.5t-86.5 -254.5v-613h-170v653q0 150 -66 234t-186 84q-122 0 -208.5 -103.5t-86.5 -254.5v-613h-175v1106h126l28 -152q64 83 157.5 129.5t197.5 46.5q116 0 204 -56
t135 -154q62 98 161.5 154t213.5 56z" />
    <glyph glyph-name="uni0446.loclBGR" horiz-adv-x="1382" 
d="M1139 347q0 -119 49.5 -175t153.5 -56v-409h-161v307q-137 21 -180 167q-69 -94 -177 -149.5t-239 -55.5q-194 0 -310 130t-116 336v664h174v-620q0 -170 76.5 -260.5t220.5 -90.5q142 0 238.5 106.5t96.5 262.5v602h174v-759z" />
    <glyph glyph-name="uni0448.loclBGR" horiz-adv-x="1943" 
d="M1594 1106h174v-1106h-130l-25 148q-64 -81 -156.5 -126.5t-195.5 -45.5q-116 0 -204.5 55.5t-134.5 153.5q-62 -98 -161.5 -153.5t-213.5 -55.5q-174 0 -281 118t-107 305v707h173l1 -653q0 -150 66 -234t184 -84q122 0 208.5 103.5t86.5 254.5v613h170v-653
q0 -150 66 -234t186 -84q121 0 207.5 103.5t86.5 254.5v613z" />
    <glyph glyph-name="uni0449.loclBGR" horiz-adv-x="2013" 
d="M1770 347q0 -120 49.5 -175.5t150.5 -55.5v-409h-159v306q-131 23 -179 152q-63 -88 -161.5 -138.5t-209.5 -50.5q-116 0 -204.5 55.5t-134.5 153.5q-62 -98 -161.5 -153.5t-213.5 -55.5q-174 0 -281 118t-107 305v707h173l1 -653q0 -150 66 -234t184 -84
q122 0 208.5 103.5t86.5 254.5v613h170v-653q0 -150 66 -234t186 -84q122 0 208.5 103.5t86.5 254.5v613h175v-759z" />
    <glyph glyph-name="uni044E.loclBGR" horiz-adv-x="1757" 
d="M1101 1130q245 0 406.5 -164.5t161.5 -414.5q0 -249 -161 -412t-407 -163q-225 0 -381.5 138.5t-182.5 357.5h-187v-474h-175v1503h175v-867h187q28 219 184.5 357.5t379.5 138.5zM1101 144q168 0 279 116t111 291q0 176 -111.5 293.5t-278.5 117.5q-168 0 -279.5 -117
t-111.5 -294q0 -175 111 -291t280 -116z" />
    <glyph glyph-name="uni0436.ss01" horiz-adv-x="1601" 
d="M36 1106h206l441 -526v-18l-482 -562h-206l486 577zM716 0v1106h169v-1106h-169zM1120 577l486 -577h-207l-481 562v18l440 526h207z" />
    <glyph glyph-name="uni043A.ss01" horiz-adv-x="1071" 
d="M175 0v1106h175v-1106h-175zM588 577l492 -577h-210l-474 566v18l444 522h199z" />
    <glyph glyph-name="uni0432.ss02" horiz-adv-x="1275" 
d="M958 789q107 -55 167 -156.5t60 -219.5q0 -193 -148 -314t-369 -121q-244 0 -381 154t-137 431v393q0 269 137 419.5t378 150.5q203 0 335.5 -111.5t132.5 -289.5q0 -102 -46 -192.5t-129 -143.5zM665 1357q-163 0 -253.5 -102t-90.5 -299v-92h361q130 0 210 69t80 181
q0 110 -84 176.5t-223 66.5zM668 146q154 0 248.5 77.5t94.5 202.5q0 123 -88.5 198t-231.5 75h-370v-136q0 -206 89.5 -311.5t257.5 -105.5z" />
    <glyph glyph-name="uni0433.ss02" horiz-adv-x="1054" 
d="M528 -16q-201 0 -322.5 90t-121.5 239q0 41 8.5 76.5t21 62.5t35 50.5t43 40t54 31t57.5 23.5t64 18.5t63.5 14t65.5 12.5q43 8 64.5 12.5t57.5 13.5t54.5 17t43 21.5t36 28.5t20 36t8.5 46q0 71 -67.5 114t-180.5 43q-121 0 -187 -50.5t-66 -145.5h-157q0 163 111 255.5
t297 92.5t300.5 -85.5t114.5 -223.5q0 -36 -5.5 -67.5t-18.5 -57t-26 -46t-36.5 -38t-41 -30t-49.5 -24t-51.5 -18.5t-56 -15t-55 -12t-57.5 -11q-49 -9 -76 -14.5t-67 -16t-62 -23t-44.5 -30.5t-32.5 -43.5t-10 -57.5q0 -74 74.5 -118t197.5 -44q129 0 201.5 54.5
t72.5 152.5h166q0 -175 -120 -274.5t-320 -99.5z" />
    <glyph glyph-name="uni0434.ss02" horiz-adv-x="1380" 
d="M1089 1106h116v-951q0 -268 -145 -421t-397 -153q-203 0 -341 99.5t-183 276.5h174q36 -102 131.5 -159.5t218.5 -57.5q168 0 270 105t102 287v68q-75 -78 -179 -121.5t-224 -43.5q-151 0 -276 72t-196.5 197.5t-71.5 277.5t71.5 278t196.5 198t276 72q131 0 242.5 -52
t187.5 -144zM651 202q166 0 274 107.5t108 272.5t-108 273t-274 108t-275.5 -108.5t-109.5 -272.5q0 -163 109.5 -271.5t275.5 -108.5z" />
    <glyph glyph-name="uni0436.ss02" horiz-adv-x="1599" 
d="M1383 0l-354 496h-145v-496h-169v496h-145l-354 -496h-210l412 579l-372 527h200l325 -455h144v854h169v-854h144l325 455h199l-371 -527l412 -579h-210z" />
    <glyph glyph-name="uni0437.ss02" horiz-adv-x="1163" 
d="M870 396q97 -49 154 -149t57 -222q0 -196 -142 -321t-363 -125q-209 0 -348.5 116t-159.5 302h174q20 -111 112 -180t222 -69q143 0 236 81.5t93 208.5q0 115 -79 190.5t-200 75.5h-204l-2 167h206q97 0 161.5 68t64.5 172q0 110 -80.5 179.5t-207.5 69.5
q-120 0 -202.5 -66.5t-96.5 -173.5h-168q12 182 141 295t326 113q201 0 332.5 -114.5t131.5 -290.5q0 -100 -42.5 -187t-115.5 -140z" />
    <glyph glyph-name="uni0438.ss02" horiz-adv-x="1314" 
d="M965 1106h174v-1106h-129l-30 171q-64 -92 -166.5 -143.5t-228.5 -51.5q-194 0 -310 130.5t-116 336.5v663h174v-621q0 -169 76 -259.5t221 -90.5q142 0 238.5 106.5t96.5 261.5v603z" />
    <glyph glyph-name="uni0439.ss02" horiz-adv-x="1314" 
d="M933 1459v-131h-537v131h537zM965 1106h174v-1106h-129l-30 171q-64 -92 -166.5 -143.5t-228.5 -51.5q-194 0 -310 130.5t-116 336.5v663h174v-621q0 -169 76 -259.5t221 -90.5q142 0 238.5 106.5t96.5 261.5v603z" />
    <glyph glyph-name="uni043A.ss02" horiz-adv-x="1132" 
d="M905 0l-379 496h-158v-496h-174v1501h174v-844h161l341 449h212l-403 -530l444 -576h-218z" />
    <glyph glyph-name="uni043B.ss02" horiz-adv-x="1095" 
d="M1054 0h-178l-327 871l-336 -871h-174l431 1106h156z" />
    <glyph glyph-name="uni043F.ss02" horiz-adv-x="1314" 
d="M729 1130q194 0 310.5 -131t116.5 -337v-662h-174v621q0 168 -77 259t-221 91q-142 0 -238 -106t-96 -262v-603h-175v1106h124l34 -173q63 93 166 145t230 52z" />
    <glyph glyph-name="uni0442.ss02" horiz-adv-x="1945" 
d="M1398 1130q174 0 281 -118t107 -305v-707h-173l-1 653q0 150 -66 234t-184 84q-122 0 -208.5 -103.5t-86.5 -254.5v-613h-170v653q0 150 -66 234t-186 84q-122 0 -208.5 -103.5t-86.5 -254.5v-613h-175v1106h126l28 -152q64 83 157.5 129.5t197.5 46.5q116 0 204 -56
t135 -154q62 98 161.5 154t213.5 56z" />
    <glyph glyph-name="uni0446.ss02" horiz-adv-x="1382" 
d="M1139 347q0 -119 49.5 -175t153.5 -56v-409h-161v307q-137 21 -180 167q-69 -94 -177 -149.5t-239 -55.5q-194 0 -310 130t-116 336v664h174v-620q0 -170 76.5 -260.5t220.5 -90.5q142 0 238.5 106.5t96.5 262.5v602h174v-759z" />
    <glyph glyph-name="uni0448.ss02" horiz-adv-x="1943" 
d="M1594 1106h174v-1106h-130l-25 148q-64 -81 -156.5 -126.5t-195.5 -45.5q-116 0 -204.5 55.5t-134.5 153.5q-62 -98 -161.5 -153.5t-213.5 -55.5q-174 0 -281 118t-107 305v707h173l1 -653q0 -150 66 -234t184 -84q122 0 208.5 103.5t86.5 254.5v613h170v-653
q0 -150 66 -234t186 -84q121 0 207.5 103.5t86.5 254.5v613z" />
    <glyph glyph-name="uni0449.ss02" horiz-adv-x="2013" 
d="M1770 347q0 -120 49.5 -175.5t150.5 -55.5v-409h-159v306q-131 23 -179 152q-63 -88 -161.5 -138.5t-209.5 -50.5q-116 0 -204.5 55.5t-134.5 153.5q-62 -98 -161.5 -153.5t-213.5 -55.5q-174 0 -281 118t-107 305v707h173l1 -653q0 -150 66 -234t184 -84
q122 0 208.5 103.5t86.5 254.5v613h170v-653q0 -150 66 -234t186 -84q122 0 208.5 103.5t86.5 254.5v613h175v-759z" />
    <glyph glyph-name="uni044E.ss02" horiz-adv-x="1757" 
d="M1101 1130q245 0 406.5 -164.5t161.5 -414.5q0 -249 -161 -412t-407 -163q-225 0 -381.5 138.5t-182.5 357.5h-187v-474h-175v1503h175v-867h187q28 219 184.5 357.5t379.5 138.5zM1101 144q168 0 279 116t111 291q0 176 -111.5 293.5t-278.5 117.5q-168 0 -279.5 -117
t-111.5 -294q0 -175 111 -291t280 -116z" />
    <glyph glyph-name="uni0432.ss03" horiz-adv-x="1275" 
d="M958 789q107 -55 167 -156.5t60 -219.5q0 -193 -148 -314t-369 -121q-244 0 -381 154t-137 431v393q0 269 137 419.5t378 150.5q203 0 335.5 -111.5t132.5 -289.5q0 -102 -46 -192.5t-129 -143.5zM665 1357q-163 0 -253.5 -102t-90.5 -299v-92h361q130 0 210 69t80 181
q0 110 -84 176.5t-223 66.5zM668 146q154 0 248.5 77.5t94.5 202.5q0 123 -88.5 198t-231.5 75h-370v-136q0 -206 89.5 -311.5t257.5 -105.5z" />
    <glyph glyph-name="uni0433.ss03" horiz-adv-x="1054" 
d="M528 -16q-201 0 -322.5 90t-121.5 239q0 41 8.5 76.5t21 62.5t35 50.5t43 40t54 31t57.5 23.5t64 18.5t63.5 14t65.5 12.5q43 8 64.5 12.5t57.5 13.5t54.5 17t43 21.5t36 28.5t20 36t8.5 46q0 71 -67.5 114t-180.5 43q-121 0 -187 -50.5t-66 -145.5h-157q0 163 111 255.5
t297 92.5t300.5 -85.5t114.5 -223.5q0 -36 -5.5 -67.5t-18.5 -57t-26 -46t-36.5 -38t-41 -30t-49.5 -24t-51.5 -18.5t-56 -15t-55 -12t-57.5 -11q-49 -9 -76 -14.5t-67 -16t-62 -23t-44.5 -30.5t-32.5 -43.5t-10 -57.5q0 -74 74.5 -118t197.5 -44q129 0 201.5 54.5
t72.5 152.5h166q0 -175 -120 -274.5t-320 -99.5z" />
    <glyph glyph-name="uni0434.ss03" horiz-adv-x="1380" 
d="M1089 1106h116v-951q0 -268 -145 -421t-397 -153q-203 0 -341 99.5t-183 276.5h174q36 -102 131.5 -159.5t218.5 -57.5q168 0 270 105t102 287v68q-75 -78 -179 -121.5t-224 -43.5q-151 0 -276 72t-196.5 197.5t-71.5 277.5t71.5 278t196.5 198t276 72q131 0 242.5 -52
t187.5 -144zM651 202q166 0 274 107.5t108 272.5t-108 273t-274 108t-275.5 -108.5t-109.5 -272.5q0 -163 109.5 -271.5t275.5 -108.5z" />
    <glyph glyph-name="uni0436.ss03" horiz-adv-x="1601" 
d="M716 0v1501h169v-1501h-169zM36 1106h206l441 -526v-18l-482 -562h-206l486 577zM1120 577l486 -577h-207l-481 562v18l440 526h207z" />
    <glyph glyph-name="uni0437.ss03" horiz-adv-x="1163" 
d="M870 396q97 -49 154 -149t57 -222q0 -196 -142 -321t-363 -125q-209 0 -348.5 116t-159.5 302h174q20 -111 112 -180t222 -69q143 0 236 81.5t93 208.5q0 115 -79 190.5t-200 75.5h-204l-2 167h206q97 0 161.5 68t64.5 172q0 110 -80.5 179.5t-207.5 69.5
q-120 0 -202.5 -66.5t-96.5 -173.5h-168q12 182 141 295t326 113q201 0 332.5 -114.5t131.5 -290.5q0 -100 -42.5 -187t-115.5 -140z" />
    <glyph glyph-name="uni0438.ss03" horiz-adv-x="1314" 
d="M965 1106h174v-1106h-129l-30 171q-64 -92 -166.5 -143.5t-228.5 -51.5q-194 0 -310 130.5t-116 336.5v663h174v-621q0 -169 76 -259.5t221 -90.5q142 0 238.5 106.5t96.5 261.5v603z" />
    <glyph glyph-name="uni0439.ss03" horiz-adv-x="1314" 
d="M933 1459v-131h-537v131h537zM965 1106h174v-1106h-129l-30 171q-64 -92 -166.5 -143.5t-228.5 -51.5q-194 0 -310 130.5t-116 336.5v663h174v-621q0 -169 76 -259.5t221 -90.5q142 0 238.5 106.5t96.5 261.5v603z" />
    <glyph glyph-name="uni043A.ss03" horiz-adv-x="1071" 
d="M175 0v1501h175v-1501h-175zM588 577l492 -577h-210l-474 566v18l444 522h199z" />
    <glyph glyph-name="uni043B.ss03" horiz-adv-x="1095" 
d="M1054 0h-178l-327 871l-336 -871h-174l431 1106h156z" />
    <glyph glyph-name="uni043F.ss03" horiz-adv-x="1314" 
d="M729 1130q194 0 310.5 -131t116.5 -337v-662h-174v621q0 168 -77 259t-221 91q-142 0 -238 -106t-96 -262v-603h-175v1106h124l34 -173q63 93 166 145t230 52z" />
    <glyph glyph-name="uni0442.ss03" horiz-adv-x="1945" 
d="M1398 1130q174 0 281 -118t107 -305v-707h-173l-1 653q0 150 -66 234t-184 84q-122 0 -208.5 -103.5t-86.5 -254.5v-613h-170v653q0 150 -66 234t-186 84q-122 0 -208.5 -103.5t-86.5 -254.5v-613h-175v1106h126l28 -152q64 83 157.5 129.5t197.5 46.5q116 0 204 -56
t135 -154q62 98 161.5 154t213.5 56z" />
    <glyph glyph-name="uni0446.ss03" horiz-adv-x="1382" 
d="M1139 347q0 -119 49.5 -175t153.5 -56v-409h-161v307q-137 21 -180 167q-69 -94 -177 -149.5t-239 -55.5q-194 0 -310 130t-116 336v664h174v-620q0 -170 76.5 -260.5t220.5 -90.5q142 0 238.5 106.5t96.5 262.5v602h174v-759z" />
    <glyph glyph-name="uni0448.ss03" horiz-adv-x="1943" 
d="M1594 1106h174v-1106h-130l-25 148q-64 -81 -156.5 -126.5t-195.5 -45.5q-116 0 -204.5 55.5t-134.5 153.5q-62 -98 -161.5 -153.5t-213.5 -55.5q-174 0 -281 118t-107 305v707h173l1 -653q0 -150 66 -234t184 -84q122 0 208.5 103.5t86.5 254.5v613h170v-653
q0 -150 66 -234t186 -84q121 0 207.5 103.5t86.5 254.5v613z" />
    <glyph glyph-name="uni0449.ss03" horiz-adv-x="2013" 
d="M1770 347q0 -120 49.5 -175.5t150.5 -55.5v-409h-159v306q-131 23 -179 152q-63 -88 -161.5 -138.5t-209.5 -50.5q-116 0 -204.5 55.5t-134.5 153.5q-62 -98 -161.5 -153.5t-213.5 -55.5q-174 0 -281 118t-107 305v707h173l1 -653q0 -150 66 -234t184 -84
q122 0 208.5 103.5t86.5 254.5v613h170v-653q0 -150 66 -234t186 -84q122 0 208.5 103.5t86.5 254.5v613h175v-759z" />
    <glyph glyph-name="uni044E.ss03" horiz-adv-x="1757" 
d="M1101 1130q245 0 406.5 -164.5t161.5 -414.5q0 -249 -161 -412t-407 -163q-225 0 -381.5 138.5t-182.5 357.5h-187v-474h-175v1503h175v-867h187q28 219 184.5 357.5t379.5 138.5zM1101 144q168 0 279 116t111 291q0 176 -111.5 293.5t-278.5 117.5q-168 0 -279.5 -117
t-111.5 -294q0 -175 111 -291t280 -116z" />
    <glyph glyph-name="uni0436.ss04" horiz-adv-x="1601" 
d="M36 1106h206l441 -526v-18l-482 -562h-206l486 577zM716 0v1106h169v-1106h-169zM1120 577l486 -577h-207l-481 562v18l440 526h207z" />
    <glyph glyph-name="uni043A.ss04" horiz-adv-x="1071" 
d="M175 0v1106h175v-1106h-175zM588 577l492 -577h-210l-474 566v18l444 522h199z" />
    <glyph glyph-name="zero.sinf" horiz-adv-x="770" 
d="M385 -150q-144 0 -227 109t-83 295q0 187 83 294.5t227 107.5t226.5 -107.5t82.5 -294.5q0 -186 -83 -295t-226 -109zM385 -12q79 0 124 70.5t45 195.5t-45 194t-124 69t-123.5 -69t-44.5 -194t44 -195.5t124 -70.5z" />
    <glyph glyph-name="one.sinf" horiz-adv-x="432" 
d="M49 641h268v-775h-140v652h-128v123z" />
    <glyph glyph-name="two.sinf" horiz-adv-x="661" 
d="M321 1h272v-133h-534v33q172 193 247 285t101 141t26 95q0 50 -30 80t-78 30q-51 0 -82.5 -31t-31.5 -81v-17h-136v17q0 108 68 173t180 65q110 0 180 -66t70 -170q0 -76 -50 -160.5t-202 -260.5z" />
    <glyph glyph-name="three.sinf" horiz-adv-x="667" 
d="M398 352q91 -17 146 -83.5t55 -160.5q0 -112 -76.5 -185t-192.5 -73q-111 0 -184.5 70t-77.5 180h135q4 -54 38.5 -87.5t88.5 -33.5q59 0 95.5 37t36.5 97q0 58 -40 94.5t-103 36.5h-105v26l157 246h-283v123h482v-29z" />
    <glyph glyph-name="four.sinf" horiz-adv-x="686" 
d="M630 143v-122h-74v-155h-133v155h-381v26l262 594h139l-222 -498h205l23 204h107v-204h74z" />
    <glyph glyph-name="five.sinf" horiz-adv-x="655" 
d="M321 362q120 0 196.5 -71t76.5 -182q0 -110 -76.5 -183.5t-188.5 -73.5q-115 0 -190 70.5t-76 179.5h136q2 -54 38 -88.5t92 -34.5q55 0 90.5 36.5t35.5 93.5q0 58 -38 96t-98 38h-214l-14 19l43 379h407v-123h-294l-18 -156h92z" />
    <glyph glyph-name="six.sinf" horiz-adv-x="694" 
d="M385 372q109 0 182.5 -70t73.5 -178q0 -119 -80 -195.5t-205 -76.5q-127 0 -207.5 75.5t-80.5 196.5q0 106 82 249l156 270h154l-142 -245l-24 -45q44 19 91 19zM355 -19q67 0 108.5 39.5t41.5 103.5q0 63 -42 103t-108 40q-65 0 -107.5 -40.5t-42.5 -102.5
q0 -63 42 -103t108 -40z" />
    <glyph glyph-name="seven.sinf" horiz-adv-x="634" 
d="M49 641h545v-19l-301 -756h-142l262 652h-364v123z" />
    <glyph glyph-name="eight.sinf" horiz-adv-x="714" 
d="M534 279q105 -63 105 -186q0 -107 -78.5 -175t-204.5 -68q-125 0 -203 68t-78 175q0 124 105 186q-82 60 -82 161q0 94 72.5 155t187.5 61q114 0 186 -61t72 -155q0 -100 -82 -161zM358 541q-55 0 -90 -29.5t-35 -73.5q0 -46 35 -75t90 -29q53 0 88 29t35 75
q0 44 -34.5 73.5t-88.5 29.5zM358 -28q65 0 105 33.5t40 87.5q0 56 -40 90.5t-105 34.5t-106 -35t-41 -90q0 -53 41 -87t106 -34z" />
    <glyph glyph-name="nine.sinf" horiz-adv-x="694" 
d="M337 658q127 0 207.5 -76t80.5 -197q0 -108 -82 -248l-155 -271h-154l141 245q4 7 11.5 21.5t11.5 21.5q-43 -17 -89 -17q-109 0 -183 70t-74 178q0 119 80.5 196t204.5 77zM339 242q66 0 108 40t42 103t-42 103t-108 40q-67 0 -108.5 -39.5t-41.5 -103.5t41.5 -103.5
t108.5 -39.5z" />
    <glyph glyph-name="zero.tf" horiz-adv-x="1171" 
d="M587 -24q-243 0 -385.5 190.5t-142.5 515.5q0 327 142 517t386 190q243 0 384 -190t141 -517q0 -325 -141.5 -515.5t-383.5 -190.5zM587 139q166 0 260.5 143.5t94.5 399.5t-94.5 400t-260.5 144q-167 0 -262.5 -144t-95.5 -400t95 -399.5t263 -143.5z" />
    <glyph glyph-name="one.tf" horiz-adv-x="1171" 
d="M698 155h311v-155h-808v155h326v1052h-267v155h438v-1207z" />
    <glyph glyph-name="two.tf" horiz-adv-x="1171" 
d="M452 161h591v-161h-924v55q316 332 460 502.5t190.5 260.5t46.5 182q0 104 -66.5 167t-176.5 63q-114 0 -184 -64t-70 -168v-34h-168v34q0 178 117 286.5t305 108.5q183 0 298 -109.5t115 -283.5q0 -101 -38 -193.5t-152.5 -243t-343.5 -402.5z" />
    <glyph glyph-name="three.tf" horiz-adv-x="1171" 
d="M658 848q168 -22 273 -140.5t105 -286.5q0 -193 -132.5 -319t-329.5 -126q-191 0 -316 117.5t-135 304.5h166q8 -116 86.5 -187.5t198.5 -71.5q127 0 209 81t82 206t-87.5 206t-223.5 81h-153v36l308 458h-540v155h812v-39z" />
    <glyph glyph-name="four.tf" horiz-adv-x="1171" 
d="M1081 437v-149h-147v-288h-161v288h-697v39l478 1035h173l-430 -925h478l28 421h131v-421h147z" />
    <glyph glyph-name="five.tf" horiz-adv-x="1171" 
d="M569 861q204 0 337.5 -126.5t133.5 -314.5q0 -192 -130.5 -318t-324.5 -126q-193 0 -321 119t-135 303h169q7 -115 87 -187t200 -72q122 0 203.5 80t81.5 201q0 124 -87.5 207t-218.5 83h-345l-27 27l69 625h685v-154h-545l-38 -347h206z" />
    <glyph glyph-name="six.tf" horiz-adv-x="1171" 
d="M627 886q196 0 330 -127t134 -319q0 -203 -137 -333.5t-349 -130.5q-214 0 -352 130.5t-138 333.5q0 196 150 453l273 477h185q-251 -445 -294 -529q96 45 198 45zM603 139q138 0 228 85t90 215t-90 214.5t-228 84.5t-227.5 -85t-89.5 -214t89.5 -214.5t227.5 -85.5z" />
    <glyph glyph-name="seven.tf" horiz-adv-x="1171" 
d="M128 1362h923v-30l-538 -1332h-175l492 1207h-702v155z" />
    <glyph glyph-name="eight.tf" horiz-adv-x="1171" 
d="M874 733q90 -47 142.5 -137.5t52.5 -199.5q0 -185 -135.5 -302.5t-348.5 -117.5q-217 0 -350 115.5t-133 304.5q0 106 53.5 196.5t144.5 140.5q-68 46 -108.5 125t-40.5 168q0 163 120.5 265t313.5 102t312 -101.5t119 -265.5q0 -91 -39 -170.5t-103 -122.5zM585 1249
q-119 0 -193 -62t-74 -161t74 -161t193 -62t193 62t74 161t-74 161t-193 62zM585 126q140 0 227 73.5t87 191.5q0 119 -87 192.5t-227 73.5t-227 -73.5t-87 -192.5q0 -118 87 -191.5t227 -73.5z" />
    <glyph glyph-name="nine.tf" horiz-adv-x="1171" 
d="M568 1393q214 0 352 -130.5t138 -333.5q0 -193 -150 -453l-272 -478h-186q237 419 293 528q-93 -43 -197 -43q-121 0 -227 54t-172.5 158t-66.5 234q0 202 138 333t350 131zM570 630q138 0 228.5 85t90.5 214t-90.5 215t-228.5 86t-228.5 -85.5t-90.5 -215.5t90.5 -214.5
t228.5 -84.5z" />
    <glyph glyph-name="zero.dnom" horiz-adv-x="770" 
d="M385 -16q-144 0 -227 109t-83 295q0 187 83 294.5t227 107.5t226.5 -107.5t82.5 -294.5q0 -186 -83 -295t-226 -109zM385 122q79 0 124 70.5t45 195.5t-45 194t-124 69t-123.5 -69t-44.5 -194t44 -195.5t124 -70.5z" />
    <glyph glyph-name="one.dnom" horiz-adv-x="432" 
d="M49 775h268v-775h-140v652h-128v123z" />
    <glyph glyph-name="two.dnom" horiz-adv-x="661" 
d="M321 133h272v-133h-534v33q173 194 247 285t100.5 140t26.5 95q0 50 -30 80.5t-78 30.5q-51 0 -82.5 -31t-31.5 -81v-17h-136v17q0 108 68 173t180 65q110 0 180 -66.5t70 -170.5q0 -76 -50 -160t-202 -260z" />
    <glyph glyph-name="three.dnom" horiz-adv-x="667" 
d="M398 487q91 -17 146 -83.5t55 -160.5q0 -112 -76.5 -185t-192.5 -73q-111 0 -184.5 70.5t-77.5 180.5h135q4 -54 38.5 -87.5t88.5 -33.5q59 0 95.5 37t36.5 97q0 58 -40 94.5t-103 36.5h-105v25l157 246h-283v124h482v-29z" />
    <glyph glyph-name="four.dnom" horiz-adv-x="686" 
d="M632 277v-122h-74v-155h-133v155h-381v26l262 594h139l-222 -498h205l23 204h107v-204h74z" />
    <glyph glyph-name="five.dnom" horiz-adv-x="655" 
d="M321 496q120 0 196.5 -71t76.5 -182q0 -110 -76.5 -184t-188.5 -74q-115 0 -190 70.5t-76 179.5h136q2 -54 38 -88t92 -34q55 0 90.5 36.5t35.5 93.5q0 58 -38 95.5t-98 37.5h-214l-14 20l43 379h407v-124h-294l-18 -155h92z" />
    <glyph glyph-name="six.dnom" horiz-adv-x="694" 
d="M385 506q109 0 182.5 -70t73.5 -178q0 -119 -80.5 -196t-204.5 -77q-127 0 -207.5 76t-80.5 197q0 105 82 249l156 270h154l-142 -245l-24 -45q44 19 91 19zM355 115q67 0 108.5 39.5t41.5 103.5q0 63 -42 103t-108 40q-65 0 -107.5 -40.5t-42.5 -102.5q0 -63 42 -103
t108 -40z" />
    <glyph glyph-name="seven.dnom" horiz-adv-x="634" 
d="M49 775h545v-19l-301 -756h-142l263 651h-365v124z" />
    <glyph glyph-name="eight.dnom" horiz-adv-x="714" 
d="M534 414q105 -63 105 -186q0 -107 -78.5 -175t-204.5 -68q-125 0 -203 68t-78 175q0 125 105 187q-82 60 -82 160q0 94 72.5 155t187.5 61q114 0 186 -61t72 -155q0 -100 -82 -161zM358 677q-55 0 -90 -29.5t-35 -73.5q0 -46 35 -75t90 -29q53 0 88 29t35 75
q0 44 -34.5 73.5t-88.5 29.5zM358 107q65 0 105 33.5t40 87.5q0 56 -40 91t-105 35t-106 -35t-41 -91q0 -53 41 -87t106 -34z" />
    <glyph glyph-name="nine.dnom" horiz-adv-x="694" 
d="M337 790q127 0 207.5 -76t80.5 -197q0 -109 -82 -249l-155 -270h-154l141 245q4 7 11.5 21.5t11.5 21.5q-43 -17 -89 -17q-109 0 -183 70t-74 178q0 119 80.5 196t204.5 77zM339 374q66 0 108 40t42 103t-42 103t-108 40q-67 0 -108.5 -39.5t-41.5 -103.5t41.5 -103.5
t108.5 -39.5z" />
    <glyph glyph-name="zero.numr" horiz-adv-x="770" 
d="M385 644q-144 0 -227 109t-83 295q0 187 83 294.5t227 107.5t226.5 -107.5t82.5 -294.5q0 -186 -83 -295t-226 -109zM385 783q79 0 124 70t45 195t-45 194t-124 69t-123.5 -69t-44.5 -194q0 -124 44 -194.5t124 -70.5z" />
    <glyph glyph-name="one.numr" horiz-adv-x="432" 
d="M48 1434h269v-775h-141v651h-128v124z" />
    <glyph glyph-name="two.numr" horiz-adv-x="661" 
d="M321 793h272v-133h-534v34q173 194 247 285t100.5 140t26.5 95q0 50 -30 80t-78 30q-51 0 -82.5 -31t-31.5 -81v-17h-136v17q0 108 68 173t180 65q110 0 180 -66t70 -170q0 -76 -50 -160.5t-202 -260.5z" />
    <glyph glyph-name="three.numr" horiz-adv-x="667" 
d="M398 1146q91 -17 146 -83.5t55 -160.5q0 -112 -76.5 -185t-192.5 -73q-111 0 -184.5 70t-77.5 180h135q4 -54 38.5 -87.5t88.5 -33.5q59 0 95.5 37.5t36.5 97.5q0 58 -40 94t-103 36h-105v26l157 246h-283v124h482v-30z" />
    <glyph glyph-name="four.numr" horiz-adv-x="686" 
d="M632 935v-122h-74v-154h-133v154h-381v27l262 594h139l-222 -499h205l23 205h107v-205h74z" />
    <glyph glyph-name="five.numr" horiz-adv-x="655" 
d="M321 1155q120 0 196.5 -71.5t76.5 -182.5q0 -110 -76.5 -183.5t-188.5 -73.5q-115 0 -190 70.5t-76 179.5h136q2 -54 38 -88.5t92 -34.5q55 0 90.5 36.5t35.5 93.5q0 58 -38 96t-98 38h-214l-14 19l43 380h407v-124h-294l-18 -155h92z" />
    <glyph glyph-name="six.numr" horiz-adv-x="694" 
d="M385 1164q109 0 182.5 -70t73.5 -178q0 -119 -80 -195.5t-205 -76.5q-127 0 -207.5 75.5t-80.5 196.5q0 106 82 249l156 270h154l-142 -245q-4 -7 -12 -22t-12 -22q42 18 91 18zM355 773q67 0 108.5 39.5t41.5 103.5q0 63 -42 103.5t-108 40.5q-65 0 -107.5 -41
t-42.5 -103q0 -63 42 -103t108 -40z" />
    <glyph glyph-name="seven.numr" horiz-adv-x="634" 
d="M49 1434h545v-20l-301 -755h-142l262 651h-364v124z" />
    <glyph glyph-name="eight.numr" horiz-adv-x="714" 
d="M534 1073q105 -63 105 -186q0 -107 -78.5 -175t-204.5 -68q-125 0 -203 68t-78 175q0 124 105 186q-82 60 -82 161q0 94 72.5 155t187.5 61q114 0 186 -61t72 -155q0 -100 -82 -161zM358 1336q-54 0 -89.5 -29.5t-35.5 -74.5q0 -46 35 -75t90 -29q53 0 88 29t35 75
q0 45 -34.5 74.5t-88.5 29.5zM358 766q65 0 105 33.5t40 87.5q0 56 -40 90.5t-105 34.5t-106 -35t-41 -90q0 -53 41 -87t106 -34z" />
    <glyph glyph-name="nine.numr" horiz-adv-x="694" 
d="M337 1450q127 0 207.5 -75.5t80.5 -196.5q0 -109 -82 -249l-155 -270h-154l141 245q4 7 11.5 21t11.5 21q-41 -16 -89 -16q-109 0 -183 70t-74 178q0 119 80 195.5t205 76.5zM339 1034q66 0 108 40.5t42 103.5t-42 103t-108 40q-67 0 -108.5 -39.5t-41.5 -103.5
t41.5 -104t108.5 -40z" />
    <glyph glyph-name="zero.sups" horiz-adv-x="770" 
d="M385 849q-144 0 -227 109t-83 295q0 187 83 294.5t227 107.5t226.5 -107.5t82.5 -294.5q0 -186 -83 -295t-226 -109zM385 987q79 0 124 70.5t45 195.5t-45 194t-124 69t-123.5 -69t-44.5 -194t44 -195.5t124 -70.5z" />
    <glyph glyph-name="one.sups" horiz-adv-x="432" 
d="M49 1638h268v-775h-140v652h-128v123z" />
    <glyph glyph-name="two.sups" horiz-adv-x="661" 
d="M321 998h272v-133h-534v33q172 193 247 285t101 141t26 95q0 50 -30 80t-78 30q-51 0 -82.5 -31t-31.5 -81v-17h-136v17q0 108 68 173t180 65q110 0 180 -66t70 -170q0 -76 -50 -160.5t-202 -260.5z" />
    <glyph glyph-name="three.sups" horiz-adv-x="667" 
d="M398 1351q91 -17 146 -83.5t55 -160.5q0 -112 -76.5 -185t-192.5 -73q-111 0 -184.5 70t-77.5 180h135q4 -54 38.5 -87.5t88.5 -33.5q59 0 95.5 37t36.5 97q0 58 -40 94.5t-103 36.5h-105v26l157 246h-283v123h482v-29z" />
    <glyph glyph-name="four.sups" horiz-adv-x="686" 
d="M630 1140v-122h-74v-155h-133v155h-381v26l262 594h139l-222 -498h205l23 204h107v-204h74z" />
    <glyph glyph-name="five.sups" horiz-adv-x="655" 
d="M321 1360q120 0 196.5 -71.5t76.5 -182.5q0 -110 -76.5 -183.5t-188.5 -73.5q-115 0 -190 70.5t-76 179.5h136q2 -54 38 -88.5t92 -34.5q55 0 90.5 36.5t35.5 93.5q0 58 -38 96t-98 38h-214l-14 19l43 379h407v-123h-294l-18 -155h92z" />
    <glyph glyph-name="six.sups" horiz-adv-x="694" 
d="M385 1369q109 0 182.5 -70t73.5 -178q0 -119 -80 -195.5t-205 -76.5q-127 0 -207.5 75.5t-80.5 196.5q0 106 82 249l156 270h154l-142 -245l-24 -45q44 19 91 19zM355 978q67 0 108.5 39.5t41.5 103.5q0 63 -42 103t-108 40q-65 0 -107.5 -40.5t-42.5 -102.5
q0 -63 42 -103t108 -40z" />
    <glyph glyph-name="seven.sups" horiz-adv-x="634" 
d="M49 1638h545v-19l-301 -756h-142l262 652h-364v123z" />
    <glyph glyph-name="eight.sups" horiz-adv-x="714" 
d="M534 1278q105 -63 105 -186q0 -107 -78.5 -175t-204.5 -68q-125 0 -203 68t-78 175q0 124 105 186q-82 60 -82 161q0 94 72.5 155t187.5 61q114 0 186 -61t72 -155q0 -100 -82 -161zM358 1541q-54 0 -89.5 -29.5t-35.5 -74.5q0 -46 35 -75t90 -29q53 0 88 29t35 75
q0 45 -34.5 74.5t-88.5 29.5zM358 971q65 0 105 33.5t40 87.5q0 56 -40 90.5t-105 34.5t-106 -35t-41 -90q0 -53 41 -87t106 -34z" />
    <glyph glyph-name="nine.sups" horiz-adv-x="694" 
d="M337 1655q127 0 207.5 -76t80.5 -197q0 -108 -82 -248l-155 -270h-154l141 245q4 7 11.5 21t11.5 21q-43 -17 -89 -17q-109 0 -183 70t-74 178q0 119 80.5 196t204.5 77zM339 1239q66 0 108 40t42 103t-42 103.5t-108 40.5q-67 0 -108.5 -40t-41.5 -104t41.5 -103.5
t108.5 -39.5z" />
    <glyph glyph-name="bullet.case" horiz-adv-x="692" 
d="M347 564q-76 0 -128 51.5t-52 127.5q0 77 52 128.5t128 51.5q77 0 128 -51.5t51 -128.5q0 -76 -51 -127.5t-128 -51.5z" />
    <glyph glyph-name="braceleft.case" horiz-adv-x="729" 
d="M526 -84h144v-156h-206q-99 0 -168 68.5t-69 168.5v508q0 55 -38.5 93t-94.5 38h-23v145h23q56 0 94.5 38.5t38.5 94.5v505q0 100 69 168.5t168 68.5h203v-156h-141q-56 0 -91 -33.5t-35 -88.5v-455q0 -73 -40 -131.5t-103 -81.5q63 -24 103 -82.5t40 -131.5v-456
q0 -56 35 -90t91 -34z" />
    <glyph glyph-name="braceright.case" horiz-adv-x="729" 
d="M623 781h22v-145h-22q-56 0 -95 -38t-39 -93v-508q0 -100 -68.5 -168.5t-167.5 -68.5h-206v156h144q56 0 91 34t35 90v456q0 73 40 131.5t103 82.5q-63 23 -103 81.5t-40 131.5v455q0 55 -35 88.5t-91 33.5h-142v156h204q99 0 167.5 -68.5t68.5 -168.5v-505
q0 -56 39 -94.5t95 -38.5z" />
    <glyph glyph-name="bracketleft.case" horiz-adv-x="694" 
d="M199 -244v1902h437v-148h-274v-1605h278v-149h-441z" />
    <glyph glyph-name="bracketright.case" horiz-adv-x="694" 
d="M495 -244h-440v149h277v1605h-273v148h436v-1902z" />
    <glyph glyph-name="parenleft.case" horiz-adv-x="626" 
d="M376 -262q-130 205 -199 453.5t-69 516.5q0 263 67.5 511.5t193.5 456.5h193q-123 -192 -202.5 -444.5t-79.5 -523.5q0 -276 80.5 -529.5t206.5 -440.5h-191z" />
    <glyph glyph-name="parenright.case" horiz-adv-x="626" 
d="M252 -262h-192q126 187 206.5 440.5t80.5 529.5q0 271 -79.5 523.5t-202.5 444.5h193q126 -208 193.5 -456.5t67.5 -511.5q0 -268 -68.5 -516.5t-198.5 -453.5z" />
    <glyph glyph-name="emdash.case" horiz-adv-x="1845" 
d="M146 615v168h1554v-168h-1554z" />
    <glyph glyph-name="endash.case" horiz-adv-x="1320" 
d="M146 615v168h1029v-168h-1029z" />
    <glyph glyph-name="hyphen.case" horiz-adv-x="940" 
d="M146 617v168h649v-168h-649z" />
    <glyph glyph-name="guillemotleft.case" horiz-adv-x="1230" 
d="M428 254l-344 413v28l344 413h207l-353 -427l353 -427h-207zM919 254l-344 413v28l344 413h207l-353 -427l353 -427h-207z" />
    <glyph glyph-name="guillemotright.case" horiz-adv-x="1230" 
d="M311 256h-206l352 427l-352 427h206l345 -413v-28zM802 256h-206l352 427l-352 427h206l345 -413v-28z" />
    <glyph glyph-name="guilsinglleft.case" horiz-adv-x="739" 
d="M428 254l-344 413v28l344 413h207l-353 -427l353 -427h-207z" />
    <glyph glyph-name="guilsinglright.case" horiz-adv-x="739" 
d="M311 254h-206l352 427l-352 427h206l345 -413v-28z" />
    <glyph glyph-name="cent.tf" horiz-adv-x="1171" 
d="M1128 360q-44 -156 -162.5 -257.5t-279.5 -120.5v-163h-140v163q-207 24 -342.5 177.5t-135.5 368.5q0 218 135 370t343 175v174h140v-174q162 -19 279.5 -119.5t160.5 -255.5h-167q-46 102 -137.5 159t-207.5 57q-162 0 -270 -110t-108 -276q0 -164 109 -275.5
t269 -111.5q117 0 208.5 59t138.5 164z" />
    <glyph glyph-name="currency.tf" horiz-adv-x="1226" 
d="M1127 197l-101 -101l-165 167q-111 -79 -250 -79q-138 0 -249 79l-160 -165l-101 101l161 164q-80 112 -80 248q0 144 85 258l-162 163l101 101l165 -165q108 73 240 73q133 0 242 -74l166 165l100 -100l-163 -164q85 -114 85 -257q0 -136 -79 -247zM326 613
q0 -117 85 -201t202 -84q116 0 198.5 84t82.5 201t-82 200.5t-199 83.5t-202 -83.5t-85 -200.5z" />
    </font>
</defs>
</svg>
