<?xml version="1.0" standalone="no"?>
<!DOCTYPE svg PUBLIC "-//W3C//DTD SVG 1.1//EN" "http://www.w3.org/Graphics/SVG/1.1/DTD/svg11.dtd" >
<svg xmlns="http://www.w3.org/2000/svg" xmlns:xlink="http://www.w3.org/1999/xlink" version="1.1">
<metadata>
Created by FontForge 20170731 at Wed Jul 12 06:40:02 2023
 By Aleksey,,,
Copyright by Pangram Pangram Foundry. All rights reserved.
</metadata>
<defs>
<font id="PPNeueMontreal-Bold" horiz-adv-x="0" >
  <font-face 
    font-family="PP Neue Montreal"
    font-weight="700"
    font-stretch="normal"
    units-per-em="2048"
    panose-1="0 0 8 0 0 0 0 0 0 0"
    ascent="1638"
    descent="-410"
    x-height="1049"
    cap-height="1464"
    bbox="-367 -584 4571 1962"
    underline-thickness="245"
    underline-position="-306"
    unicode-range="U+000D-1F150"
  />
<missing-glyph horiz-adv-x="1331" 
 />
    <glyph glyph-name="f_f" unicode="ff" horiz-adv-x="1337" 
d="M510 0h-328v803h-141v246h141v73q0 191 77 276t247 85q81 0 186 -21v-231q-59 6 -82 6q-51 0 -75.5 -23t-24.5 -100v-65h297v73q0 191 76.5 276t246.5 85q82 0 187 -21v-231q-58 6 -82 6q-51 0 -75.5 -23t-24.5 -100v-65h182v-246h-182v-803h-328v803h-297v-803z" />
    <glyph glyph-name="f_f_i" unicode="ffi" horiz-adv-x="1843" 
d="M510 0h-328v803h-141v246h141v73q0 191 77 276t247 85q81 0 186 -21v-231q-59 6 -82 6q-51 0 -75.5 -23t-24.5 -100v-65h297v73q0 191 76.5 276t246.5 85q82 0 187 -21v-231q-58 6 -82 6q-51 0 -75.5 -23t-24.5 -100v-65h182v-246h-182v-803h-328v803h-297v-803z
M1753 1174h-328v290h328v-290zM1753 0h-328v1049h328v-1049z" />
    <glyph glyph-name="f_i" unicode="fi" horiz-adv-x="1218" 
d="M182 1049v73q0 191 77 276t247 85q81 0 186 -21v-231q-59 6 -82 6q-51 0 -75.5 -23t-24.5 -100v-65h182v-246h-182v-803h-328v803h-141v246h141zM801 1174v290h327v-290h-327zM1128 0h-327v1049h327v-1049z" />
    <glyph glyph-name="f_l" unicode="fl" horiz-adv-x="1218" 
d="M182 1049v73q0 191 77 276t247 85q81 0 186 -21v-231q-59 6 -82 6q-51 0 -75.5 -23t-24.5 -100v-65h182v-246h-182v-803h-328v803h-141v246h141zM801 0v1464h327v-1464h-327z" />
    <glyph glyph-name=".notdef" horiz-adv-x="1331" 
 />
    <glyph glyph-name=".null" 
 />
    <glyph glyph-name="nonmarkingreturn" horiz-adv-x="682" 
 />
    <glyph glyph-name="CR" unicode="&#xd;" horiz-adv-x="389" 
 />
    <glyph glyph-name="space" unicode=" " horiz-adv-x="389" 
 />
    <glyph glyph-name="exclam" unicode="!" horiz-adv-x="516" 
d="M340 479h-164l-92 666v319h348v-319zM416 0h-312v311h312v-311z" />
    <glyph glyph-name="quotedbl" unicode="&#x22;" horiz-adv-x="819" 
d="M307 913h-205l-41 551h287zM717 913h-205l-41 551h287z" />
    <glyph glyph-name="numbersign" unicode="#" horiz-adv-x="1206" 
d="M1169 1049l-53 -246h-149l-54 -252h150l-51 -246h-152l-65 -305h-246l65 305h-184l-65 -305h-246l65 305h-153l51 246h156l53 252h-156l53 246h156l78 366h246l-78 -366h184l78 366h246l-78 -366h149zM483 551h185l53 252h-184z" />
    <glyph glyph-name="dollar" unicode="$" horiz-adv-x="1294" 
d="M1235 401q0 -190 -135.5 -305t-382.5 -125v-176h-137v180q-244 21 -387.5 148t-143.5 340h328q5 -186 203 -219v331l-41 13q-84 25 -145.5 49.5t-121.5 60.5t-97.5 78.5t-60 101.5t-22.5 132q0 185 131 297.5t357 126.5v143h137v-143q229 -20 358.5 -142t138.5 -315h-327
q-21 150 -170 184v-305q54 -16 90.5 -27.5t85 -28.5t81.5 -33t71.5 -38t64 -45t51.5 -53.5t41 -64t24 -75.5t9 -90zM422 1036q0 -52 35.5 -80.5t122.5 -56.5v268q-158 -17 -158 -131zM717 537v-299q188 9 188 133q0 61 -48 98.5t-140 67.5z" />
    <glyph glyph-name="percent" unicode="%" horiz-adv-x="1855" 
d="M449 627q-189 0 -300.5 110t-111.5 299t111.5 300.5t300.5 111.5t299 -111.5t110 -300.5t-110 -299t-299 -110zM645 0h-219l784 1415h220zM449 831q54 0 78 48.5t24 156.5q0 109 -24 158t-78 49q-55 0 -80 -49t-25 -158q0 -108 25 -156.5t80 -48.5zM1407 -33
q-189 0 -299.5 111.5t-110.5 300.5t110.5 299t299.5 110t300.5 -110t111.5 -299t-111.5 -300.5t-300.5 -111.5zM1407 172q55 0 79.5 49t24.5 158q0 108 -24.5 156.5t-79.5 48.5q-54 0 -78 -48.5t-24 -156.5q0 -109 24 -158t78 -49z" />
    <glyph glyph-name="ampersand" unicode="&#x26;" horiz-adv-x="1398" 
d="M1165 291l260 -291h-409l-68 82q-177 -115 -407 -115q-234 0 -364 111t-130 287q0 64 18.5 118.5t47 94t75 77t88.5 62.5t101 55q-91 112 -132.5 187t-41.5 163q0 71 29.5 137.5t83.5 119.5t139 85t188 33q197 1 318.5 -104t121.5 -265q0 -121 -79 -207.5t-248 -175.5
l213 -235q54 102 78 223h286q-33 -247 -168 -442zM643 1229q-65 0 -99 -34.5t-34 -88.5q0 -78 106 -203q160 102 160 207q0 51 -33.5 85t-99.5 34zM600 248q95 0 174 45l-266 321q-113 -82 -113 -186q0 -79 51.5 -129.5t153.5 -50.5z" />
    <glyph glyph-name="quotesingle" unicode="'" horiz-adv-x="409" 
d="M307 913h-205l-41 551h287z" />
    <glyph glyph-name="parenleft" unicode="(" horiz-adv-x="632" 
d="M604 -281h-287q-108 174 -184 422.5t-76 507.5q0 266 75 509t185 419h287q-198 -450 -198 -928q0 -480 198 -930z" />
    <glyph glyph-name="parenright" unicode=")" horiz-adv-x="632" 
d="M315 -281h-286q198 450 198 928q0 480 -198 930h286q108 -174 184 -422.5t76 -507.5q0 -266 -75 -509t-185 -419z" />
    <glyph glyph-name="asterisk" unicode="*" horiz-adv-x="901" 
d="M451 940l-136 -207l-165 121l145 197l-227 59l63 195l219 -91v250h205v-250l217 91l64 -195l-230 -59l146 -197l-166 -121z" />
    <glyph glyph-name="plus" unicode="+" horiz-adv-x="1175" 
d="M729 162h-283v370h-356v283h356v371h283v-371h356v-283h-356v-370z" />
    <glyph glyph-name="comma" unicode="," horiz-adv-x="475" 
d="M82 -342v143q147 24 147 199h-147v311h311v-311q0 -139 -81 -229.5t-230 -112.5z" />
    <glyph glyph-name="hyphen" unicode="-" horiz-adv-x="720" 
d="M639 377h-557v280h557v-280z" />
    <glyph glyph-name="period" unicode="." horiz-adv-x="466" 
d="M389 0h-311v311h311v-311z" />
    <glyph glyph-name="slash" unicode="/" horiz-adv-x="880" 
d="M289 0h-266l567 1464h266z" />
    <glyph glyph-name="zero" unicode="0" horiz-adv-x="1390" 
d="M696 -33q-155 0 -275.5 56t-195.5 156.5t-113 233.5t-38 294q0 128 23.5 239t73.5 204t122.5 159t175 102.5t227.5 36.5q155 0 275 -56t195 -156.5t113 -234t38 -294.5t-38 -294t-113 -233.5t-195 -156.5t-275 -56zM696 254q74 0 125.5 34t80 97.5t40.5 141.5t12 180
t-12 180t-40.5 142t-80 98t-125.5 34t-126 -34t-80.5 -98t-41 -142t-12.5 -180t12.5 -180t41 -141.5t80.5 -97.5t126 -34z" />
    <glyph glyph-name="one" unicode="1" horiz-adv-x="806" 
d="M328 0v950q-75 -59 -299 -59v272q103 0 182 26t128.5 84t49.5 142h287v-1415h-348z" />
    <glyph glyph-name="two" unicode="2" horiz-adv-x="1230" 
d="M1143 0h-1090q0 64 11 119.5t27 100t50.5 92.5t64.5 82.5t88 83.5t102 83.5t124 93.5q137 102 201.5 176t64.5 162q0 84 -40.5 129t-122.5 45q-104 0 -158.5 -63.5t-54.5 -204.5h-336q0 257 140 403t419 146q232 0 371 -115t139 -315q0 -57 -14 -112.5t-35 -100
t-57.5 -91.5t-68 -81t-81 -75.5t-83 -66.5t-85.5 -63q-118 -85 -176 -143v-4h600v-281z" />
    <glyph glyph-name="three" unicode="3" horiz-adv-x="1269" 
d="M643 -33q-284 0 -440 139t-156 394h336q0 -127 58 -189.5t190 -62.5q111 0 161 43.5t50 128.5q0 98 -63 142t-189 44h-72v240h64q99 0 159 43.5t60 130.5q0 71 -44 109t-130 38q-90 0 -146.5 -45t-56.5 -141h-336q0 206 148 336.5t399 130.5q108 0 202.5 -26t166 -74.5
t112.5 -123t41 -165.5q0 -204 -205 -309v-5q246 -78 246 -339q0 -212 -148.5 -325.5t-406.5 -113.5z" />
    <glyph glyph-name="four" unicode="4" horiz-adv-x="1316" 
d="M1053 0h-348v299h-642v342l642 774h348v-835h209v-281h-209v-299zM705 1036l-386 -456h386v456z" />
    <glyph glyph-name="five" unicode="5" horiz-adv-x="1265" 
d="M645 -33q-280 0 -431 127.5t-159 343.5h336q8 -82 68.5 -136t165.5 -54q100 0 157.5 60t57.5 175t-55.5 176.5t-166.5 61.5q-133 0 -215 -103h-327l164 797h895v-280h-658l-53 -271v-4q129 101 303 101q213 0 341 -128.5t128 -353.5q0 -125 -42 -223t-116.5 -161
t-174 -95.5t-218.5 -32.5z" />
    <glyph glyph-name="six" unicode="6" horiz-adv-x="1316" 
d="M694 -33q-136 0 -243 40t-176.5 107t-115 161t-64.5 196t-19 217q0 374 163 567t443 193q203 0 347.5 -109.5t178.5 -281.5h-352q-4 21 -14.5 41.5t-30 42t-54.5 34.5t-81 13q-127 0 -189.5 -86.5t-62.5 -231.5v-22l8 -6q130 123 330 123q216 0 351.5 -137t135.5 -343
q0 -236 -150.5 -377t-404.5 -141zM674 227q111 0 175 67t64 173q0 104 -64 171t-175 67q-113 0 -177.5 -67t-64.5 -171q0 -106 64.5 -173t177.5 -67z" />
    <glyph glyph-name="seven" unicode="7" horiz-adv-x="1107" 
d="M618 0h-368q0 335 126 650.5t318 479.5v5h-669v280h1038v-260q-117 -95 -204.5 -227.5t-139 -285.5t-76.5 -313t-25 -329z" />
    <glyph glyph-name="eight" unicode="8" horiz-adv-x="1302" 
d="M651 -33q-165 0 -295.5 48t-210 149t-79.5 242q0 240 266 356v4q-205 109 -205 299q0 119 71 207t188.5 132t264.5 44t265 -44t189 -132t71 -207q0 -188 -205 -299v-4q266 -118 266 -356q0 -141 -80 -242t-210.5 -149t-295.5 -48zM651 858q102 0 155.5 49.5t53.5 126.5
q0 74 -53.5 124t-155.5 50t-155.5 -50t-53.5 -124q0 -77 53.5 -126.5t155.5 -49.5zM651 227q108 0 169 60.5t61 150.5q0 88 -61 147.5t-169 59.5t-168.5 -59.5t-60.5 -147.5q0 -91 60.5 -151t168.5 -60z" />
    <glyph glyph-name="nine" unicode="9" horiz-adv-x="1316" 
d="M635 -33q-203 0 -347.5 109.5t-178.5 281.5h352q4 -21 14.5 -41.5t30 -42t54.5 -34.5t81 -13q127 0 189.5 86.5t62.5 231.5v22l-8 6q-129 -122 -330 -122q-143 0 -255 63.5t-172 172t-60 243.5q0 236 150.5 377t404.5 141q136 0 243 -40t176.5 -107t115 -161t64.5 -196
t19 -217q0 -374 -163 -567t-443 -193zM643 711q113 0 177.5 66.5t64.5 170.5q0 106 -64.5 173t-177.5 67q-111 0 -175.5 -67.5t-64.5 -172.5q0 -104 64.5 -170.5t175.5 -66.5z" />
    <glyph glyph-name="colon" unicode=":" horiz-adv-x="491" 
d="M401 635h-311v311h311v-311zM401 0h-311v311h311v-311z" />
    <glyph glyph-name="semicolon" unicode=";" horiz-adv-x="491" 
d="M401 635h-311v311h311v-311zM90 -342v143q148 24 148 199h-148v311h311v-311q0 -139 -81 -229.5t-230 -112.5z" />
    <glyph glyph-name="less" unicode="&#x3c;" horiz-adv-x="1021" 
d="M926 408v-281l-844 352v307l844 353v-281l-568 -223v-4z" />
    <glyph glyph-name="equal" unicode="=" horiz-adv-x="1144" 
d="M1055 750h-965v282h965v-282zM1055 315h-965v283h965v-283z" />
    <glyph glyph-name="greater" unicode="&#x3e;" horiz-adv-x="1021" 
d="M940 479l-844 -352v281l568 223v4l-568 223v281l844 -353v-307z" />
    <glyph glyph-name="question" unicode="?" horiz-adv-x="1101" 
d="M647 479h-270q0 69 1.5 110t10 81t18.5 62t35 50.5t51.5 49.5t75.5 57q62 45 90.5 71.5t44 57.5t15.5 74q0 54 -36 89.5t-116 35.5q-192 0 -192 -238h-348q0 109 35 202t101.5 164t173 111.5t241.5 40.5q215 0 352 -110t137 -287q0 -119 -55.5 -200t-167.5 -144
q-115 -64 -156 -117t-41 -160zM670 0h-312v311h312v-311z" />
    <glyph glyph-name="at" unicode="@" horiz-adv-x="1822" 
d="M934 -221q-174 0 -319 42t-248.5 116.5t-176 177.5t-107 224.5t-34.5 258.5q0 187 66 347.5t183.5 274.5t286.5 179t367 65q157 0 291.5 -40.5t231.5 -112.5t166 -169.5t103 -212t34 -239.5q0 -251 -123.5 -385.5t-313.5 -134.5q-103 0 -174.5 48t-97.5 138h-4
q-23 -81 -91.5 -133.5t-164.5 -52.5q-147 0 -241.5 109t-94.5 309q0 217 107.5 344t269.5 127q156 0 223 -137h4l15 122h266l-66 -514q-12 -96 12.5 -136t84.5 -40q84 0 134 89.5t50 248.5q0 272 -163 430t-445 158q-314 0 -504.5 -189t-190.5 -493q0 -288 174.5 -461.5
t485.5 -173.5q182 0 350 66l66 -162q-163 -88 -412 -88zM879 395q54 0 90.5 35.5t51.5 89t15 121.5q0 97 -29 145t-92 48q-76 0 -120.5 -67t-44.5 -185q0 -88 29 -137.5t100 -49.5z" />
    <glyph glyph-name="A" unicode="A" horiz-adv-x="1466" 
d="M385 0h-395l557 1464h371l561 -1464h-404l-94 305h-502zM729 1126l-166 -540h336l-166 540h-4z" />
    <glyph glyph-name="B" unicode="B" horiz-adv-x="1413" 
d="M854 0h-731v1464h711q464 0 464 -368q0 -126 -63 -202t-164 -110v-4q126 -22 205.5 -108t79.5 -240q0 -432 -502 -432zM492 872h245q87 0 136 31t49 115q0 44 -14 73.5t-41 44.5t-57.5 21t-72.5 6h-245v-291zM492 301h256q121 0 176 37.5t55 136.5t-54.5 135.5
t-176.5 36.5h-256v-346z" />
    <glyph glyph-name="C" unicode="C" horiz-adv-x="1464" 
d="M762 -33q-137 0 -251 37t-197 105t-140 162.5t-85 209t-28 246.5q0 169 46.5 310t135 243.5t224 159.5t305.5 57q147 0 264 -42t196.5 -119t126.5 -182t60 -234h-377q-11 64 -29 111t-50.5 86t-84 59t-122.5 20q-89 0 -152 -33t-98.5 -96.5t-51.5 -145t-16 -188.5
q0 -108 15.5 -190t51.5 -145.5t99 -96.5t152 -33q72 0 124 20t84 59.5t50 87.5t28 114h377q-26 -262 -195.5 -422t-461.5 -160z" />
    <glyph glyph-name="D" unicode="D" horiz-adv-x="1490" 
d="M793 0h-670v1464h649q308 0 480.5 -191t172.5 -542q0 -353 -163 -542t-469 -189zM492 301h235q322 0 322 430q0 432 -322 432h-235v-862z" />
    <glyph glyph-name="E" unicode="E" horiz-adv-x="1314" 
d="M1245 0h-1122v1464h1110v-301h-741v-260h638v-301h-638v-301h753v-301z" />
    <glyph glyph-name="F" unicode="F" horiz-adv-x="1255" 
d="M492 0h-369v1464h1089v-301h-720v-321h587v-301h-587v-541z" />
    <glyph glyph-name="G" unicode="G" horiz-adv-x="1538" 
d="M725 -33q-153 0 -278.5 57.5t-210 159.5t-130 243t-45.5 306q0 222 80 393t242 271t387 100q146 0 266.5 -41t201.5 -113t130 -164.5t62 -199.5h-377q-12 44 -29 77.5t-48.5 67.5t-85.5 53t-126 19q-326 0 -326 -463q0 -108 17.5 -190t56 -145.5t105.5 -96.5t161 -33
q127 0 208.5 69t84.5 175h-278v266h659v-778h-264l-37 186h-4q-55 -104 -160.5 -161.5t-261.5 -57.5z" />
    <glyph glyph-name="H" unicode="H" horiz-adv-x="1484" 
d="M492 0h-369v1464h369v-573h501v573h369v-1464h-369v590h-501v-590z" />
    <glyph glyph-name="I" unicode="I" horiz-adv-x="614" 
d="M492 0h-369v1464h369v-1464z" />
    <glyph glyph-name="J" unicode="J" horiz-adv-x="1148" 
d="M535 -33q-117 0 -206 27.5t-144.5 73.5t-90 114t-48 141.5t-13.5 163.5v123h327v-123q0 -111 34 -165t120 -54t120 54t34 165v977h368v-977q0 -90 -13.5 -163.5t-48 -141.5t-89.5 -114t-144 -73.5t-206 -27.5z" />
    <glyph glyph-name="K" unicode="K" horiz-adv-x="1413" 
d="M1452 0h-430l-379 571l-151 -176v-395h-369v1464h369v-624l524 624h395l-551 -641z" />
    <glyph glyph-name="L" unicode="L" horiz-adv-x="1173" 
d="M1143 0h-1020v1464h369v-1163h651v-301z" />
    <glyph glyph-name="M" unicode="M" horiz-adv-x="1753" 
d="M471 0h-348v1464h450l301 -934h5l301 934h450v-1464h-348v911h-4l-272 -911h-258l-273 911h-4v-911z" />
    <glyph glyph-name="N" unicode="N" horiz-adv-x="1499" 
d="M492 0h-369v1464h369l512 -870h4v870h368v-1464h-368l-512 870h-4v-870z" />
    <glyph glyph-name="O" unicode="O" horiz-adv-x="1572" 
d="M786 -33q-171 0 -309 57.5t-228.5 160t-139 242.5t-48.5 306q0 222 83 393t249 271t393 100q225 0 391 -99.5t250 -271.5t84 -393q0 -166 -49 -306.5t-140 -242.5t-228.5 -159.5t-307.5 -57.5zM786 268q97 0 166.5 36t108.5 101.5t56.5 146t17.5 181.5q0 100 -17.5 180
t-56.5 145.5t-108.5 101.5t-166.5 36q-348 0 -348 -463q0 -465 348 -465z" />
    <glyph glyph-name="P" unicode="P" horiz-adv-x="1361" 
d="M492 0h-369v1464h711q233 0 364 -120t131 -347t-131 -347t-364 -120h-342v-530zM492 831h256q100 0 152 38.5t52 127.5t-52 127.5t-152 38.5h-256v-332z" />
    <glyph glyph-name="Q" unicode="Q" horiz-adv-x="1572" 
d="M1511 733q0 -341 -188 -547l154 -155l-179 -185l-184 187q-144 -66 -328 -66q-171 0 -309 57.5t-228.5 160t-139 242.5t-48.5 306q0 222 83 393t249 271t393 100q225 0 391 -99.5t250 -271.5t84 -393zM786 268q50 0 86 8l-174 177l179 184l200 -203q58 116 58 299
q0 100 -17.5 180t-56.5 145.5t-108.5 101.5t-166.5 36q-348 0 -348 -463q0 -465 348 -465z" />
    <glyph glyph-name="R" unicode="R" horiz-adv-x="1409" 
d="M492 0h-369v1464h690q246 0 384 -109.5t138 -307.5q0 -150 -78.5 -242.5t-218.5 -124.5v-4q75 -13 128.5 -54.5t80.5 -98.5t43 -123.5t21.5 -131t9 -118.5t11.5 -89.5t24 -40.5v-20h-383q-16 14 -22 59t-5.5 100.5t-8.5 118t-27.5 114t-66.5 85t-122 33.5h-229v-510z
M492 811h249q226 0 226 176t-226 176h-249v-352z" />
    <glyph glyph-name="S" unicode="S" horiz-adv-x="1345" 
d="M713 -33q-193 0 -344 62t-239.5 183.5t-88.5 285.5h373q0 -121 80.5 -177.5t214.5 -56.5q100 0 153 36t53 95q0 28 -9 51.5t-30.5 42t-44.5 32.5t-62.5 28.5t-72 25t-85.5 26.5q-29 8 -44 13q-87 27 -149 51t-129 62t-108 81t-68 106t-27 139q0 93 28.5 168t79.5 126
t122.5 85t154.5 49.5t180 15.5q172 0 310 -56.5t222 -166t89 -254.5h-373q-12 85 -77 132.5t-171 47.5q-87 0 -137.5 -30t-50.5 -91q0 -69 57.5 -105t210.5 -81q213 -63 297 -102q189 -86 241 -226q23 -61 23 -135q0 -213 -153.5 -338t-425.5 -125z" />
    <glyph glyph-name="T" unicode="T" horiz-adv-x="1280" 
d="M825 0h-368v1163h-426v301h1218v-301h-424v-1163z" />
    <glyph glyph-name="U" unicode="U" horiz-adv-x="1445" 
d="M723 -33q-323 0 -467.5 139.5t-144.5 421.5v936h368v-936q0 -139 59.5 -199.5t184.5 -60.5t184.5 60.5t59.5 199.5v936h368v-936q0 -282 -144.5 -421.5t-467.5 -139.5z" />
    <glyph glyph-name="V" unicode="V" horiz-adv-x="1370" 
d="M883 0h-389l-488 1464h404l276 -1026h4l279 1026h389z" />
    <glyph glyph-name="W" unicode="W" horiz-adv-x="1957" 
d="M758 0h-369l-373 1464h369l188 -993h5l227 993h348l227 -993h4l189 993h369l-373 -1464h-369l-219 913h-4z" />
    <glyph glyph-name="X" unicode="X" horiz-adv-x="1366" 
d="M391 0h-409l485 748l-444 716h389l268 -446h4l270 446h389l-444 -712l485 -752h-409l-291 475h-4z" />
    <glyph glyph-name="Y" unicode="Y" horiz-adv-x="1366" 
d="M868 0h-368v541l-500 923h397l285 -622h4l287 622h389l-494 -923v-541z" />
    <glyph glyph-name="Z" unicode="Z" horiz-adv-x="1255" 
d="M1194 0h-1141v301l670 858v4h-629v301h1080v-301l-670 -858v-4h690v-301z" />
    <glyph glyph-name="bracketleft" unicode="[" horiz-adv-x="778" 
d="M741 -281h-628v1858h628v-281h-280v-1296h280v-281z" />
    <glyph glyph-name="backslash" unicode="\" horiz-adv-x="880" 
d="M858 0h-266l-567 1464h266z" />
    <glyph glyph-name="bracketright" unicode="]" horiz-adv-x="778" 
d="M666 -281h-629v281h280v1296h-280v281h629v-1858z" />
    <glyph glyph-name="asciicircum" unicode="^" horiz-adv-x="983" 
d="M334 901h-307l342 563h245l342 -563h-307l-157 277h-3z" />
    <glyph glyph-name="underscore" unicode="_" horiz-adv-x="1175" 
d="M1120 -352h-1065v280h1065v-280z" />
    <glyph glyph-name="grave" unicode="`" horiz-adv-x="620" 
d="M539 1174h-246l-191 311h328z" />
    <glyph glyph-name="a" unicode="a" horiz-adv-x="1155" 
d="M381 -33q-153 0 -243.5 83.5t-90.5 223.5q0 79 30.5 139t88 100t125 65.5t158.5 44.5q15 3 50.5 10t55 11.5t50.5 13t48.5 18t36 22.5t27 30.5t8.5 39.5q0 44 -35 69t-104 25q-90 0 -134.5 -37t-52.5 -114h-311q4 78 35 143.5t91 117.5t158.5 81.5t227.5 29.5
q222 0 332 -101t110 -335v-405q0 -44 7.5 -62t31.5 -18q15 0 27 2v-156q-99 -18 -180 -18q-94 0 -139 34t-58 103h-4q-59 -73 -148 -116.5t-198 -43.5zM518 193q94 0 150.5 68t56.5 163v88q-55 -20 -178 -49q-88 -21 -126 -58.5t-38 -95.5q0 -116 135 -116z" />
    <glyph glyph-name="b" unicode="b" horiz-adv-x="1230" 
d="M725 1081q210 0 333.5 -150t123.5 -407t-123.5 -407t-333.5 -150q-103 0 -184 43t-119 94h-4v-104h-328v1464h328v-520h4q38 51 119 94t184 43zM635 213q101 0 156 79.5t55 231.5t-55 232t-156 80t-156 -80t-55 -232t55 -231.5t156 -79.5z" />
    <glyph glyph-name="c" unicode="c" horiz-adv-x="1124" 
d="M586 -35q-246 0 -393.5 155t-147.5 404q0 247 146 403t387 156q221 0 357 -118t157 -308h-330q-21 181 -178 181q-100 0 -151.5 -82t-51.5 -232t51 -231.5t152 -81.5q159 0 178 184h330q-12 -191 -148 -310.5t-358 -119.5z" />
    <glyph glyph-name="d" unicode="d" horiz-adv-x="1228" 
d="M811 944v520h328v-1464h-328v104h-4q-38 -51 -119 -94t-184 -43q-210 0 -333.5 150t-123.5 407t123.5 407t333.5 150q103 0 184 -43t119 -94h4zM594 213q101 0 156 79.5t55 231.5t-55 232t-156 80t-156 -80t-55 -232t55 -231.5t156 -79.5z" />
    <glyph glyph-name="e" unicode="e" horiz-adv-x="1173" 
d="M1126 485v-49h-753q0 -105 64.5 -165t160.5 -60q146 0 186 106h334q-46 -165 -179.5 -258.5t-348.5 -93.5q-251 0 -398 154.5t-147 404.5q0 116 36 217t103.5 177.5t172 120.5t233.5 44q265 0 400.5 -153t135.5 -445zM375 639h422q0 100 -55 153.5t-152 53.5
q-95 0 -152 -53.5t-63 -153.5z" />
    <glyph glyph-name="f" unicode="f" horiz-adv-x="712" 
d="M610 1237q-51 0 -75.5 -23t-24.5 -100v-65h182v-246h-182v-803h-328v803h-141v246h141v73q0 191 77 276t247 85q81 0 186 -21v-231q-59 6 -82 6z" />
    <glyph glyph-name="g" unicode="g" horiz-adv-x="1196" 
d="M780 944v105h328v-924q0 -138 -36 -236t-106 -155t-163.5 -83t-218.5 -26q-117 0 -211.5 29t-155 78.5t-96.5 108t-51 124.5h331q36 -104 183 -104q109 0 152.5 61t43.5 203v61h-4q-40 -54 -112 -95.5t-175 -41.5q-199 0 -319.5 143.5t-120.5 372.5t120.5 372.5
t319.5 143.5q103 0 175 -41.5t112 -95.5h4zM580 295q194 0 194 270q0 131 -48 201t-146 70t-146.5 -70.5t-48.5 -200.5t48.5 -200t146.5 -70z" />
    <glyph glyph-name="h" unicode="h" horiz-adv-x="1189" 
d="M766 1081q155 0 247.5 -97.5t92.5 -274.5v-709h-328v604q0 115 -39.5 163t-124.5 48q-196 0 -196 -209v-606h-328v1464h328v-567h4q105 184 344 184z" />
    <glyph glyph-name="i" unicode="i" horiz-adv-x="507" 
d="M418 1174h-328v290h328v-290zM418 0h-328v1049h328v-1049z" />
    <glyph glyph-name="j" unicode="j" horiz-adv-x="507" 
d="M418 1174h-328v290h328v-290zM90 -375q-83 0 -182 21v250q58 -7 76 -7q55 0 80.5 23.5t25.5 101.5v1035h328v-1018q0 -200 -77 -303t-251 -103z" />
    <glyph glyph-name="k" unicode="k" horiz-adv-x="1118" 
d="M1159 0h-379l-248 432l-114 -121v-311h-328v1464h328v-805l350 390h348l-371 -394z" />
    <glyph glyph-name="l" unicode="l" horiz-adv-x="507" 
d="M418 0h-328v1464h328v-1464z" />
    <glyph glyph-name="m" unicode="m" horiz-adv-x="1800" 
d="M1380 1081q159 0 247.5 -96.5t88.5 -275.5v-709h-332v604q0 120 -31 165.5t-118 45.5q-81 0 -125.5 -51.5t-44.5 -157.5v-606h-328v604q0 120 -31 165.5t-118 45.5q-80 0 -125 -52t-45 -157v-606h-328v1049h328v-152h4q45 79 131 131.5t197 52.5q100 0 171 -50t103 -134
h4q52 60 94.5 96t109.5 62t148 26z" />
    <glyph glyph-name="n" unicode="n" horiz-adv-x="1189" 
d="M766 1081q155 0 247.5 -97.5t92.5 -274.5v-709h-328v604q0 115 -39.5 163t-124.5 48q-196 0 -196 -209v-606h-328v1049h328v-152h4q105 184 344 184z" />
    <glyph glyph-name="o" unicode="o" horiz-adv-x="1210" 
d="M602 -35q-257 0 -407 152.5t-150 404.5q0 251 151.5 406t411.5 155q257 0 407 -152.5t150 -402.5q0 -253 -151.5 -408t-411.5 -155zM606 211q109 0 168.5 80.5t59.5 232.5t-59.5 233t-168.5 81q-110 0 -169.5 -81t-59.5 -233t59 -232.5t170 -80.5z" />
    <glyph glyph-name="p" unicode="p" horiz-adv-x="1230" 
d="M725 1081q210 0 333.5 -150t123.5 -407t-123.5 -407t-333.5 -150q-103 0 -184 43t-119 94h-4v-466h-328v1411h328v-105h4q38 51 119 94t184 43zM635 213q101 0 156 79.5t55 231.5t-55 232t-156 80t-156 -80t-55 -232t55 -231.5t156 -79.5z" />
    <glyph glyph-name="q" unicode="q" horiz-adv-x="1226" 
d="M811 944v105h328v-1411h-328v466h-4q-38 -51 -119 -94t-184 -43q-210 0 -333.5 150t-123.5 407t123.5 407t333.5 150q103 0 184 -43t119 -94h4zM594 213q101 0 156 79.5t55 231.5t-55 232t-156 80t-156 -80t-55 -232t55 -231.5t156 -79.5z" />
    <glyph glyph-name="r" unicode="r" horiz-adv-x="788" 
d="M678 1057q53 0 90 -8v-287q-40 6 -68 6q-118 0 -200 -73.5t-82 -207.5v-487h-328v1049h328v-172h4q39 85 105 132.5t151 47.5z" />
    <glyph glyph-name="s" unicode="s" horiz-adv-x="1064" 
d="M555 -33q-133 0 -234 30t-160.5 84t-90 120.5t-33.5 146.5h307q15 -155 205 -155q139 0 139 90q0 15 -3.5 28t-12 23.5t-16.5 18.5t-25 15.5t-29.5 12t-36.5 11t-39 10t-45.5 10t-48.5 10.5q-62 15 -110.5 30.5t-100.5 43t-86 61t-56 83.5t-22 112q0 150 120.5 239.5
t338.5 89.5q121 0 214 -29t147.5 -79.5t83 -112t32.5 -133.5h-307q-8 65 -46.5 97t-117.5 32q-129 0 -129 -84q0 -42 32 -58.5t129 -38.5q37 -8 58 -13q52 -12 88.5 -22t83 -27t78 -34.5t65 -44.5t53 -58.5t32 -74.5t12.5 -94q0 -164 -121 -252t-348 -88z" />
    <glyph glyph-name="t" unicode="t" horiz-adv-x="747" 
d="M608 225q36 0 88 8v-231q-96 -22 -194 -22q-173 0 -250.5 84.5t-77.5 275.5v463h-145v246h145v292h328v-292h182v-246h-182v-455q0 -78 25.5 -100.5t80.5 -22.5z" />
    <glyph glyph-name="u" unicode="u" horiz-adv-x="1189" 
d="M772 442v607h328v-1049h-328v152h-4q-106 -185 -344 -185q-155 0 -247.5 98t-92.5 275v709h328v-605q0 -115 39.5 -163t123.5 -48q197 0 197 209z" />
    <glyph glyph-name="v" unicode="v" horiz-adv-x="1093" 
d="M727 0h-360l-363 1049h332l213 -693h4l213 693h324z" />
    <glyph glyph-name="w" unicode="w" horiz-adv-x="1617" 
d="M604 0h-307l-293 1049h328l157 -639h5l176 639h286l177 -639h6l157 639h318l-293 -1049h-307l-203 664h-4z" />
    <glyph glyph-name="x" unicode="x" horiz-adv-x="1064" 
d="M342 0h-369l361 535l-320 514h348l168 -304h5l167 304h349l-320 -514l361 -535h-369l-188 324h-5z" />
    <glyph glyph-name="y" unicode="y" horiz-adv-x="1124" 
d="M315 -362q-96 0 -196 20v250q52 -6 98 -6q21 0 34 0.5t34.5 3.5t36.5 10.5t31.5 19t28.5 31.5t19 47l-417 1035h338l245 -691h4l226 691h323l-383 -1051q-46 -126 -97.5 -201.5t-131.5 -117t-193 -41.5z" />
    <glyph glyph-name="z" unicode="z" horiz-adv-x="1026" 
d="M979 0h-940v236l510 563v4h-469v246h878v-236l-509 -563v-4h530v-246z" />
    <glyph glyph-name="braceleft" unicode="{" horiz-adv-x="788" 
d="M741 -281h-55q-86 0 -150 6.5t-123.5 22.5t-99.5 45t-70.5 73.5t-44.5 109t-14 149.5v250q0 76 -28 103.5t-111 27.5v282q83 -1 111 27t28 107v258q0 85 14 148.5t44.5 107t70 71.5t100 43.5t123.5 21t150 5.5h55v-281h-55q-154 0 -154 -190v-238q0 -87 -33.5 -137.5
t-109.5 -81.5v-4q76 -31 109.5 -82t33.5 -139v-225q0 -199 154 -199h55v-281z" />
    <glyph glyph-name="bar" unicode="|" horiz-adv-x="471" 
d="M348 -283h-225v1827h225v-1827z" />
    <glyph glyph-name="braceright" unicode="}" horiz-adv-x="788" 
d="M102 -281h-55v281h55q154 0 154 190v238q0 87 33.5 137.5t109.5 81.5v4q-76 31 -109.5 82t-33.5 139v226q0 198 -154 198h-55v281h55q86 0 150 -6.5t123.5 -22.5t99.5 -45t70.5 -73.5t44.5 -109t14 -149.5v-249q0 -76 28 -103.5t111 -27.5v-283q-83 1 -111 -26.5
t-28 -106.5v-258q0 -102 -22 -173.5t-60.5 -115t-104 -68t-138 -33t-177.5 -8.5z" />
    <glyph glyph-name="asciitilde" unicode="~" horiz-adv-x="1001" 
d="M297 489h-205q0 182 60 270.5t184 88.5q59 0 112 -23t97 -46t82 -23q84 0 84 92h204q0 -182 -59.5 -270.5t-183.5 -88.5q-59 0 -112 23.5t-97 46.5t-82 23q-84 0 -84 -93z" />
    <glyph glyph-name="uni00A0" unicode="&#xa0;" horiz-adv-x="389" 
 />
    <glyph glyph-name="exclamdown" unicode="&#xa1;" horiz-adv-x="520" 
d="M414 887h-312v311h312v-311zM434 -266h-348v319l92 666h164l92 -666v-319z" />
    <glyph glyph-name="cent" unicode="&#xa2;" horiz-adv-x="1200" 
d="M698 1044v-598q87 37 101 170h329q-11 -172 -125.5 -288.5t-304.5 -137.5v-180h-143v180q-218 22 -345.5 173t-127.5 382q0 230 129 384t344 174v143h143v-146q186 -23 298.5 -137t131.5 -284h-329q-16 130 -101 165zM418 745q0 -254 137 -303v607q-137 -49 -137 -304z
" />
    <glyph glyph-name="sterling" unicode="&#xa3;" horiz-adv-x="1288" 
d="M1120 350l129 -256q-79 -66 -151 -96.5t-172 -30.5q-63 0 -116.5 12.5t-91 30t-72 34.5t-76.5 29.5t-87 12.5q-116 0 -256 -86l-155 254q158 98 168 285h-148v217h105q-6 14 -22 46t-24 50t-18.5 47.5t-15 60t-4.5 64.5q0 59 14.5 113.5t52 110t95.5 96.5t153 66.5
t215 25.5q145 0 252.5 -37t172.5 -106.5t96.5 -162.5t31.5 -212h-348q0 237 -199 237q-97 0 -142.5 -47t-45.5 -123q0 -26 4.5 -50t15 -49.5t18.5 -41.5t24.5 -46t23.5 -42h293v-217h-254q-19 -119 -131 -234l2 -4q84 41 159 41q68 0 153 -34t151 -34q65 0 110.5 19.5
t89.5 56.5z" />
    <glyph glyph-name="currency" unicode="&#xa4;" horiz-adv-x="1126" 
d="M981 715q0 -111 -45 -199l123 -123l-174 -174l-121 121q-94 -43 -199 -43q-112 0 -200 45l-123 -123l-174 174l122 123q-43 94 -43 199q0 104 43 198l-122 123l174 174l123 -123q90 46 200 46q114 0 199 -43l121 120l174 -174l-121 -121q43 -87 43 -200zM565 481
q87 0 128.5 64t41.5 170t-41.5 169.5t-128.5 63.5q-89 0 -130.5 -63.5t-41.5 -169.5t41.5 -170t130.5 -64z" />
    <glyph glyph-name="yen" unicode="&#xa5;" horiz-adv-x="1376" 
d="M954 1405h389l-434 -778h291v-138h-338v-118h338v-138h-338v-233h-348v233h-338v138h338v118h-338v138h291l-434 778h389l264 -555h4z" />
    <glyph glyph-name="brokenbar" unicode="&#xa6;" horiz-adv-x="471" 
d="M348 786h-225v758h225v-758zM348 -283h-225v785h225v-785z" />
    <glyph glyph-name="section" unicode="&#xa7;" horiz-adv-x="1341" 
d="M1266 510q0 -97 -55 -170t-158 -111q90 -100 90 -233q0 -164 -120.5 -261t-344.5 -97q-229 0 -351 112.5t-130 298.5h327q7 -92 42 -139t116 -47q65 0 99 28t34 76q0 19 -6 36t-14 30.5t-25 27.5t-30 23.5t-38.5 23.5t-41 21.5t-46.5 22t-47 22.5l-133 66
q-162 80 -220 122q-120 87 -135 210q-3 21 -3 44q0 97 55 170t158 111q-90 100 -90 233q0 164 120.5 261.5t344.5 97.5q229 0 351 -113t130 -299h-328q-7 92 -42 139.5t-116 47.5q-65 0 -99 -28.5t-34 -76.5q0 -19 6 -36t14 -30.5t25 -27.5t30 -23.5t38.5 -23.5t41 -21.5
t46.5 -22t47 -22.5l133 -65q162 -80 221 -123q121 -88 136 -213q2 -20 2 -41zM610 479l138 -65q27 -12 79 -39q54 4 83.5 30.5t29.5 69.5q0 48 -42.5 80t-166.5 92l-137 66q-34 15 -80 39q-54 -4 -83.5 -31t-29.5 -70q0 -48 42.5 -80t166.5 -92z" />
    <glyph glyph-name="dieresis" unicode="&#xa8;" horiz-adv-x="946" 
d="M424 1174h-328v290h328v-290zM850 1174h-328v290h328v-290z" />
    <glyph glyph-name="copyright" unicode="&#xa9;" horiz-adv-x="1703" 
d="M852 -33q-353 0 -559.5 206t-206.5 558q0 353 206.5 559.5t559.5 206.5t559.5 -206.5t206.5 -559.5q0 -352 -206.5 -558t-559.5 -206zM852 115q276 0 431 164t155 452t-155 453.5t-431 165.5t-431 -165.5t-155 -453.5t155 -452t431 -164zM864 272q-203 0 -324.5 127
t-121.5 332q0 204 116.5 332.5t313.5 128.5q183 0 291.5 -97t124.5 -253h-265q-17 147 -145 147q-166 0 -166 -258q0 -256 166 -256q75 0 106.5 40.5t38.5 109.5h265q-9 -157 -114 -255t-286 -98z" />
    <glyph glyph-name="ordfeminine" unicode="&#xaa;" horiz-adv-x="1001" 
d="M328 573q-129 0 -206 68t-77 182q0 64 26 113.5t75 81.5t105.5 52.5t131.5 35.5q14 3 39.5 8t39 8t35.5 7.5t33.5 9t27.5 10.5t24.5 13t17.5 16t12.5 19.5t3.5 23.5q0 69 -110 69q-143 0 -156 -119h-270q8 134 116 221t320 87q189 0 282 -85t93 -282v-315q0 -23 1.5 -33
t10.5 -18.5t29 -8.5l16 2v-143q-83 -18 -147 -18q-85 0 -126 30t-54 90h-3q-46 -55 -122 -90t-168 -35zM444 770q82 0 127 51.5t45 124.5v64q-64 -30 -147 -47q-131 -27 -131 -111q0 -41 29 -61.5t77 -20.5z" />
    <glyph glyph-name="guillemotleft" unicode="&#xab;" horiz-adv-x="985" 
d="M463 362v-307l-385 316v321l385 318v-316l-230 -162v-4zM893 362v-307l-385 316v321l385 318v-316l-229 -162v-4z" />
    <glyph glyph-name="logicalnot" unicode="&#xac;" horiz-adv-x="1048" 
d="M944 274h-328v326h-550v281h878v-607z" />
    <glyph glyph-name="uni00AD" unicode="&#xad;" horiz-adv-x="720" 
d="M639 377h-557v280h557v-280z" />
    <glyph glyph-name="registered" unicode="&#xae;" horiz-adv-x="1153" 
d="M578 506q-207 0 -349.5 141.5t-142.5 353.5t142.5 354t349.5 142q135 0 247 -64t177 -178t65 -254q0 -212 -141 -353.5t-348 -141.5zM578 602q172 0 272 109t100 293q0 183 -100 291t-272 108q-173 0 -274 -108.5t-101 -290.5q0 -184 101 -293t274 -109zM518 737h-156
v543h256q90 0 141.5 -41t51.5 -117q0 -53 -29 -87.5t-80 -45.5v-2q46 -8 70.5 -46.5t27.5 -80t6.5 -77.5t12.5 -38v-8h-162q-9 7 -11 39.5t-3 65t-20.5 59.5t-59.5 27h-45v-191zM518 1042h53q84 0 84 64q0 63 -84 63h-53v-127z" />
    <glyph glyph-name="macron" unicode="&#xaf;" horiz-adv-x="749" 
d="M668 1174h-586v204h586v-204z" />
    <glyph glyph-name="degree" unicode="&#xb0;" horiz-adv-x="798" 
d="M399 868q-144 0 -231.5 92.5t-87.5 223.5t87 222t232 91q143 0 231.5 -91.5t88.5 -221.5q0 -131 -88.5 -223.5t-231.5 -92.5zM399 1032q54 0 95 38.5t41 113.5t-41 112t-95 37t-94.5 -37t-40.5 -112q0 -76 40.5 -114t94.5 -38z" />
    <glyph glyph-name="plusminus" unicode="&#xb1;" horiz-adv-x="1175" 
d="M1085 872v-282h-356v-303h356v-283h-995v283h356v303h-356v282h356v371h283v-371h356z" />
    <glyph glyph-name="uni00B2" unicode="&#xb2;" horiz-adv-x="768" 
d="M711 745h-670q0 45 2.5 75t14 60t23.5 49t42.5 48t58 51t82.5 64q9 6 36.5 26.5t39 29.5t34.5 28.5t34 33.5t24.5 33t19 39t5.5 41q0 39 -19.5 58.5t-54.5 19.5q-46 0 -71 -29t-25 -108h-238q0 162 84.5 248.5t257.5 86.5q146 0 231 -68.5t85 -189.5q0 -47 -14.5 -91.5
t-31.5 -73.5t-51.5 -65t-52 -51t-55.5 -46q-63 -51 -76 -68v-2h285v-199z" />
    <glyph glyph-name="uni00B3" unicode="&#xb3;" horiz-adv-x="786" 
d="M399 737q-175 0 -269.5 83.5t-94.5 238.5h237q0 -66 26 -95.5t91 -29.5q96 0 96 82q0 44 -31.5 64t-103.5 20h-28v164h24q117 0 117 82q0 33 -21.5 50t-54.5 17q-41 0 -66.5 -20t-25.5 -62h-236q0 124 92 202.5t246 78.5q137 0 228.5 -62.5t91.5 -169.5q0 -112 -117 -182
v-2q139 -47 139 -197q0 -127 -91 -194.5t-249 -67.5z" />
    <glyph glyph-name="acute" unicode="&#xb4;" horiz-adv-x="620" 
d="M328 1174h-246l108 311h369z" />
    <glyph glyph-name="uni00B5" unicode="&#xb5;" horiz-adv-x="1241" 
d="M801 442v607h327v-1049h-327v152h-4q-41 -84 -112.5 -128t-149.5 -44q-54 0 -95 20v-362h-327v1411h327v-605q0 -115 39.5 -163t124.5 -48q197 0 197 209z" />
    <glyph glyph-name="paragraph" unicode="&#xb6;" horiz-adv-x="1234" 
d="M752 0h-205v686h-86q-207 0 -317.5 99t-110.5 284q0 186 111.5 290.5t316.5 104.5h641v-1464h-205v1280h-145v-1280z" />
    <glyph glyph-name="periodcentered" unicode="&#xb7;" horiz-adv-x="495" 
d="M403 356h-311v312h311v-312z" />
    <glyph glyph-name="cedilla" unicode="&#xb8;" horiz-adv-x="661" 
d="M334 -406q-131 0 -230 68l62 72q67 -31 129 -31q41 0 67.5 14.5t26.5 44.5q0 56 -70 56q-32 0 -75 -15l-49 70l120 127h148l-80 -98v-4q89 10 154 -26.5t65 -111.5q0 -77 -77 -121.5t-191 -44.5z" />
    <glyph glyph-name="uni00B9" unicode="&#xb9;" horiz-adv-x="546" 
d="M203 745v519q-43 -19 -176 -19v189q93 0 157.5 39t63.5 104h217v-832h-262z" />
    <glyph glyph-name="ordmasculine" unicode="&#xba;" horiz-adv-x="1028" 
d="M512 573q-217 0 -345 125t-128 328q0 202 128.5 327.5t348.5 125.5q217 0 345 -124t128 -325q0 -204 -128.5 -330.5t-348.5 -126.5zM514 786q87 0 133.5 61.5t46.5 180.5q0 116 -47 177t-133 61q-87 0 -133.5 -61.5t-46.5 -176.5q0 -119 46.5 -180.5t133.5 -61.5z" />
    <glyph glyph-name="guillemotright" unicode="&#xbb;" horiz-adv-x="985" 
d="M477 373l-385 -318v316l230 161v5l-230 165v308l385 -316v-321zM907 373l-385 -318v316l230 161v5l-230 165v308l385 -316v-321z" />
    <glyph glyph-name="onequarter" unicode="&#xbc;" horiz-adv-x="1685" 
d="M203 633v518q-41 -18 -176 -18v188q93 0 157.5 39t63.5 104h217v-831h-262zM473 0h-287l928 1464h287zM1534 0h-248v166h-366v246l366 419h248v-469h123v-196h-123v-166zM1286 573l-192 -211h192v211z" />
    <glyph glyph-name="onehalf" unicode="&#xbd;" horiz-adv-x="1789" 
d="M201 633v518q-41 -18 -176 -18v188q93 0 157.5 39t63.5 104h217v-831h-262zM487 0h-286l927 1464h287zM1737 0h-670q0 45 2.5 75t14.5 60t23.5 48.5t42 48t57.5 51t83 63.5q7 5 36 26.5t40 30t34.5 28.5t34 33.5t24 33t19 39.5t5.5 41q0 77 -74 77q-46 0 -71 -29
t-25 -108h-238q0 162 84.5 249t257.5 87q146 0 231 -68.5t85 -189.5q0 -47 -14.5 -91.5t-31.5 -74t-51 -65t-52 -51t-56 -46.5q-65 -53 -76 -67v-2h285v-199z" />
    <glyph glyph-name="threequarters" unicode="&#xbe;" horiz-adv-x="1884" 
d="M420 612q-175 0 -270 83.5t-95 238.5h238q0 -66 26 -95.5t91 -29.5q96 0 96 82q0 44 -31.5 64t-103.5 20h-29v164h25q116 0 116 82q0 33 -21 50t-54 17q-41 0 -67 -20t-26 -62h-235q0 124 92 202.5t246 78.5q137 0 228 -62.5t91 -169.5q0 -112 -116 -182v-2
q139 -47 139 -197q0 -127 -91 -194.5t-249 -67.5zM666 0h-287l928 1464h286zM1722 0h-247v166h-367v246l367 419h247v-469h123v-196h-123v-166zM1475 573l-193 -211h193v211z" />
    <glyph glyph-name="questiondown" unicode="&#xbf;" horiz-adv-x="1105" 
d="M743 891h-311v311h311v-311zM524 -295q-215 0 -352 110t-137 287q0 119 55.5 200t167.5 144q115 64 156 117t41 160h270q0 -69 -1.5 -110t-10.5 -81t-19 -62t-35 -50.5t-51.5 -49.5t-75.5 -57q-90 -65 -119.5 -102.5t-29.5 -99.5q0 -54 36 -89.5t116 -35.5q192 0 192 237
h348q0 -109 -35 -202t-101.5 -164t-173 -111.5t-241.5 -40.5z" />
    <glyph glyph-name="Agrave" unicode="&#xc0;" horiz-adv-x="1466" 
d="M850 1593h-246l-190 312h327zM385 0h-395l557 1464h371l561 -1464h-404l-94 305h-502zM729 1126l-166 -540h336l-166 540h-4z" />
    <glyph glyph-name="Aacute" unicode="&#xc1;" horiz-adv-x="1466" 
d="M854 1589h-246l109 312h368zM385 0h-395l557 1464h371l561 -1464h-404l-94 305h-502zM729 1126l-166 -540h336l-166 540h-4z" />
    <glyph glyph-name="Acircumflex" unicode="&#xc2;" horiz-adv-x="1466" 
d="M637 1589h-285l219 312h320l219 -312h-285l-92 166h-4zM385 0h-395l557 1464h371l561 -1464h-404l-94 305h-502zM729 1126l-166 -540h336l-166 540h-4z" />
    <glyph glyph-name="Atilde" unicode="&#xc3;" horiz-adv-x="1466" 
d="M543 1559h-178q0 301 182 301q59 0 150 -41t128 -41q72 0 72 82h176q0 -301 -182 -301q-59 0 -151 39.5t-128 39.5q-69 0 -69 -79zM385 0h-395l557 1464h371l561 -1464h-404l-94 305h-502zM729 1126l-166 -540h336l-166 540h-4z" />
    <glyph glyph-name="Adieresis" unicode="&#xc4;" horiz-adv-x="1466" 
d="M682 1589h-328v291h328v-291zM1108 1589h-328v291h328v-291zM385 0h-395l557 1464h371l561 -1464h-404l-94 305h-502zM729 1126l-166 -540h336l-166 540h-4z" />
    <glyph glyph-name="Aring" unicode="&#xc5;" horiz-adv-x="1466" 
d="M731 1520q-94 0 -159.5 60.5t-65.5 160.5q0 98 65.5 159.5t159.5 61.5q95 0 160 -61t65 -160q0 -100 -65 -160.5t-160 -60.5zM731 1647q42 0 65 24.5t23 69.5t-23 69.5t-65 24.5q-38 0 -62 -25t-24 -69t24 -69t62 -25zM385 0h-395l557 1464h371l561 -1464h-404l-94 305
h-502zM729 1126l-166 -540h336l-166 540h-4z" />
    <glyph glyph-name="AE" unicode="&#xc6;" horiz-adv-x="2066" 
d="M1243 602v-301h754v-301h-1123v301h-423l-95 -305h-368l553 1468h1444v-301h-742v-260h639v-301h-639zM535 582h337v581h-149z" />
    <glyph glyph-name="Ccedilla" unicode="&#xc7;" horiz-adv-x="1464" 
d="M756 268q72 0 124 20t84 59.5t50 87.5t28 114h377q-24 -242 -171 -398t-400 -180l-57 -69v-4q89 10 154 -26.5t65 -111.5q0 -77 -77.5 -121.5t-191.5 -44.5q-130 0 -229 68l61 72q67 -31 129 -31q41 0 68 14.5t27 44.5q0 56 -70 56q-33 0 -76 -15l-49 70l92 96
q-205 15 -349.5 118t-214 266.5t-69.5 373.5q0 169 46.5 310t135 243.5t224 159.5t305.5 57q147 0 264 -42t196.5 -119t126.5 -182t60 -234h-377q-11 64 -29 111t-50.5 86t-84 59t-122.5 20q-89 0 -152 -33t-98.5 -96.5t-51.5 -145t-16 -188.5q0 -108 15.5 -190t51.5 -145.5
t99 -96.5t152 -33z" />
    <glyph glyph-name="Egrave" unicode="&#xc8;" horiz-adv-x="1314" 
d="M803 1593h-246l-190 312h327zM1245 0h-1122v1464h1110v-301h-741v-260h638v-301h-638v-301h753v-301z" />
    <glyph glyph-name="Eacute" unicode="&#xc9;" horiz-adv-x="1314" 
d="M807 1589h-246l109 312h368zM1245 0h-1122v1464h1110v-301h-741v-260h638v-301h-638v-301h753v-301z" />
    <glyph glyph-name="Ecircumflex" unicode="&#xca;" horiz-adv-x="1314" 
d="M590 1589h-285l219 312h320l219 -312h-285l-92 166h-4zM1245 0h-1122v1464h1110v-301h-741v-260h638v-301h-638v-301h753v-301z" />
    <glyph glyph-name="Edieresis" unicode="&#xcb;" horiz-adv-x="1314" 
d="M635 1589h-328v291h328v-291zM1061 1589h-328v291h328v-291zM1245 0h-1122v1464h1110v-301h-741v-260h638v-301h-638v-301h753v-301z" />
    <glyph glyph-name="Igrave" unicode="&#xcc;" horiz-adv-x="614" 
d="M426 1593h-246l-190 312h327zM492 0h-369v1464h369v-1464z" />
    <glyph glyph-name="Iacute" unicode="&#xcd;" horiz-adv-x="614" 
d="M430 1589h-246l109 312h369zM492 0h-369v1464h369v-1464z" />
    <glyph glyph-name="Icircumflex" unicode="&#xce;" horiz-adv-x="614" 
d="M213 1589h-285l219 312h320l219 -312h-285l-92 166h-4zM492 0h-369v1464h369v-1464z" />
    <glyph glyph-name="Idieresis" unicode="&#xcf;" horiz-adv-x="614" 
d="M258 1589h-328v291h328v-291zM684 1589h-328v291h328v-291zM492 0h-369v1464h369v-1464z" />
    <glyph glyph-name="Eth" unicode="&#xd0;" horiz-adv-x="1513" 
d="M145 1464h650q308 0 480.5 -191t172.5 -542q0 -353 -163.5 -542t-469.5 -189h-670v666h-118v184h118v614zM514 301h236q321 0 321 430q0 432 -321 432h-236v-313h287v-184h-287v-365z" />
    <glyph glyph-name="Ntilde" unicode="&#xd1;" horiz-adv-x="1499" 
d="M561 1559h-178q0 301 182 301q59 0 150.5 -41t128.5 -41q71 0 71 82h177q0 -301 -183 -301q-59 0 -150.5 39.5t-127.5 39.5q-70 0 -70 -79zM492 0h-369v1464h369l512 -870h4v870h368v-1464h-368l-512 870h-4v-870z" />
    <glyph glyph-name="Ograve" unicode="&#xd2;" horiz-adv-x="1572" 
d="M905 1593h-246l-190 312h328zM786 -33q-171 0 -309 57.5t-228.5 160t-139 242.5t-48.5 306q0 222 83 393t249 271t393 100q225 0 391 -99.5t250 -271.5t84 -393q0 -166 -49 -306.5t-140 -242.5t-228.5 -159.5t-307.5 -57.5zM786 268q97 0 166.5 36t108.5 101.5t56.5 146
t17.5 181.5q0 100 -17.5 180t-56.5 145.5t-108.5 101.5t-166.5 36q-348 0 -348 -463q0 -465 348 -465z" />
    <glyph glyph-name="Oacute" unicode="&#xd3;" horiz-adv-x="1572" 
d="M909 1589h-245l108 312h369zM786 -33q-171 0 -309 57.5t-228.5 160t-139 242.5t-48.5 306q0 222 83 393t249 271t393 100q225 0 391 -99.5t250 -271.5t84 -393q0 -166 -49 -306.5t-140 -242.5t-228.5 -159.5t-307.5 -57.5zM786 268q97 0 166.5 36t108.5 101.5t56.5 146
t17.5 181.5q0 100 -17.5 180t-56.5 145.5t-108.5 101.5t-166.5 36q-348 0 -348 -463q0 -465 348 -465z" />
    <glyph glyph-name="Ocircumflex" unicode="&#xd4;" horiz-adv-x="1572" 
d="M692 1589h-284l219 312h319l219 -312h-284l-93 166h-4zM786 -33q-171 0 -309 57.5t-228.5 160t-139 242.5t-48.5 306q0 222 83 393t249 271t393 100q225 0 391 -99.5t250 -271.5t84 -393q0 -166 -49 -306.5t-140 -242.5t-228.5 -159.5t-307.5 -57.5zM786 268
q97 0 166.5 36t108.5 101.5t56.5 146t17.5 181.5q0 100 -17.5 180t-56.5 145.5t-108.5 101.5t-166.5 36q-348 0 -348 -463q0 -465 348 -465z" />
    <glyph glyph-name="Otilde" unicode="&#xd5;" horiz-adv-x="1572" 
d="M598 1559h-178q0 301 182 301q59 0 150.5 -41t128.5 -41q71 0 71 82h176q0 -301 -182 -301q-59 0 -150.5 39.5t-127.5 39.5q-70 0 -70 -79zM786 -33q-171 0 -309 57.5t-228.5 160t-139 242.5t-48.5 306q0 222 83 393t249 271t393 100q225 0 391 -99.5t250 -271.5t84 -393
q0 -166 -49 -306.5t-140 -242.5t-228.5 -159.5t-307.5 -57.5zM786 268q97 0 166.5 36t108.5 101.5t56.5 146t17.5 181.5q0 100 -17.5 180t-56.5 145.5t-108.5 101.5t-166.5 36q-348 0 -348 -463q0 -465 348 -465z" />
    <glyph glyph-name="Odieresis" unicode="&#xd6;" horiz-adv-x="1572" 
d="M737 1589h-327v291h327v-291zM1163 1589h-327v291h327v-291zM786 -33q-171 0 -309 57.5t-228.5 160t-139 242.5t-48.5 306q0 222 83 393t249 271t393 100q225 0 391 -99.5t250 -271.5t84 -393q0 -166 -49 -306.5t-140 -242.5t-228.5 -159.5t-307.5 -57.5zM786 268
q97 0 166.5 36t108.5 101.5t56.5 146t17.5 181.5q0 100 -17.5 180t-56.5 145.5t-108.5 101.5t-166.5 36q-348 0 -348 -463q0 -465 348 -465z" />
    <glyph glyph-name="multiply" unicode="&#xd7;" horiz-adv-x="1175" 
d="M588 475l-295 -295l-199 199l295 295l-295 293l199 198l295 -295l295 295l198 -198l-295 -293l295 -295l-198 -199z" />
    <glyph glyph-name="Oslash" unicode="&#xd8;" horiz-adv-x="1579" 
d="M1432 1464l88 -86l-152 -151q148 -202 148 -494q0 -166 -49 -306.5t-140 -242.5t-228.5 -159.5t-307.5 -57.5q-309 0 -500 178l-144 -143l-86 88l148 150q-143 196 -143 493q0 222 83 393t249 271t393 100q304 0 495 -178zM442 733q0 -132 29 -231l578 579
q-85 115 -258 115q-349 0 -349 -463zM1139 733q0 140 -31 232l-580 -580q89 -117 263 -117q348 0 348 465z" />
    <glyph glyph-name="Ugrave" unicode="&#xd9;" horiz-adv-x="1445" 
d="M842 1593h-246l-190 312h327zM723 -33q-323 0 -467.5 139.5t-144.5 421.5v936h368v-936q0 -139 59.5 -199.5t184.5 -60.5t184.5 60.5t59.5 199.5v936h368v-936q0 -282 -144.5 -421.5t-467.5 -139.5z" />
    <glyph glyph-name="Uacute" unicode="&#xda;" horiz-adv-x="1445" 
d="M846 1589h-246l109 312h368zM723 -33q-323 0 -467.5 139.5t-144.5 421.5v936h368v-936q0 -139 59.5 -199.5t184.5 -60.5t184.5 60.5t59.5 199.5v936h368v-936q0 -282 -144.5 -421.5t-467.5 -139.5z" />
    <glyph glyph-name="Ucircumflex" unicode="&#xdb;" horiz-adv-x="1445" 
d="M629 1589h-285l219 312h320l219 -312h-285l-92 166h-4zM723 -33q-323 0 -467.5 139.5t-144.5 421.5v936h368v-936q0 -139 59.5 -199.5t184.5 -60.5t184.5 60.5t59.5 199.5v936h368v-936q0 -282 -144.5 -421.5t-467.5 -139.5z" />
    <glyph glyph-name="Udieresis" unicode="&#xdc;" horiz-adv-x="1445" 
d="M674 1589h-328v291h328v-291zM1100 1589h-328v291h328v-291zM723 -33q-323 0 -467.5 139.5t-144.5 421.5v936h368v-936q0 -139 59.5 -199.5t184.5 -60.5t184.5 60.5t59.5 199.5v936h368v-936q0 -282 -144.5 -421.5t-467.5 -139.5z" />
    <glyph glyph-name="Yacute" unicode="&#xdd;" horiz-adv-x="1366" 
d="M809 1589h-246l109 312h368zM868 0h-368v541l-500 923h397l285 -622h4l287 622h389l-494 -923v-541z" />
    <glyph glyph-name="Thorn" unicode="&#xde;" horiz-adv-x="1361" 
d="M492 0h-369v1464h369v-204h342q233 0 364 -120t131 -347t-131 -347t-364 -120h-342v-326zM492 627h264q100 0 152.5 38.5t52.5 127.5q0 88 -52.5 126.5t-152.5 38.5h-264v-331z" />
    <glyph glyph-name="germandbls" unicode="&#xdf;" horiz-adv-x="1200" 
d="M709 -33q-99 0 -189 33v246q62 -10 103 -10q198 0 198 215q0 251 -250 251h-51v205h43q83 0 129.5 47.5t46.5 132.5q0 77 -39.5 120.5t-115.5 43.5q-80 0 -123 -58t-43 -200v-993h-328v977q0 257 127.5 388.5t376.5 131.5q99 0 180 -21.5t136.5 -58t93 -86.5t54.5 -106.5
t17 -118.5q0 -110 -51.5 -185t-132.5 -110v-4q128 -40 197 -150t69 -258q0 -136 -61 -235.5t-161 -148t-226 -48.5z" />
    <glyph glyph-name="agrave" unicode="&#xe0;" horiz-adv-x="1155" 
d="M702 1178h-245l-191 311h328zM381 -33q-153 0 -243.5 83.5t-90.5 223.5q0 79 30.5 139t88 100t125 65.5t158.5 44.5q15 3 50.5 10t55 11.5t50.5 13t48.5 18t36 22.5t27 30.5t8.5 39.5q0 44 -35 69t-104 25q-90 0 -134.5 -37t-52.5 -114h-311q4 78 35 143.5t91 117.5
t158.5 81.5t227.5 29.5q222 0 332 -101t110 -335v-405q0 -44 7.5 -62t31.5 -18q15 0 27 2v-156q-99 -18 -180 -18q-94 0 -139 34t-58 103h-4q-59 -73 -148 -116.5t-198 -43.5zM518 193q94 0 150.5 68t56.5 163v88q-55 -20 -178 -49q-88 -21 -126 -58.5t-38 -95.5
q0 -116 135 -116z" />
    <glyph glyph-name="aacute" unicode="&#xe1;" horiz-adv-x="1155" 
d="M707 1174h-246l108 311h369zM381 -33q-153 0 -243.5 83.5t-90.5 223.5q0 79 30.5 139t88 100t125 65.5t158.5 44.5q15 3 50.5 10t55 11.5t50.5 13t48.5 18t36 22.5t27 30.5t8.5 39.5q0 44 -35 69t-104 25q-90 0 -134.5 -37t-52.5 -114h-311q4 78 35 143.5t91 117.5
t158.5 81.5t227.5 29.5q222 0 332 -101t110 -335v-405q0 -44 7.5 -62t31.5 -18q15 0 27 2v-156q-99 -18 -180 -18q-94 0 -139 34t-58 103h-4q-59 -73 -148 -116.5t-198 -43.5zM518 193q94 0 150.5 68t56.5 163v88q-55 -20 -178 -49q-88 -21 -126 -58.5t-38 -95.5
q0 -116 135 -116z" />
    <glyph glyph-name="acircumflex" unicode="&#xe2;" horiz-adv-x="1155" 
d="M489 1174h-284l219 311h319l220 -311h-285l-92 165h-4zM381 -33q-153 0 -243.5 83.5t-90.5 223.5q0 79 30.5 139t88 100t125 65.5t158.5 44.5q15 3 50.5 10t55 11.5t50.5 13t48.5 18t36 22.5t27 30.5t8.5 39.5q0 44 -35 69t-104 25q-90 0 -134.5 -37t-52.5 -114h-311
q4 78 35 143.5t91 117.5t158.5 81.5t227.5 29.5q222 0 332 -101t110 -335v-405q0 -44 7.5 -62t31.5 -18q15 0 27 2v-156q-99 -18 -180 -18q-94 0 -139 34t-58 103h-4q-59 -73 -148 -116.5t-198 -43.5zM518 193q94 0 150.5 68t56.5 163v88q-55 -20 -178 -49
q-88 -21 -126 -58.5t-38 -95.5q0 -116 135 -116z" />
    <glyph glyph-name="atilde" unicode="&#xe3;" horiz-adv-x="1155" 
d="M395 1143h-178q0 301 182 301q59 0 150.5 -41t128.5 -41q72 0 72 82h176q0 -301 -183 -301q-59 0 -150.5 40t-127.5 40q-70 0 -70 -80zM381 -33q-153 0 -243.5 83.5t-90.5 223.5q0 79 30.5 139t88 100t125 65.5t158.5 44.5q15 3 50.5 10t55 11.5t50.5 13t48.5 18t36 22.5
t27 30.5t8.5 39.5q0 44 -35 69t-104 25q-90 0 -134.5 -37t-52.5 -114h-311q4 78 35 143.5t91 117.5t158.5 81.5t227.5 29.5q222 0 332 -101t110 -335v-405q0 -44 7.5 -62t31.5 -18q15 0 27 2v-156q-99 -18 -180 -18q-94 0 -139 34t-58 103h-4q-59 -73 -148 -116.5
t-198 -43.5zM518 193q94 0 150.5 68t56.5 163v88q-55 -20 -178 -49q-88 -21 -126 -58.5t-38 -95.5q0 -116 135 -116z" />
    <glyph glyph-name="adieresis" unicode="&#xe4;" horiz-adv-x="1155" 
d="M535 1174h-328v290h328v-290zM961 1174h-328v290h328v-290zM381 -33q-153 0 -243.5 83.5t-90.5 223.5q0 79 30.5 139t88 100t125 65.5t158.5 44.5q15 3 50.5 10t55 11.5t50.5 13t48.5 18t36 22.5t27 30.5t8.5 39.5q0 44 -35 69t-104 25q-90 0 -134.5 -37t-52.5 -114h-311
q4 78 35 143.5t91 117.5t158.5 81.5t227.5 29.5q222 0 332 -101t110 -335v-405q0 -44 7.5 -62t31.5 -18q15 0 27 2v-156q-99 -18 -180 -18q-94 0 -139 34t-58 103h-4q-59 -73 -148 -116.5t-198 -43.5zM518 193q94 0 150.5 68t56.5 163v88q-55 -20 -178 -49
q-88 -21 -126 -58.5t-38 -95.5q0 -116 135 -116z" />
    <glyph glyph-name="aring" unicode="&#xe5;" horiz-adv-x="1155" 
d="M584 1104q-94 0 -160 60.5t-66 160.5q0 98 66 159.5t160 61.5q95 0 160 -61t65 -160q0 -100 -65 -160.5t-160 -60.5zM584 1231q42 0 65 24.5t23 69.5t-23 69.5t-65 24.5q-38 0 -62 -25t-24 -69t24 -69t62 -25zM381 -33q-153 0 -243.5 83.5t-90.5 223.5q0 79 30.5 139
t88 100t125 65.5t158.5 44.5q15 3 50.5 10t55 11.5t50.5 13t48.5 18t36 22.5t27 30.5t8.5 39.5q0 44 -35 69t-104 25q-90 0 -134.5 -37t-52.5 -114h-311q4 78 35 143.5t91 117.5t158.5 81.5t227.5 29.5q222 0 332 -101t110 -335v-405q0 -44 7.5 -62t31.5 -18q15 0 27 2v-156
q-99 -18 -180 -18q-94 0 -139 34t-58 103h-4q-59 -73 -148 -116.5t-198 -43.5zM518 193q94 0 150.5 68t56.5 163v88q-55 -20 -178 -49q-88 -21 -126 -58.5t-38 -95.5q0 -116 135 -116z" />
    <glyph glyph-name="ae" unicode="&#xe6;" horiz-adv-x="1841" 
d="M1794 485v-49h-754q0 -105 65 -165t161 -60q146 0 186 106h334q-46 -165 -180 -258.5t-349 -93.5q-268 0 -417 176q-83 -94 -182 -134t-226 -40q-190 0 -287.5 83.5t-97.5 223.5q0 79 30.5 139t88 100t125 65.5t158.5 44.5q15 3 50.5 10t55 11.5t50.5 13t48.5 18t36 22.5
t27 30.5t8.5 39.5q0 44 -35 69t-104 25q-90 0 -134.5 -37t-52.5 -114h-311q4 78 35.5 144t90.5 117.5t153.5 81t216.5 29.5q229 0 344 -98q138 98 329 98q265 0 401 -153t136 -445zM1042 639h422q0 100 -55 153.5t-152 53.5q-95 0 -152 -53.5t-63 -153.5zM715 410v59
q0 6 -1 20t-1 21q-64 -25 -166 -47q-164 -37 -164 -148q0 -122 131 -122q95 0 148 62.5t53 154.5z" />
    <glyph glyph-name="ccedilla" unicode="&#xe7;" horiz-adv-x="1124" 
d="M584 211q159 0 178 184h330q-11 -176 -129.5 -292.5t-313.5 -135.5l-53 -65v-4q89 10 154 -26.5t65 -111.5q0 -77 -77 -121.5t-191 -44.5q-131 0 -230 68l62 72q67 -31 129 -31q41 0 67.5 14.5t26.5 44.5q0 56 -70 56q-32 0 -75 -15l-49 70l92 98q-210 26 -332.5 176.5
t-122.5 376.5q0 247 146 403t387 156q221 0 357 -118t157 -308h-330q-21 181 -178 181q-100 0 -151.5 -82t-51.5 -232t51 -231.5t152 -81.5z" />
    <glyph glyph-name="egrave" unicode="&#xe8;" horiz-adv-x="1173" 
d="M596 1489l109 -311h-246l-191 311h328zM1126 485v-49h-753q0 -105 64.5 -165t160.5 -60q146 0 186 106h334q-46 -165 -179.5 -258.5t-348.5 -93.5q-251 0 -398 154.5t-147 404.5q0 116 36 217t103.5 177.5t172 120.5t233.5 44q265 0 400.5 -153t135.5 -445zM375 639h422
q0 100 -55 153.5t-152 53.5q-95 0 -152 -53.5t-63 -153.5z" />
    <glyph glyph-name="eacute" unicode="&#xe9;" horiz-adv-x="1173" 
d="M571 1485h369l-231 -311h-246zM1126 485v-49h-753q0 -105 64.5 -165t160.5 -60q146 0 186 106h334q-46 -165 -179.5 -258.5t-348.5 -93.5q-251 0 -398 154.5t-147 404.5q0 116 36 217t103.5 177.5t172 120.5t233.5 44q265 0 400.5 -153t135.5 -445zM375 639h422
q0 100 -55 153.5t-152 53.5q-95 0 -152 -53.5t-63 -153.5z" />
    <glyph glyph-name="ecircumflex" unicode="&#xea;" horiz-adv-x="1173" 
d="M588 1339h-4l-92 -165h-285l219 311h319l220 -311h-285zM1126 485v-49h-753q0 -105 64.5 -165t160.5 -60q146 0 186 106h334q-46 -165 -179.5 -258.5t-348.5 -93.5q-251 0 -398 154.5t-147 404.5q0 116 36 217t103.5 177.5t172 120.5t233.5 44q265 0 400.5 -153
t135.5 -445zM375 639h422q0 100 -55 153.5t-152 53.5q-95 0 -152 -53.5t-63 -153.5z" />
    <glyph glyph-name="edieresis" unicode="&#xeb;" horiz-adv-x="1173" 
d="M209 1464h328v-290h-328v290zM635 1464h328v-290h-328v290zM1126 485v-49h-753q0 -105 64.5 -165t160.5 -60q146 0 186 106h334q-46 -165 -179.5 -258.5t-348.5 -93.5q-251 0 -398 154.5t-147 404.5q0 116 36 217t103.5 177.5t172 120.5t233.5 44q265 0 400.5 -153
t135.5 -445zM375 639h422q0 100 -55 153.5t-152 53.5q-95 0 -152 -53.5t-63 -153.5z" />
    <glyph glyph-name="igrave" unicode="&#xec;" horiz-adv-x="507" 
d="M373 1178h-246l-190 311h327zM418 0h-328v1049h328v-1049z" />
    <glyph glyph-name="iacute" unicode="&#xed;" horiz-adv-x="507" 
d="M377 1174h-246l109 311h368zM418 0h-328v1049h328v-1049z" />
    <glyph glyph-name="icircumflex" unicode="&#xee;" horiz-adv-x="507" 
d="M160 1174h-285l219 311h320l219 -311h-285l-92 165h-4zM418 0h-328v1049h328v-1049z" />
    <glyph glyph-name="idieresis" unicode="&#xef;" horiz-adv-x="507" 
d="M205 1174h-328v290h328v-290zM631 1174h-328v290h328v-290zM418 0h-328v1049h328v-1049z" />
    <glyph glyph-name="eth" unicode="&#xf0;" horiz-adv-x="1214" 
d="M1061 1329l-143 -39q107 -118 174 -281t67 -362q0 -108 -18.5 -204.5t-61.5 -185t-107 -152t-161.5 -101t-218.5 -37.5q-259 0 -403 151.5t-144 407.5q0 128 38 234t102.5 175.5t149 107.5t179.5 38q161 0 256 -88q-37 120 -133 224l-266 -72l-33 119l190 51
q-119 88 -233 149h410q51 -25 108 -73l215 57zM592 229q102 0 160.5 76t58.5 221t-58.5 220t-160.5 75t-160.5 -75t-58.5 -220t58.5 -221t160.5 -76z" />
    <glyph glyph-name="ntilde" unicode="&#xf1;" horiz-adv-x="1189" 
d="M541 1223q-70 0 -70 -80h-178q0 301 182 301q59 0 150.5 -41t128.5 -41q71 0 71 82h176q0 -301 -182 -301q-59 0 -150.5 40t-127.5 40zM766 1081q155 0 247.5 -97.5t92.5 -274.5v-709h-328v604q0 115 -39.5 163t-124.5 48q-196 0 -196 -209v-606h-328v1049h328v-152h4
q105 184 344 184z" />
    <glyph glyph-name="ograve" unicode="&#xf2;" horiz-adv-x="1210" 
d="M725 1178h-246l-190 311h327zM602 -35q-257 0 -407 152.5t-150 404.5q0 251 151.5 406t411.5 155q257 0 407 -152.5t150 -402.5q0 -253 -151.5 -408t-411.5 -155zM606 211q109 0 168.5 80.5t59.5 232.5t-59.5 233t-168.5 81q-110 0 -169.5 -81t-59.5 -233t59 -232.5
t170 -80.5z" />
    <glyph glyph-name="oacute" unicode="&#xf3;" horiz-adv-x="1210" 
d="M729 1174h-246l109 311h369zM602 -35q-257 0 -407 152.5t-150 404.5q0 251 151.5 406t411.5 155q257 0 407 -152.5t150 -402.5q0 -253 -151.5 -408t-411.5 -155zM606 211q109 0 168.5 80.5t59.5 232.5t-59.5 233t-168.5 81q-110 0 -169.5 -81t-59.5 -233t59 -232.5
t170 -80.5z" />
    <glyph glyph-name="ocircumflex" unicode="&#xf4;" horiz-adv-x="1210" 
d="M512 1174h-285l219 311h320l219 -311h-285l-92 165h-4zM602 -35q-257 0 -407 152.5t-150 404.5q0 251 151.5 406t411.5 155q257 0 407 -152.5t150 -402.5q0 -253 -151.5 -408t-411.5 -155zM606 211q109 0 168.5 80.5t59.5 232.5t-59.5 233t-168.5 81q-110 0 -169.5 -81
t-59.5 -233t59 -232.5t170 -80.5z" />
    <glyph glyph-name="otilde" unicode="&#xf5;" horiz-adv-x="1210" 
d="M418 1143h-178q0 301 182 301q59 0 150 -41t128 -41q72 0 72 82h176q0 -301 -182 -301q-59 0 -151 40t-128 40q-69 0 -69 -80zM602 -35q-257 0 -407 152.5t-150 404.5q0 251 151.5 406t411.5 155q257 0 407 -152.5t150 -402.5q0 -253 -151.5 -408t-411.5 -155zM606 211
q109 0 168.5 80.5t59.5 232.5t-59.5 233t-168.5 81q-110 0 -169.5 -81t-59.5 -233t59 -232.5t170 -80.5z" />
    <glyph glyph-name="odieresis" unicode="&#xf6;" horiz-adv-x="1210" 
d="M557 1174h-328v290h328v-290zM983 1174h-328v290h328v-290zM602 -35q-257 0 -407 152.5t-150 404.5q0 251 151.5 406t411.5 155q257 0 407 -152.5t150 -402.5q0 -253 -151.5 -408t-411.5 -155zM606 211q109 0 168.5 80.5t59.5 232.5t-59.5 233t-168.5 81
q-110 0 -169.5 -81t-59.5 -233t59 -232.5t170 -80.5z" />
    <glyph glyph-name="divide" unicode="&#xf7;" horiz-adv-x="1175" 
d="M743 926h-311v311h311v-311zM1085 532h-995v283h995v-283zM743 109h-311v311h311v-311z" />
    <glyph glyph-name="oslash" unicode="&#xf8;" horiz-adv-x="1210" 
d="M1155 987l-100 -100q110 -144 110 -359q0 -253 -151.5 -408t-411.5 -155q-215 0 -358 109l-101 -101l-86 88l101 101q-113 144 -113 360q0 251 151.5 406t411.5 155q218 0 359 -110l100 100zM377 524q0 -77 14 -129l373 375q-56 68 -158 68q-110 0 -169.5 -81t-59.5 -233
zM606 211q109 0 168.5 80.5t59.5 232.5q0 67 -13 127l-375 -372q59 -68 160 -68z" />
    <glyph glyph-name="ugrave" unicode="&#xf9;" horiz-adv-x="1189" 
d="M596 1489l109 -311h-246l-191 311h328zM772 442v607h328v-1049h-328v152h-4q-106 -185 -344 -185q-155 0 -247.5 98t-92.5 275v709h328v-605q0 -115 39.5 -163t123.5 -48q197 0 197 209z" />
    <glyph glyph-name="uacute" unicode="&#xfa;" horiz-adv-x="1189" 
d="M571 1485h369l-231 -311h-246zM772 442v607h328v-1049h-328v152h-4q-106 -185 -344 -185q-155 0 -247.5 98t-92.5 275v709h328v-605q0 -115 39.5 -163t123.5 -48q197 0 197 209z" />
    <glyph glyph-name="ucircumflex" unicode="&#xfb;" horiz-adv-x="1189" 
d="M588 1339h-4l-92 -165h-285l219 311h319l220 -311h-285zM772 442v607h328v-1049h-328v152h-4q-106 -185 -344 -185q-155 0 -247.5 98t-92.5 275v709h328v-605q0 -115 39.5 -163t123.5 -48q197 0 197 209z" />
    <glyph glyph-name="udieresis" unicode="&#xfc;" horiz-adv-x="1189" 
d="M209 1464h328v-290h-328v290zM635 1464h328v-290h-328v290zM772 442v607h328v-1049h-328v152h-4q-106 -185 -344 -185q-155 0 -247.5 98t-92.5 275v709h328v-605q0 -115 39.5 -163t123.5 -48q197 0 197 209z" />
    <glyph glyph-name="yacute" unicode="&#xfd;" horiz-adv-x="1124" 
d="M676 1174h-246l109 311h368zM315 -362q-96 0 -196 20v250q52 -6 98 -6q21 0 34 0.5t34.5 3.5t36.5 10.5t31.5 19t28.5 31.5t19 47l-417 1035h338l245 -691h4l226 691h323l-383 -1051q-46 -126 -97.5 -201.5t-131.5 -117t-193 -41.5z" />
    <glyph glyph-name="thorn" unicode="&#xfe;" horiz-adv-x="1230" 
d="M725 1081q210 0 333.5 -150t123.5 -407t-123.5 -407t-333.5 -150q-103 0 -184 43t-119 94h-4v-466h-328v1826h328v-520h4q38 51 119 94t184 43zM635 213q101 0 156 79.5t55 231.5t-55 232t-156 80t-156 -80t-55 -232t55 -231.5t156 -79.5z" />
    <glyph glyph-name="ydieresis" unicode="&#xff;" horiz-adv-x="1124" 
d="M504 1174h-328v290h328v-290zM930 1174h-328v290h328v-290zM315 -362q-96 0 -196 20v250q52 -6 98 -6q21 0 34 0.5t34.5 3.5t36.5 10.5t31.5 19t28.5 31.5t19 47l-417 1035h338l245 -691h4l226 691h323l-383 -1051q-46 -126 -97.5 -201.5t-131.5 -117t-193 -41.5z" />
    <glyph glyph-name="Amacron" unicode="&#x100;" horiz-adv-x="1466" 
d="M1024 1589h-586v205h586v-205zM385 0h-395l557 1464h371l561 -1464h-404l-94 305h-502zM729 1126l-166 -540h336l-166 540h-4z" />
    <glyph glyph-name="amacron" unicode="&#x101;" horiz-adv-x="1155" 
d="M877 1174h-586v204h586v-204zM381 -33q-153 0 -243.5 83.5t-90.5 223.5q0 79 30.5 139t88 100t125 65.5t158.5 44.5q15 3 50.5 10t55 11.5t50.5 13t48.5 18t36 22.5t27 30.5t8.5 39.5q0 44 -35 69t-104 25q-90 0 -134.5 -37t-52.5 -114h-311q4 78 35 143.5t91 117.5
t158.5 81.5t227.5 29.5q222 0 332 -101t110 -335v-405q0 -44 7.5 -62t31.5 -18q15 0 27 2v-156q-99 -18 -180 -18q-94 0 -139 34t-58 103h-4q-59 -73 -148 -116.5t-198 -43.5zM518 193q94 0 150.5 68t56.5 163v88q-55 -20 -178 -49q-88 -21 -126 -58.5t-38 -95.5
q0 -116 135 -116z" />
    <glyph glyph-name="Abreve" unicode="&#x102;" horiz-adv-x="1466" 
d="M731 1573q-141 0 -232.5 85t-95.5 226h189q10 -110 139 -110t139 110h189q-6 -139 -96 -225t-232 -86zM385 0h-395l557 1464h371l561 -1464h-404l-94 305h-502zM729 1126l-166 -540h336l-166 540h-4z" />
    <glyph glyph-name="abreve" unicode="&#x103;" horiz-adv-x="1155" 
d="M584 1157q-141 0 -232.5 85t-95.5 226h188q5 -52 40 -81t100 -29q129 0 139 110h188q-6 -139 -95.5 -225t-231.5 -86zM381 -33q-153 0 -243.5 83.5t-90.5 223.5q0 79 30.5 139t88 100t125 65.5t158.5 44.5q15 3 50.5 10t55 11.5t50.5 13t48.5 18t36 22.5t27 30.5
t8.5 39.5q0 44 -35 69t-104 25q-90 0 -134.5 -37t-52.5 -114h-311q4 78 35 143.5t91 117.5t158.5 81.5t227.5 29.5q222 0 332 -101t110 -335v-405q0 -44 7.5 -62t31.5 -18q15 0 27 2v-156q-99 -18 -180 -18q-94 0 -139 34t-58 103h-4q-59 -73 -148 -116.5t-198 -43.5z
M518 193q94 0 150.5 68t56.5 163v88q-55 -20 -178 -49q-88 -21 -126 -58.5t-38 -95.5q0 -116 135 -116z" />
    <glyph glyph-name="Aogonek" unicode="&#x104;" horiz-adv-x="1466" 
d="M1257 -123q0 -45 64 -45q33 0 84 14v-184q-86 -22 -166 -22q-115 0 -174 44t-59 128q0 65 40.5 113t98.5 75h-70l-94 305h-502l-94 -305h-395l557 1464h371l561 -1464h-125q-37 -32 -51 -44.5t-30 -35.5t-16 -43zM729 1126l-166 -540h336l-166 540h-4z" />
    <glyph glyph-name="aogonek" unicode="&#x105;" horiz-adv-x="1155" 
d="M1075 -160q30 0 84 15v-185q-86 -22 -166 -22q-115 0 -174 44t-59 128q0 105 112 174q-65 9 -97.5 42t-43.5 91h-4q-59 -73 -148 -116.5t-198 -43.5q-153 0 -243.5 83.5t-90.5 223.5q0 79 30.5 139t88 100t125 65.5t158.5 44.5q15 3 50.5 10t55 11.5t50.5 13t48.5 18
t36 22.5t27 30.5t8.5 39.5q0 44 -35 69t-104 25q-90 0 -134.5 -37t-52.5 -114h-311q4 78 35 143.5t91 117.5t158.5 81.5t227.5 29.5q222 0 332 -101t110 -335v-405q0 -44 7.5 -62t31.5 -18q15 0 27 2v-154h2l-2 -2q-28 -24 -38.5 -33.5t-28 -27.5t-23.5 -32.5t-6 -29.5
q0 -45 63 -45zM725 424v88q-55 -20 -178 -49q-88 -21 -126 -58.5t-38 -95.5q0 -116 135 -116q94 0 150.5 68t56.5 163z" />
    <glyph glyph-name="Cacute" unicode="&#x106;" horiz-adv-x="1464" 
d="M905 1589h-246l109 312h369zM762 -33q-137 0 -251 37t-197 105t-140 162.5t-85 209t-28 246.5q0 169 46.5 310t135 243.5t224 159.5t305.5 57q147 0 264 -42t196.5 -119t126.5 -182t60 -234h-377q-11 64 -29 111t-50.5 86t-84 59t-122.5 20q-89 0 -152 -33t-98.5 -96.5
t-51.5 -145t-16 -188.5q0 -108 15.5 -190t51.5 -145.5t99 -96.5t152 -33q72 0 124 20t84 59.5t50 87.5t28 114h377q-26 -262 -195.5 -422t-461.5 -160z" />
    <glyph glyph-name="cacute" unicode="&#x107;" horiz-adv-x="1124" 
d="M700 1174h-245l108 311h369zM586 -35q-246 0 -393.5 155t-147.5 404q0 247 146 403t387 156q221 0 357 -118t157 -308h-330q-21 181 -178 181q-100 0 -151.5 -82t-51.5 -232t51 -231.5t152 -81.5q159 0 178 184h330q-12 -191 -148 -310.5t-358 -119.5z" />
    <glyph glyph-name="Ccircumflex" unicode="&#x108;" horiz-adv-x="1464" 
d="M688 1589h-285l220 312h319l219 -312h-284l-93 166h-4zM762 -33q-137 0 -251 37t-197 105t-140 162.5t-85 209t-28 246.5q0 169 46.5 310t135 243.5t224 159.5t305.5 57q147 0 264 -42t196.5 -119t126.5 -182t60 -234h-377q-11 64 -29 111t-50.5 86t-84 59t-122.5 20
q-89 0 -152 -33t-98.5 -96.5t-51.5 -145t-16 -188.5q0 -108 15.5 -190t51.5 -145.5t99 -96.5t152 -33q72 0 124 20t84 59.5t50 87.5t28 114h377q-26 -262 -195.5 -422t-461.5 -160z" />
    <glyph glyph-name="ccircumflex" unicode="&#x109;" horiz-adv-x="1124" 
d="M483 1174h-284l219 311h319l219 -311h-284l-92 165h-5zM586 -35q-246 0 -393.5 155t-147.5 404q0 247 146 403t387 156q221 0 357 -118t157 -308h-330q-21 181 -178 181q-100 0 -151.5 -82t-51.5 -232t51 -231.5t152 -81.5q159 0 178 184h330q-12 -191 -148 -310.5
t-358 -119.5z" />
    <glyph glyph-name="Cdotaccent" unicode="&#x10a;" horiz-adv-x="1464" 
d="M946 1589h-328v291h328v-291zM762 -33q-137 0 -251 37t-197 105t-140 162.5t-85 209t-28 246.5q0 169 46.5 310t135 243.5t224 159.5t305.5 57q147 0 264 -42t196.5 -119t126.5 -182t60 -234h-377q-11 64 -29 111t-50.5 86t-84 59t-122.5 20q-89 0 -152 -33t-98.5 -96.5
t-51.5 -145t-16 -188.5q0 -108 15.5 -190t51.5 -145.5t99 -96.5t152 -33q72 0 124 20t84 59.5t50 87.5t28 114h377q-26 -262 -195.5 -422t-461.5 -160z" />
    <glyph glyph-name="cdotaccent" unicode="&#x10b;" horiz-adv-x="1124" 
d="M741 1174h-327v290h327v-290zM586 -35q-246 0 -393.5 155t-147.5 404q0 247 146 403t387 156q221 0 357 -118t157 -308h-330q-21 181 -178 181q-100 0 -151.5 -82t-51.5 -232t51 -231.5t152 -81.5q159 0 178 184h330q-12 -191 -148 -310.5t-358 -119.5z" />
    <glyph glyph-name="Ccaron" unicode="&#x10c;" horiz-adv-x="1464" 
d="M942 1589h-319l-220 312h285l92 -166h4l93 166h284zM762 -33q-137 0 -251 37t-197 105t-140 162.5t-85 209t-28 246.5q0 169 46.5 310t135 243.5t224 159.5t305.5 57q147 0 264 -42t196.5 -119t126.5 -182t60 -234h-377q-11 64 -29 111t-50.5 86t-84 59t-122.5 20
q-89 0 -152 -33t-98.5 -96.5t-51.5 -145t-16 -188.5q0 -108 15.5 -190t51.5 -145.5t99 -96.5t152 -33q72 0 124 20t84 59.5t50 87.5t28 114h377q-26 -262 -195.5 -422t-461.5 -160z" />
    <glyph glyph-name="ccaron" unicode="&#x10d;" horiz-adv-x="1124" 
d="M737 1174h-319l-219 311h284l92 -166h5l92 166h284zM586 -35q-246 0 -393.5 155t-147.5 404q0 247 146 403t387 156q221 0 357 -118t157 -308h-330q-21 181 -178 181q-100 0 -151.5 -82t-51.5 -232t51 -231.5t152 -81.5q159 0 178 184h330q-12 -191 -148 -310.5
t-358 -119.5z" />
    <glyph glyph-name="Dcaron" unicode="&#x10e;" horiz-adv-x="1490" 
d="M831 1589h-319l-219 312h285l92 -166h4l92 166h285zM793 0h-670v1464h649q308 0 480.5 -191t172.5 -542q0 -353 -163 -542t-469 -189zM492 301h235q322 0 322 430q0 432 -322 432h-235v-862z" />
    <glyph glyph-name="dcaron" unicode="&#x10f;" horiz-adv-x="1402" 
d="M807 944h4v520h328v-1464h-328v104h-4q-38 -51 -119 -94t-184 -43q-210 0 -333.5 150t-123.5 407t123.5 407t333.5 150q103 0 184 -43t119 -94zM1200 1042l51 422h348l-174 -422h-225zM594 213q101 0 156 79.5t55 231.5t-55 232t-156 80t-156 -80t-55 -232t55 -231.5
t156 -79.5z" />
    <glyph glyph-name="Dcroat" unicode="&#x110;" horiz-adv-x="1513" 
d="M145 1464h650q308 0 480.5 -191t172.5 -542q0 -353 -163.5 -542t-469.5 -189h-670v666h-118v184h118v614zM514 301h236q321 0 321 430q0 432 -321 432h-236v-313h287v-184h-287v-365z" />
    <glyph glyph-name="dcroat" unicode="&#x111;" horiz-adv-x="1228" 
d="M1139 1362h110v-184h-110v-1178h-328v104h-4q-38 -51 -119 -94t-184 -43q-210 0 -333.5 150t-123.5 407t123.5 407t333.5 150q103 0 184 -43t119 -94h4v234h-274v184h274v102h328v-102zM594 213q101 0 156 79.5t55 231.5t-55 232t-156 80t-156 -80t-55 -232t55 -231.5
t156 -79.5z" />
    <glyph glyph-name="Emacron" unicode="&#x112;" horiz-adv-x="1314" 
d="M977 1589h-586v205h586v-205zM1245 0h-1122v1464h1110v-301h-741v-260h638v-301h-638v-301h753v-301z" />
    <glyph glyph-name="emacron" unicode="&#x113;" horiz-adv-x="1173" 
d="M293 1378h586v-204h-586v204zM1126 485v-49h-753q0 -105 64.5 -165t160.5 -60q146 0 186 106h334q-46 -165 -179.5 -258.5t-348.5 -93.5q-251 0 -398 154.5t-147 404.5q0 116 36 217t103.5 177.5t172 120.5t233.5 44q265 0 400.5 -153t135.5 -445zM375 639h422
q0 100 -55 153.5t-152 53.5q-95 0 -152 -53.5t-63 -153.5z" />
    <glyph glyph-name="Edotaccent" unicode="&#x116;" horiz-adv-x="1314" 
d="M848 1589h-328v291h328v-291zM1245 0h-1122v1464h1110v-301h-741v-260h638v-301h-638v-301h753v-301z" />
    <glyph glyph-name="edotaccent" unicode="&#x117;" horiz-adv-x="1173" 
d="M422 1464h328v-290h-328v290zM1126 485v-49h-753q0 -105 64.5 -165t160.5 -60q146 0 186 106h334q-46 -165 -179.5 -258.5t-348.5 -93.5q-251 0 -398 154.5t-147 404.5q0 116 36 217t103.5 177.5t172 120.5t233.5 44q265 0 400.5 -153t135.5 -445zM375 639h422
q0 100 -55 153.5t-152 53.5q-95 0 -152 -53.5t-63 -153.5z" />
    <glyph glyph-name="Eogonek" unicode="&#x118;" horiz-adv-x="1314" 
d="M1245 0h-51q-28 -24 -38.5 -33.5t-28 -27.5t-23.5 -32.5t-6 -29.5q0 -45 63 -45q33 0 84 14v-184q-86 -22 -166 -22q-115 0 -174 44t-59 128q0 65 40.5 113t98.5 75h-862v1464h1110v-301h-741v-260h638v-301h-638v-301h753v-301z" />
    <glyph glyph-name="eogonek" unicode="&#x119;" horiz-adv-x="1173" 
d="M1126 485v-49h-753q0 -105 64.5 -165t160.5 -60q146 0 186 106h334q-68 -249 -323 -325q-30 -26 -45 -40.5t-28 -35.5t-13 -39q0 -45 63 -45q33 0 84 14v-184q-86 -22 -166 -22q-115 0 -174 44t-59 128q0 91 86 155q-230 15 -364 168t-134 389q0 116 36 217t103.5 177.5
t172 120.5t233.5 44q265 0 400.5 -153t135.5 -445zM375 639h422q0 100 -55 153.5t-152 53.5q-95 0 -152 -53.5t-63 -153.5z" />
    <glyph glyph-name="Ecaron" unicode="&#x11a;" horiz-adv-x="1314" 
d="M844 1589h-320l-219 312h285l92 -166h4l92 166h285zM1245 0h-1122v1464h1110v-301h-741v-260h638v-301h-638v-301h753v-301z" />
    <glyph glyph-name="ecaron" unicode="&#x11b;" horiz-adv-x="1173" 
d="M965 1485l-220 -311h-319l-219 311h285l92 -166h4l92 166h285zM1126 485v-49h-753q0 -105 64.5 -165t160.5 -60q146 0 186 106h334q-46 -165 -179.5 -258.5t-348.5 -93.5q-251 0 -398 154.5t-147 404.5q0 116 36 217t103.5 177.5t172 120.5t233.5 44q265 0 400.5 -153
t135.5 -445zM375 639h422q0 100 -55 153.5t-152 53.5q-95 0 -152 -53.5t-63 -153.5z" />
    <glyph glyph-name="Gcircumflex" unicode="&#x11c;" horiz-adv-x="1538" 
d="M674 1589h-285l219 312h320l219 -312h-285l-92 166h-4zM725 -33q-153 0 -278.5 57.5t-210 159.5t-130 243t-45.5 306q0 222 80 393t242 271t387 100q146 0 266.5 -41t201.5 -113t130 -164.5t62 -199.5h-377q-12 44 -29 77.5t-48.5 67.5t-85.5 53t-126 19
q-326 0 -326 -463q0 -108 17.5 -190t56 -145.5t105.5 -96.5t161 -33q127 0 208.5 69t84.5 175h-278v266h659v-778h-264l-37 186h-4q-55 -104 -160.5 -161.5t-261.5 -57.5z" />
    <glyph glyph-name="gcircumflex" unicode="&#x11d;" horiz-adv-x="1196" 
d="M561 1339h-4l-92 -165h-285l219 311h320l219 -311h-285zM780 944v105h328v-924q0 -138 -36 -236t-106 -155t-163.5 -83t-218.5 -26q-117 0 -211.5 29t-155 78.5t-96.5 108t-51 124.5h331q36 -104 183 -104q109 0 152.5 61t43.5 203v61h-4q-40 -54 -112 -95.5t-175 -41.5
q-199 0 -319.5 143.5t-120.5 372.5t120.5 372.5t319.5 143.5q103 0 175 -41.5t112 -95.5h4zM580 295q194 0 194 270q0 131 -48 201t-146 70t-146.5 -70.5t-48.5 -200.5t48.5 -200t146.5 -70z" />
    <glyph glyph-name="Gbreve" unicode="&#x11e;" horiz-adv-x="1538" 
d="M768 1573q-141 0 -232.5 85t-95.5 226h189q10 -110 139 -110t139 110h189q-6 -139 -96 -225t-232 -86zM725 -33q-153 0 -278.5 57.5t-210 159.5t-130 243t-45.5 306q0 222 80 393t242 271t387 100q146 0 266.5 -41t201.5 -113t130 -164.5t62 -199.5h-377q-12 44 -29 77.5
t-48.5 67.5t-85.5 53t-126 19q-326 0 -326 -463q0 -108 17.5 -190t56 -145.5t105.5 -96.5t161 -33q127 0 208.5 69t84.5 175h-278v266h659v-778h-264l-37 186h-4q-55 -104 -160.5 -161.5t-261.5 -57.5z" />
    <glyph glyph-name="gbreve" unicode="&#x11f;" horiz-adv-x="1196" 
d="M559 1157q-141 0 -232.5 85t-95.5 226h189q10 -110 139 -110t139 110h189q-6 -139 -96 -225t-232 -86zM780 944v105h328v-924q0 -138 -36 -236t-106 -155t-163.5 -83t-218.5 -26q-117 0 -211.5 29t-155 78.5t-96.5 108t-51 124.5h331q36 -104 183 -104q109 0 152.5 61
t43.5 203v61h-4q-40 -54 -112 -95.5t-175 -41.5q-199 0 -319.5 143.5t-120.5 372.5t120.5 372.5t319.5 143.5q103 0 175 -41.5t112 -95.5h4zM580 295q194 0 194 270q0 131 -48 201t-146 70t-146.5 -70.5t-48.5 -200.5t48.5 -200t146.5 -70z" />
    <glyph glyph-name="Gdotaccent" unicode="&#x120;" horiz-adv-x="1538" 
d="M932 1589h-328v291h328v-291zM725 -33q-153 0 -278.5 57.5t-210 159.5t-130 243t-45.5 306q0 222 80 393t242 271t387 100q146 0 266.5 -41t201.5 -113t130 -164.5t62 -199.5h-377q-12 44 -29 77.5t-48.5 67.5t-85.5 53t-126 19q-326 0 -326 -463q0 -108 17.5 -190
t56 -145.5t105.5 -96.5t161 -33q127 0 208.5 69t84.5 175h-278v266h659v-778h-264l-37 186h-4q-55 -104 -160.5 -161.5t-261.5 -57.5z" />
    <glyph glyph-name="gdotaccent" unicode="&#x121;" horiz-adv-x="1196" 
d="M395 1464h328v-290h-328v290zM780 944v105h328v-924q0 -138 -36 -236t-106 -155t-163.5 -83t-218.5 -26q-117 0 -211.5 29t-155 78.5t-96.5 108t-51 124.5h331q36 -104 183 -104q109 0 152.5 61t43.5 203v61h-4q-40 -54 -112 -95.5t-175 -41.5q-199 0 -319.5 143.5
t-120.5 372.5t120.5 372.5t319.5 143.5q103 0 175 -41.5t112 -95.5h4zM580 295q194 0 194 270q0 131 -48 201t-146 70t-146.5 -70.5t-48.5 -200.5t48.5 -200t146.5 -70z" />
    <glyph glyph-name="uni0122" unicode="&#x122;" horiz-adv-x="1538" 
d="M793 512v266h659v-778h-264l-37 186h-4q-55 -104 -160.5 -161.5t-261.5 -57.5q-153 0 -278.5 57.5t-210 159.5t-130 243t-45.5 306q0 222 80 393t242 271t387 100q146 0 266.5 -41t201.5 -113t130 -164.5t62 -199.5h-377q-12 44 -29 77.5t-48.5 67.5t-85.5 53t-126 19
q-326 0 -326 -463q0 -108 17.5 -190t56 -145.5t105.5 -96.5t161 -33q127 0 208.5 69t84.5 175h-278zM758 -309h-148v209h312v-209q0 -93 -81.5 -154t-230.5 -76v97q148 17 148 133z" />
    <glyph glyph-name="uni0123" unicode="&#x123;" horiz-adv-x="1196" 
d="M567 1384h148v-210h-312v210q0 95 81.5 157t230.5 75v-96q-148 -17 -148 -136zM780 944v105h328v-924q0 -138 -36 -236t-106 -155t-163.5 -83t-218.5 -26q-117 0 -211.5 29t-155 78.5t-96.5 108t-51 124.5h331q36 -104 183 -104q109 0 152.5 61t43.5 203v61h-4
q-40 -54 -112 -95.5t-175 -41.5q-199 0 -319.5 143.5t-120.5 372.5t120.5 372.5t319.5 143.5q103 0 175 -41.5t112 -95.5h4zM580 295q194 0 194 270q0 131 -48 201t-146 70t-146.5 -70.5t-48.5 -200.5t48.5 -200t146.5 -70z" />
    <glyph glyph-name="Hcircumflex" unicode="&#x124;" horiz-adv-x="1484" 
d="M649 1589h-284l219 312h319l219 -312h-284l-93 166h-4zM492 0h-369v1464h369v-573h501v573h369v-1464h-369v590h-501v-590z" />
    <glyph glyph-name="hcircumflex" unicode="&#x125;" horiz-adv-x="1189" 
d="M256 1683h-4l-92 -165h-285l219 311h320l219 -311h-285zM766 1081q155 0 247.5 -97.5t92.5 -274.5v-709h-328v604q0 115 -39.5 163t-124.5 48q-196 0 -196 -209v-606h-328v1464h328v-567h4q105 184 344 184z" />
    <glyph glyph-name="Hbar" unicode="&#x126;" horiz-adv-x="1523" 
d="M1382 1262h109v-185h-109v-1077h-368v590h-502v-590h-369v1077h-112v185h112v202h369v-202h502v202h368v-202zM512 891h502v186h-502v-186z" />
    <glyph glyph-name="hbar" unicode="&#x127;" horiz-adv-x="1189" 
d="M766 1081q155 0 247.5 -97.5t92.5 -274.5v-709h-328v604q0 115 -39.5 163t-124.5 48q-196 0 -196 -209v-606h-328v1178h-125v184h125v102h328v-102h317v-184h-317v-281h4q105 184 344 184z" />
    <glyph glyph-name="Itilde" unicode="&#x128;" horiz-adv-x="614" 
d="M119 1559h-178q0 301 182 301q59 0 150 -41t128 -41q72 0 72 82h176q0 -301 -182 -301q-59 0 -151 39.5t-128 39.5q-69 0 -69 -79zM492 0h-369v1464h369v-1464z" />
    <glyph glyph-name="itilde" unicode="&#x129;" horiz-adv-x="507" 
d="M66 1143h-179q0 301 183 301q59 0 150 -41t128 -41q72 0 72 82h176q0 -301 -182 -301q-59 0 -151 40t-128 40q-69 0 -69 -80zM418 0h-328v1049h328v-1049z" />
    <glyph glyph-name="Imacron" unicode="&#x12a;" horiz-adv-x="614" 
d="M600 1589h-586v205h586v-205zM492 0h-369v1464h369v-1464z" />
    <glyph glyph-name="imacron" unicode="&#x12b;" horiz-adv-x="507" 
d="M547 1174h-586v204h586v-204zM418 0h-328v1049h328v-1049z" />
    <glyph glyph-name="Iogonek" unicode="&#x12e;" horiz-adv-x="614" 
d="M492 0h-54q-28 -24 -38.5 -33.5t-28 -27.5t-23.5 -32.5t-6 -29.5q0 -45 64 -45q32 0 83 14v-184q-86 -22 -165 -22q-115 0 -174.5 44t-59.5 128q0 65 40.5 113t98.5 75h-106v1464h369v-1464z" />
    <glyph glyph-name="iogonek" unicode="&#x12f;" horiz-adv-x="507" 
d="M90 1174v290h328v-290h-328zM158 0h-68v1049h328v-1049h-51q-37 -32 -51 -44.5t-30 -35.5t-16 -43q0 -45 64 -45q33 0 84 14v-184q-86 -22 -166 -22q-115 0 -174.5 44t-59.5 128q0 65 41 113t99 75z" />
    <glyph glyph-name="Idotaccent" unicode="&#x130;" horiz-adv-x="614" 
d="M492 1589h-367v291h367v-291zM492 0h-369v1464h369v-1464z" />
    <glyph glyph-name="dotlessi" unicode="&#x131;" horiz-adv-x="507" 
d="M418 0h-328v1049h328v-1049z" />
    <glyph glyph-name="Jcircumflex" unicode="&#x134;" horiz-adv-x="1148" 
d="M758 1589h-285l219 312h320l219 -312h-285l-92 166h-4zM535 -33q-117 0 -206 27.5t-144.5 73.5t-90 114t-48 141.5t-13.5 163.5v123h327v-123q0 -111 34 -165t120 -54t120 54t34 165v977h368v-977q0 -90 -13.5 -163.5t-48 -141.5t-89.5 -114t-144 -73.5t-206 -27.5z" />
    <glyph glyph-name="jcircumflex" unicode="&#x135;" horiz-adv-x="507" 
d="M160 1174h-285l219 311h320l219 -311h-285l-92 165h-4zM90 -375q-83 0 -182 21v250q58 -7 76 -7q55 0 80.5 23.5t25.5 101.5v1035h328v-1018q0 -200 -77 -303t-251 -103z" />
    <glyph glyph-name="uni0136" unicode="&#x136;" horiz-adv-x="1413" 
d="M1411 1464l-551 -641l592 -823h-430l-379 571l-151 -176v-395h-369v1464h369v-624l524 624h395zM739 -309h-147v209h311v-209q0 -93 -81 -154t-230 -76v97q147 17 147 133z" />
    <glyph glyph-name="uni0137" unicode="&#x137;" horiz-adv-x="1118" 
d="M1116 1049l-371 -394l414 -655h-379l-248 432l-114 -121v-311h-328v1464h328v-805l350 390h348zM616 -309h-147v209h311v-209q0 -93 -81 -154t-230 -76v97q147 17 147 133z" />
    <glyph glyph-name="kgreenlandic" unicode="&#x138;" horiz-adv-x="1124" 
d="M1159 0h-379l-245 430l-117 -121v-309h-328v1049h328v-394l368 394h349l-387 -400z" />
    <glyph glyph-name="Lacute" unicode="&#x139;" horiz-adv-x="1173" 
d="M436 1589h-246l109 312h369zM1143 0h-1020v1464h369v-1163h651v-301z" />
    <glyph glyph-name="lacute" unicode="&#x13a;" horiz-adv-x="507" 
d="M377 1518h-246l109 311h368zM418 0h-328v1464h328v-1464z" />
    <glyph glyph-name="uni013B" unicode="&#x13b;" horiz-adv-x="1173" 
d="M492 1464v-1163h651v-301h-1020v1464h369zM625 -309h-148v209h311v-209q0 -93 -81 -154t-230 -76v97q148 17 148 133z" />
    <glyph glyph-name="uni013C" unicode="&#x13c;" horiz-adv-x="507" 
d="M90 0v1464h328v-1464h-328zM246 -309h-148v209h312v-209q0 -93 -81.5 -154t-230.5 -76v97q148 17 148 133z" />
    <glyph glyph-name="Lcaron" unicode="&#x13d;" horiz-adv-x="1173" 
d="M1143 0h-1020v1464h369v-1163h651v-301zM915 1042h-225l51 422h349z" />
    <glyph glyph-name="lcaron" unicode="&#x13e;" horiz-adv-x="681" 
d="M705 1063h-226l51 422h349zM418 0h-328v1464h328v-1464z" />
    <glyph glyph-name="Lslash" unicode="&#x141;" horiz-adv-x="1267" 
d="M586 745v-444h651v-301h-1020v473l-166 -123v240l166 123v751h369v-479l325 240v-240z" />
    <glyph glyph-name="lslash" unicode="&#x142;" horiz-adv-x="649" 
d="M492 1022l120 90v-240l-120 -90v-782h-328v543l-121 -90v239l121 90v682h328v-442z" />
    <glyph glyph-name="Nacute" unicode="&#x143;" horiz-adv-x="1499" 
d="M872 1589h-245l108 312h369zM492 0h-369v1464h369l512 -870h4v870h368v-1464h-368l-512 870h-4v-870z" />
    <glyph glyph-name="nacute" unicode="&#x144;" horiz-adv-x="1189" 
d="M645 1485h369l-232 -311h-245zM766 1081q155 0 247.5 -97.5t92.5 -274.5v-709h-328v604q0 115 -39.5 163t-124.5 48q-196 0 -196 -209v-606h-328v1049h328v-152h4q105 184 344 184z" />
    <glyph glyph-name="uni0145" unicode="&#x145;" horiz-adv-x="1499" 
d="M1008 594v870h368v-1464h-368l-512 870h-4v-870h-369v1464h369l512 -870h4zM741 -309h-147v209h311v-209q0 -93 -81 -154t-230 -76v97q147 17 147 133z" />
    <glyph glyph-name="uni0146" unicode="&#x146;" horiz-adv-x="1189" 
d="M766 1081q155 0 247.5 -97.5t92.5 -274.5v-709h-328v604q0 115 -39.5 163t-124.5 48q-196 0 -196 -209v-606h-328v1049h328v-152h4q105 184 344 184zM590 -309h-148v209h312v-209q0 -93 -81.5 -154t-230.5 -76v97q148 17 148 133z" />
    <glyph glyph-name="Ncaron" unicode="&#x147;" horiz-adv-x="1499" 
d="M909 1589h-319l-219 312h284l93 -166h4l92 166h284zM492 0h-369v1464h369l512 -870h4v870h368v-1464h-368l-512 870h-4v-870z" />
    <glyph glyph-name="ncaron" unicode="&#x148;" horiz-adv-x="1189" 
d="M1038 1485l-219 -311h-319l-219 311h284l92 -166h5l92 166h284zM766 1081q155 0 247.5 -97.5t92.5 -274.5v-709h-328v604q0 115 -39.5 163t-124.5 48q-196 0 -196 -209v-606h-328v1049h328v-152h4q105 184 344 184z" />
    <glyph glyph-name="Eng" unicode="&#x14a;" horiz-adv-x="1499" 
d="M969 -362q-107 0 -201 20v240q81 0 128 10.5t70 31t42 60.5l-512 870h-4v-870h-369v1464h369l512 -870h4v870h368v-1370q0 -456 -407 -456z" />
    <glyph glyph-name="eng" unicode="&#x14b;" horiz-adv-x="1189" 
d="M766 1081q155 0 247.5 -97.5t92.5 -274.5v-734q0 -187 -67 -274.5t-240 -87.5q-95 0 -203 22v246h48t38.5 1.5t32.5 4.5t23.5 9t19 14t11 21t8 29.5t1.5 39.5v604q0 115 -39.5 163t-124.5 48q-196 0 -196 -209v-606h-328v1049h328v-152h4q105 184 344 184z" />
    <glyph glyph-name="Omacron" unicode="&#x14c;" horiz-adv-x="1572" 
d="M1079 1589h-585v205h585v-205zM786 -33q-171 0 -309 57.5t-228.5 160t-139 242.5t-48.5 306q0 222 83 393t249 271t393 100q225 0 391 -99.5t250 -271.5t84 -393q0 -166 -49 -306.5t-140 -242.5t-228.5 -159.5t-307.5 -57.5zM786 268q97 0 166.5 36t108.5 101.5t56.5 146
t17.5 181.5q0 100 -17.5 180t-56.5 145.5t-108.5 101.5t-166.5 36q-348 0 -348 -463q0 -465 348 -465z" />
    <glyph glyph-name="omacron" unicode="&#x14d;" horiz-adv-x="1210" 
d="M899 1174h-586v204h586v-204zM602 -35q-257 0 -407 152.5t-150 404.5q0 251 151.5 406t411.5 155q257 0 407 -152.5t150 -402.5q0 -253 -151.5 -408t-411.5 -155zM606 211q109 0 168.5 80.5t59.5 232.5t-59.5 233t-168.5 81q-110 0 -169.5 -81t-59.5 -233t59 -232.5
t170 -80.5z" />
    <glyph glyph-name="Ohungarumlaut" unicode="&#x150;" horiz-adv-x="1572" 
d="M715 1589h-236l125 312h318zM1075 1589h-235l166 312h317zM786 -33q-171 0 -309 57.5t-228.5 160t-139 242.5t-48.5 306q0 222 83 393t249 271t393 100q225 0 391 -99.5t250 -271.5t84 -393q0 -166 -49 -306.5t-140 -242.5t-228.5 -159.5t-307.5 -57.5zM786 268
q97 0 166.5 36t108.5 101.5t56.5 146t17.5 181.5q0 100 -17.5 180t-56.5 145.5t-108.5 101.5t-166.5 36q-348 0 -348 -463q0 -465 348 -465z" />
    <glyph glyph-name="ohungarumlaut" unicode="&#x151;" horiz-adv-x="1210" 
d="M535 1174h-236l125 311h317zM895 1174h-236l166 311h318zM602 -35q-257 0 -407 152.5t-150 404.5q0 251 151.5 406t411.5 155q257 0 407 -152.5t150 -402.5q0 -253 -151.5 -408t-411.5 -155zM606 211q109 0 168.5 80.5t59.5 232.5t-59.5 233t-168.5 81q-110 0 -169.5 -81
t-59.5 -233t59 -232.5t170 -80.5z" />
    <glyph glyph-name="OE" unicode="&#x152;" horiz-adv-x="2338" 
d="M1516 602v-301h753v-301h-1122v164q-158 -197 -420 -197q-149 0 -273.5 57.5t-210 159.5t-133 243t-47.5 306q0 219 81 392.5t233 272.5t350 99q262 0 420 -197v164h1110v-301h-741v-260h638v-301h-638zM788 268q109 0 191.5 63t124 168t41.5 234q0 128 -41.5 232.5
t-124 167.5t-191.5 63q-348 0 -348 -463q0 -465 348 -465z" />
    <glyph glyph-name="oe" unicode="&#x153;" horiz-adv-x="1964" 
d="M1917 485v-49h-754q0 -105 65 -165t161 -60q146 0 186 106h334q-46 -165 -180 -258.5t-349 -93.5q-238 0 -383 139q-152 -139 -395 -139q-257 0 -407 152.5t-150 404.5q0 251 151.5 406t411.5 155q241 0 393 -139q145 139 379 139q265 0 401 -153t136 -445zM1165 639h422
q0 100 -55 153.5t-152 53.5q-95 0 -152 -53.5t-63 -153.5zM606 211q109 0 168.5 80.5t59.5 232.5t-59.5 233t-168.5 81q-110 0 -169.5 -81t-59.5 -233t59 -232.5t170 -80.5z" />
    <glyph glyph-name="Racute" unicode="&#x154;" horiz-adv-x="1409" 
d="M801 1589h-246l109 312h368zM492 0h-369v1464h690q246 0 384 -109.5t138 -307.5q0 -150 -78.5 -242.5t-218.5 -124.5v-4q75 -13 128.5 -54.5t80.5 -98.5t43 -123.5t21.5 -131t9 -118.5t11.5 -89.5t24 -40.5v-20h-383q-16 14 -22 59t-5.5 100.5t-8.5 118t-27.5 114
t-66.5 85t-122 33.5h-229v-510zM492 811h249q226 0 226 176t-226 176h-249v-352z" />
    <glyph glyph-name="racute" unicode="&#x155;" horiz-adv-x="788" 
d="M416 1485h368l-231 -311h-246zM418 877h4q39 85 105 132.5t151 47.5q53 0 90 -8v-287q-40 6 -68 6q-118 0 -200 -73.5t-82 -207.5v-487h-328v1049h328v-172z" />
    <glyph glyph-name="uni0156" unicode="&#x156;" horiz-adv-x="1409" 
d="M1038 680v-4q75 -13 128.5 -54.5t80.5 -98.5t43 -123.5t21.5 -131t9 -118.5t11.5 -89.5t24 -40.5v-20h-383q-16 14 -22 59t-5.5 100.5t-8.5 118t-27.5 114t-66.5 85t-122 33.5h-229v-510h-369v1464h690q246 0 384 -109.5t138 -307.5q0 -150 -78.5 -242.5t-218.5 -124.5z
M492 811h249q226 0 226 176t-226 176h-249v-352zM731 -309h-147v209h311v-209q0 -93 -81 -154t-230 -76v97q147 17 147 133z" />
    <glyph glyph-name="uni0157" unicode="&#x157;" horiz-adv-x="788" 
d="M678 1057q53 0 90 -8v-287q-40 6 -68 6q-118 0 -200 -73.5t-82 -207.5v-487h-328v1049h328v-172h4q39 85 105 132.5t151 47.5zM246 -309h-148v209h312v-209q0 -93 -81.5 -154t-230.5 -76v97q148 17 148 133z" />
    <glyph glyph-name="Rcaron" unicode="&#x158;" horiz-adv-x="1409" 
d="M838 1589h-320l-219 312h285l92 -166h4l92 166h285zM492 0h-369v1464h690q246 0 384 -109.5t138 -307.5q0 -150 -78.5 -242.5t-218.5 -124.5v-4q75 -13 128.5 -54.5t80.5 -98.5t43 -123.5t21.5 -131t9 -118.5t11.5 -89.5t24 -40.5v-20h-383q-16 14 -22 59t-5.5 100.5
t-8.5 118t-27.5 114t-66.5 85t-122 33.5h-229v-510zM492 811h249q226 0 226 176t-226 176h-249v-352z" />
    <glyph glyph-name="rcaron" unicode="&#x159;" horiz-adv-x="788" 
d="M809 1485l-219 -311h-320l-219 311h285l92 -166h4l92 166h285zM418 877h4q39 85 105 132.5t151 47.5q53 0 90 -8v-287q-40 6 -68 6q-118 0 -200 -73.5t-82 -207.5v-487h-328v1049h328v-172z" />
    <glyph glyph-name="Sacute" unicode="&#x15a;" horiz-adv-x="1345" 
d="M793 1589h-246l108 312h369zM713 -33q-193 0 -344 62t-239.5 183.5t-88.5 285.5h373q0 -121 80.5 -177.5t214.5 -56.5q100 0 153 36t53 95q0 28 -9 51.5t-30.5 42t-44.5 32.5t-62.5 28.5t-72 25t-85.5 26.5q-29 8 -44 13q-87 27 -149 51t-129 62t-108 81t-68 106t-27 139
q0 93 28.5 168t79.5 126t122.5 85t154.5 49.5t180 15.5q172 0 310 -56.5t222 -166t89 -254.5h-373q-12 85 -77 132.5t-171 47.5q-87 0 -137.5 -30t-50.5 -91q0 -69 57.5 -105t210.5 -81q213 -63 297 -102q189 -86 241 -226q23 -61 23 -135q0 -213 -153.5 -338t-425.5 -125z
" />
    <glyph glyph-name="sacute" unicode="&#x15b;" horiz-adv-x="1064" 
d="M653 1174h-245l108 311h369zM555 -33q-133 0 -234 30t-160.5 84t-90 120.5t-33.5 146.5h307q15 -155 205 -155q139 0 139 90q0 15 -3.5 28t-12 23.5t-16.5 18.5t-25 15.5t-29.5 12t-36.5 11t-39 10t-45.5 10t-48.5 10.5q-62 15 -110.5 30.5t-100.5 43t-86 61t-56 83.5
t-22 112q0 150 120.5 239.5t338.5 89.5q121 0 214 -29t147.5 -79.5t83 -112t32.5 -133.5h-307q-8 65 -46.5 97t-117.5 32q-129 0 -129 -84q0 -42 32 -58.5t129 -38.5q37 -8 58 -13q52 -12 88.5 -22t83 -27t78 -34.5t65 -44.5t53 -58.5t32 -74.5t12.5 -94q0 -164 -121 -252
t-348 -88z" />
    <glyph glyph-name="Scircumflex" unicode="&#x15c;" horiz-adv-x="1345" 
d="M575 1589h-284l219 312h319l220 -312h-285l-92 166h-4zM713 -33q-193 0 -344 62t-239.5 183.5t-88.5 285.5h373q0 -121 80.5 -177.5t214.5 -56.5q100 0 153 36t53 95q0 28 -9 51.5t-30.5 42t-44.5 32.5t-62.5 28.5t-72 25t-85.5 26.5q-29 8 -44 13q-87 27 -149 51
t-129 62t-108 81t-68 106t-27 139q0 93 28.5 168t79.5 126t122.5 85t154.5 49.5t180 15.5q172 0 310 -56.5t222 -166t89 -254.5h-373q-12 85 -77 132.5t-171 47.5q-87 0 -137.5 -30t-50.5 -91q0 -69 57.5 -105t210.5 -81q213 -63 297 -102q189 -86 241 -226q23 -61 23 -135
q0 -213 -153.5 -338t-425.5 -125z" />
    <glyph glyph-name="scircumflex" unicode="&#x15d;" horiz-adv-x="1064" 
d="M436 1174h-284l219 311h319l219 -311h-284l-93 165h-4zM555 -33q-133 0 -234 30t-160.5 84t-90 120.5t-33.5 146.5h307q15 -155 205 -155q139 0 139 90q0 15 -3.5 28t-12 23.5t-16.5 18.5t-25 15.5t-29.5 12t-36.5 11t-39 10t-45.5 10t-48.5 10.5q-62 15 -110.5 30.5
t-100.5 43t-86 61t-56 83.5t-22 112q0 150 120.5 239.5t338.5 89.5q121 0 214 -29t147.5 -79.5t83 -112t32.5 -133.5h-307q-8 65 -46.5 97t-117.5 32q-129 0 -129 -84q0 -42 32 -58.5t129 -38.5q37 -8 58 -13q52 -12 88.5 -22t83 -27t78 -34.5t65 -44.5t53 -58.5t32 -74.5
t12.5 -94q0 -164 -121 -252t-348 -88z" />
    <glyph glyph-name="Scedilla" unicode="&#x15e;" horiz-adv-x="1345" 
d="M774 -31l-55 -67v-4q89 10 154 -26.5t65 -111.5q0 -77 -77 -121.5t-191 -44.5q-131 0 -230 68l62 72q67 -31 129 -31q41 0 67.5 14.5t26.5 44.5q0 56 -70 56q-32 0 -75 -15l-50 70l93 98q-259 21 -420.5 161t-161.5 366h373q0 -121 80.5 -177.5t214.5 -56.5q100 0 153 36
t53 95q0 28 -9 51.5t-30.5 42t-44.5 32.5t-62.5 28.5t-72 25t-85.5 26.5q-29 8 -44 13q-87 27 -149 51t-129 62t-108 81t-68 106t-27 139q0 93 28.5 168t79.5 126t122.5 85t154.5 49.5t180 15.5q172 0 310 -56.5t222 -166t89 -254.5h-373q-12 85 -77 132.5t-171 47.5
q-87 0 -137.5 -30t-50.5 -91q0 -69 57.5 -105t210.5 -81q213 -63 297 -102q189 -86 241 -226q23 -61 23 -135q0 -200 -137 -324t-381 -137z" />
    <glyph glyph-name="scedilla" unicode="&#x15f;" horiz-adv-x="1064" 
d="M629 -31l-56 -67v-4q89 10 154.5 -26.5t65.5 -111.5q0 -77 -77.5 -121.5t-191.5 -44.5q-130 0 -229 68l61 72q67 -31 129 -31q41 0 68 14.5t27 44.5q0 56 -70 56q-33 0 -76 -15l-49 70l92 96q-219 18 -326.5 121.5t-113.5 257.5h307q15 -155 205 -155q139 0 139 90
q0 15 -3.5 28t-12 23.5t-16.5 18.5t-25 15.5t-29.5 12t-36.5 11t-39 10t-45.5 10t-48.5 10.5q-62 15 -110.5 30.5t-100.5 43t-86 61t-56 83.5t-22 112q0 150 120.5 239.5t338.5 89.5q121 0 214 -29t147.5 -79.5t83 -112t32.5 -133.5h-307q-8 65 -46.5 97t-117.5 32
q-129 0 -129 -84q0 -42 32 -58.5t129 -38.5q37 -8 58 -13q52 -12 88.5 -22t83 -27t78 -34.5t65 -44.5t53 -58.5t32 -74.5t12.5 -94q0 -151 -101.5 -238t-293.5 -100z" />
    <glyph glyph-name="Scaron" unicode="&#x160;" horiz-adv-x="1345" 
d="M829 1589h-319l-219 312h284l93 -166h4l92 166h285zM713 -33q-193 0 -344 62t-239.5 183.5t-88.5 285.5h373q0 -121 80.5 -177.5t214.5 -56.5q100 0 153 36t53 95q0 28 -9 51.5t-30.5 42t-44.5 32.5t-62.5 28.5t-72 25t-85.5 26.5q-29 8 -44 13q-87 27 -149 51t-129 62
t-108 81t-68 106t-27 139q0 93 28.5 168t79.5 126t122.5 85t154.5 49.5t180 15.5q172 0 310 -56.5t222 -166t89 -254.5h-373q-12 85 -77 132.5t-171 47.5q-87 0 -137.5 -30t-50.5 -91q0 -69 57.5 -105t210.5 -81q213 -63 297 -102q189 -86 241 -226q23 -61 23 -135
q0 -213 -153.5 -338t-425.5 -125z" />
    <glyph glyph-name="scaron" unicode="&#x161;" horiz-adv-x="1064" 
d="M690 1174h-319l-219 311h284l92 -166h4l93 166h284zM555 -33q-133 0 -234 30t-160.5 84t-90 120.5t-33.5 146.5h307q15 -155 205 -155q139 0 139 90q0 15 -3.5 28t-12 23.5t-16.5 18.5t-25 15.5t-29.5 12t-36.5 11t-39 10t-45.5 10t-48.5 10.5q-62 15 -110.5 30.5
t-100.5 43t-86 61t-56 83.5t-22 112q0 150 120.5 239.5t338.5 89.5q121 0 214 -29t147.5 -79.5t83 -112t32.5 -133.5h-307q-8 65 -46.5 97t-117.5 32q-129 0 -129 -84q0 -42 32 -58.5t129 -38.5q37 -8 58 -13q52 -12 88.5 -22t83 -27t78 -34.5t65 -44.5t53 -58.5t32 -74.5
t12.5 -94q0 -164 -121 -252t-348 -88z" />
    <glyph glyph-name="uni0162" unicode="&#x162;" horiz-adv-x="1280" 
d="M825 0h-96l-80 -98v-4q89 10 154 -26.5t65 -111.5q0 -77 -77 -121.5t-191 -44.5q-130 0 -229 68l61 72q67 -31 129 -31q41 0 67.5 14.5t26.5 44.5q0 56 -69 56q-33 0 -76 -15l-49 70l121 127h-125v1163h-426v301h1218v-301h-424v-1163z" />
    <glyph glyph-name="uni0163" unicode="&#x163;" horiz-adv-x="747" 
d="M481 -78v-4q89 10 154 -26t65 -111q0 -77 -77 -121.5t-191 -44.5q-130 0 -229 68l61 71q65 -30 129 -30q41 0 67.5 14.5t26.5 44.5q0 55 -69 55q-36 0 -76 -14l-49 70l92 98q-109 25 -160 109t-51 239v463h-145v246h145v292h328v-292h182v-246h-182v-455
q0 -78 25.5 -100.5t80.5 -22.5q36 0 88 8v-231q-79 -19 -168 -22z" />
    <glyph glyph-name="Tcaron" unicode="&#x164;" horiz-adv-x="1280" 
d="M801 1589h-320l-219 312h285l92 -166h4l92 166h285zM825 0h-368v1163h-426v301h1218v-301h-424v-1163z" />
    <glyph glyph-name="tcaron" unicode="&#x165;" horiz-adv-x="747" 
d="M575 1126l43 338h297l-147 -338h-193zM502 803v-455q0 -78 25.5 -100.5t80.5 -22.5q36 0 88 8v-231q-96 -22 -194 -22q-173 0 -250.5 84.5t-77.5 275.5v463h-145v246h145v292h328v-292h182v-246h-182z" />
    <glyph glyph-name="Tbar" unicode="&#x166;" horiz-adv-x="1280" 
d="M1249 1464v-301h-424v-313h287v-184h-287v-666h-368v666h-262v184h262v313h-426v301h1218z" />
    <glyph glyph-name="tbar" unicode="&#x167;" horiz-adv-x="757" 
d="M616 225q37 0 89 8v-231q-96 -22 -195 -22q-173 0 -250.5 84.5t-77.5 275.5v139h-145v185h145v139h-145v246h145v292h328v-292h182v-246h-182v-139h182v-185h-182v-131q0 -78 25.5 -100.5t80.5 -22.5z" />
    <glyph glyph-name="Utilde" unicode="&#x168;" horiz-adv-x="1445" 
d="M535 1559h-179q0 301 183 301q59 0 150 -41t128 -41q72 0 72 82h176q0 -301 -182 -301q-59 0 -151 39.5t-128 39.5q-69 0 -69 -79zM723 -33q-323 0 -467.5 139.5t-144.5 421.5v936h368v-936q0 -139 59.5 -199.5t184.5 -60.5t184.5 60.5t59.5 199.5v936h368v-936
q0 -282 -144.5 -421.5t-467.5 -139.5z" />
    <glyph glyph-name="utilde" unicode="&#x169;" horiz-adv-x="1189" 
d="M467 1223q-70 0 -70 -80h-178q0 301 182 301q59 0 150.5 -41t128.5 -41q72 0 72 82h176q0 -301 -183 -301q-59 0 -150.5 40t-127.5 40zM772 442v607h328v-1049h-328v152h-4q-106 -185 -344 -185q-155 0 -247.5 98t-92.5 275v709h328v-605q0 -115 39.5 -163t123.5 -48
q197 0 197 209z" />
    <glyph glyph-name="Umacron" unicode="&#x16a;" horiz-adv-x="1445" 
d="M1016 1589h-586v205h586v-205zM723 -33q-323 0 -467.5 139.5t-144.5 421.5v936h368v-936q0 -139 59.5 -199.5t184.5 -60.5t184.5 60.5t59.5 199.5v936h368v-936q0 -282 -144.5 -421.5t-467.5 -139.5z" />
    <glyph glyph-name="umacron" unicode="&#x16b;" horiz-adv-x="1189" 
d="M293 1378h586v-204h-586v204zM772 442v607h328v-1049h-328v152h-4q-106 -185 -344 -185q-155 0 -247.5 98t-92.5 275v709h328v-605q0 -115 39.5 -163t123.5 -48q197 0 197 209z" />
    <glyph glyph-name="Ubreve" unicode="&#x16c;" horiz-adv-x="1445" 
d="M723 1573q-141 0 -232.5 85t-95.5 226h189q10 -110 139 -110t139 110h189q-6 -139 -96 -225t-232 -86zM723 -33q-323 0 -467.5 139.5t-144.5 421.5v936h368v-936q0 -139 59.5 -199.5t184.5 -60.5t184.5 60.5t59.5 199.5v936h368v-936q0 -282 -144.5 -421.5t-467.5 -139.5
z" />
    <glyph glyph-name="ubreve" unicode="&#x16d;" horiz-adv-x="1189" 
d="M586 1157q-141 0 -232.5 85t-95.5 226h188q5 -52 40 -81t100 -29q129 0 139 110h188q-6 -139 -95.5 -225t-231.5 -86zM772 442v607h328v-1049h-328v152h-4q-106 -185 -344 -185q-155 0 -247.5 98t-92.5 275v709h328v-605q0 -115 39.5 -163t123.5 -48q197 0 197 209z" />
    <glyph glyph-name="Uring" unicode="&#x16e;" horiz-adv-x="1445" 
d="M723 1520q-94 0 -159.5 60.5t-65.5 160.5q0 98 65.5 159.5t159.5 61.5q95 0 160 -61t65 -160q0 -100 -65 -160.5t-160 -60.5zM723 1647q42 0 65 24.5t23 69.5t-23 69.5t-65 24.5q-38 0 -62 -25t-24 -69t24 -69t62 -25zM723 -33q-323 0 -467.5 139.5t-144.5 421.5v936h368
v-936q0 -139 59.5 -199.5t184.5 -60.5t184.5 60.5t59.5 199.5v936h368v-936q0 -282 -144.5 -421.5t-467.5 -139.5z" />
    <glyph glyph-name="uring" unicode="&#x16f;" horiz-adv-x="1189" 
d="M586 1104q-94 0 -160 60.5t-66 160.5q0 98 66 159.5t160 61.5q95 0 160 -61t65 -160q0 -100 -65 -160.5t-160 -60.5zM586 1419q-38 0 -62 -25t-24 -69t24 -69t62 -25q42 0 65 24.5t23 69.5t-23 69.5t-65 24.5zM772 442v607h328v-1049h-328v152h-4q-106 -185 -344 -185
q-155 0 -247.5 98t-92.5 275v709h328v-605q0 -115 39.5 -163t123.5 -48q197 0 197 209z" />
    <glyph glyph-name="Uhungarumlaut" unicode="&#x170;" horiz-adv-x="1445" 
d="M651 1589h-235l125 312h317zM1012 1589h-236l166 312h318zM723 -33q-323 0 -467.5 139.5t-144.5 421.5v936h368v-936q0 -139 59.5 -199.5t184.5 -60.5t184.5 60.5t59.5 199.5v936h368v-936q0 -282 -144.5 -421.5t-467.5 -139.5z" />
    <glyph glyph-name="uhungarumlaut" unicode="&#x171;" horiz-adv-x="1189" 
d="M403 1485h318l-207 -311h-235zM1122 1485l-248 -311h-235l166 311h317zM772 442v607h328v-1049h-328v152h-4q-106 -185 -344 -185q-155 0 -247.5 98t-92.5 275v709h328v-605q0 -115 39.5 -163t123.5 -48q197 0 197 209z" />
    <glyph glyph-name="Uogonek" unicode="&#x172;" horiz-adv-x="1445" 
d="M967 528v936h368v-936q0 -234 -98.5 -369.5t-314.5 -174.5q-76 -65 -76 -107q0 -45 63 -45q33 0 84 14v-184q-86 -22 -166 -22q-115 0 -174 44t-59 128q0 91 86 155q-300 9 -434.5 149t-134.5 412v936h368v-936q0 -139 59.5 -199.5t184.5 -60.5t184.5 60.5t59.5 199.5z
" />
    <glyph glyph-name="uogonek" unicode="&#x173;" horiz-adv-x="1189" 
d="M1100 0h-58q-28 -24 -38.5 -33.5t-28 -27.5t-23.5 -32.5t-6 -29.5q0 -45 64 -45q33 0 84 14v-184q-86 -22 -166 -22q-115 0 -174.5 44t-59.5 128q0 65 41 113t99 75h-62v152h-4q-106 -185 -344 -185q-155 0 -247.5 98t-92.5 275v709h328v-605q0 -115 39.5 -163t123.5 -48
q197 0 197 209v607h328v-1049z" />
    <glyph glyph-name="Wcircumflex" unicode="&#x174;" horiz-adv-x="1957" 
d="M885 1589h-285l219 312h320l219 -312h-285l-92 166h-4zM758 0h-369l-373 1464h369l188 -993h5l227 993h348l227 -993h4l189 993h369l-373 -1464h-369l-219 913h-4z" />
    <glyph glyph-name="wcircumflex" unicode="&#x175;" horiz-adv-x="1617" 
d="M715 1174h-285l219 311h320l219 -311h-285l-92 165h-4zM604 0h-307l-293 1049h328l157 -639h5l176 639h286l177 -639h6l157 639h318l-293 -1049h-307l-203 664h-4z" />
    <glyph glyph-name="Ycircumflex" unicode="&#x176;" horiz-adv-x="1366" 
d="M592 1589h-285l219 312h320l219 -312h-285l-92 166h-4zM868 0h-368v541l-500 923h397l285 -622h4l287 622h389l-494 -923v-541z" />
    <glyph glyph-name="ycircumflex" unicode="&#x177;" horiz-adv-x="1124" 
d="M459 1174h-285l219 311h320l219 -311h-285l-92 165h-4zM315 -362q-96 0 -196 20v250q52 -6 98 -6q21 0 34 0.5t34.5 3.5t36.5 10.5t31.5 19t28.5 31.5t19 47l-417 1035h338l245 -691h4l226 691h323l-383 -1051q-46 -126 -97.5 -201.5t-131.5 -117t-193 -41.5z" />
    <glyph glyph-name="Ydieresis" unicode="&#x178;" horiz-adv-x="1366" 
d="M637 1589h-328v291h328v-291zM1063 1589h-328v291h328v-291zM868 0h-368v541l-500 923h397l285 -622h4l287 622h389l-494 -923v-541z" />
    <glyph glyph-name="Zacute" unicode="&#x179;" horiz-adv-x="1255" 
d="M768 1589h-246l109 312h368zM1194 0h-1141v301l670 858v4h-629v301h1080v-301l-670 -858v-4h690v-301z" />
    <glyph glyph-name="zacute" unicode="&#x17a;" horiz-adv-x="1026" 
d="M631 1174h-246l109 311h368zM979 0h-940v236l510 563v4h-469v246h878v-236l-509 -563v-4h530v-246z" />
    <glyph glyph-name="Zdotaccent" unicode="&#x17b;" horiz-adv-x="1255" 
d="M809 1589h-328v291h328v-291zM1194 0h-1141v301l670 858v4h-629v301h1080v-301l-670 -858v-4h690v-301z" />
    <glyph glyph-name="zdotaccent" unicode="&#x17c;" horiz-adv-x="1026" 
d="M672 1174h-328v290h328v-290zM979 0h-940v236l510 563v4h-469v246h878v-236l-509 -563v-4h530v-246z" />
    <glyph glyph-name="Zcaron" unicode="&#x17d;" horiz-adv-x="1255" 
d="M805 1589h-320l-219 312h285l92 -166h4l92 166h285zM1194 0h-1141v301l670 858v4h-629v301h1080v-301l-670 -858v-4h690v-301z" />
    <glyph glyph-name="zcaron" unicode="&#x17e;" horiz-adv-x="1026" 
d="M668 1174h-320l-219 311h285l92 -166h4l92 166h285zM979 0h-940v236l510 563v4h-469v246h878v-236l-509 -563v-4h530v-246z" />
    <glyph glyph-name="florin" unicode="&#x192;" horiz-adv-x="1085" 
d="M936 1237q-68 0 -96 -36.5t-47 -129.5l-25 -129h170l-8 -246h-211l-121 -622q-37 -191 -126 -276t-251 -85q-80 0 -178 23l-14 233q54 -10 100 -10q75 0 104 36t48 130l110 571h-133l8 246h174l35 180q37 191 131 276t268 85q87 0 193 -23l-63 -233q-34 10 -68 10z" />
    <glyph glyph-name="uni0218" unicode="&#x218;" horiz-adv-x="1345" 
d="M731 893q213 -63 297 -102q189 -86 241 -226q23 -61 23 -135q0 -213 -153.5 -338t-425.5 -125q-193 0 -344 62t-239.5 183.5t-88.5 285.5h373q0 -121 80.5 -177.5t214.5 -56.5q100 0 153 36t53 95q0 28 -9 51.5t-30.5 42t-44.5 32.5t-62.5 28.5t-72 25t-85.5 26.5
q-29 8 -44 13q-87 27 -149 51t-129 62t-108 81t-68 106t-27 139q0 93 28.5 168t79.5 126t122.5 85t154.5 49.5t180 15.5q172 0 310 -56.5t222 -166t89 -254.5h-373q-12 85 -77 132.5t-171 47.5q-87 0 -137.5 -30t-50.5 -91q0 -69 57.5 -105t210.5 -81zM702 -309h-147v209
h311v-209q0 -93 -81 -154t-230 -76v97q147 17 147 133z" />
    <glyph glyph-name="uni0219" unicode="&#x219;" horiz-adv-x="1064" 
d="M612 662q52 -12 88.5 -22t83 -27t78 -34.5t65 -44.5t53 -58.5t32 -74.5t12.5 -94q0 -164 -121 -252t-348 -88q-133 0 -234 30t-160.5 84t-90 120.5t-33.5 146.5h307q15 -155 205 -155q139 0 139 90q0 15 -3.5 28t-12 23.5t-16.5 18.5t-25 15.5t-29.5 12t-36.5 11t-39 10
t-45.5 10t-48.5 10.5q-62 15 -110.5 30.5t-100.5 43t-86 61t-56 83.5t-22 112q0 150 120.5 239.5t338.5 89.5q121 0 214 -29t147.5 -79.5t83 -112t32.5 -133.5h-307q-8 65 -46.5 97t-117.5 32q-129 0 -129 -84q0 -42 32 -58.5t129 -38.5q37 -8 58 -13zM557 -309h-147v209
h311v-209q0 -93 -81 -154t-230 -76v97q147 17 147 133z" />
    <glyph glyph-name="uni021A" unicode="&#x21a;" horiz-adv-x="1280" 
d="M31 1163v301h1218v-301h-424v-1163h-368v1163h-426zM633 -309h-148v209h312v-209q0 -93 -81.5 -154t-230.5 -76v97q148 17 148 133z" />
    <glyph glyph-name="uni021B" unicode="&#x21b;" horiz-adv-x="747" 
d="M608 225q36 0 88 8v-231q-96 -22 -194 -22q-173 0 -250.5 84.5t-77.5 275.5v463h-145v246h145v292h328v-292h182v-246h-182v-455q0 -78 25.5 -100.5t80.5 -22.5zM465 -289h-148v209h312v-209q0 -93 -81.5 -153.5t-230.5 -75.5v96q148 17 148 133z" />
    <glyph glyph-name="uni0237" unicode="&#x237;" horiz-adv-x="507" 
d="M90 -375q-83 0 -182 21v250q58 -7 76 -7q55 0 80.5 23.5t25.5 101.5v1035h328v-1018q0 -200 -77 -303t-251 -103z" />
    <glyph glyph-name="circumflex" unicode="&#x2c6;" horiz-adv-x="921" 
d="M367 1174h-285l219 311h320l219 -311h-285l-92 165h-4z" />
    <glyph glyph-name="caron" unicode="&#x2c7;" horiz-adv-x="921" 
d="M621 1174h-320l-219 311h285l92 -166h4l92 166h285z" />
    <glyph glyph-name="breve" unicode="&#x2d8;" horiz-adv-x="819" 
d="M410 1153q-141 0 -232.5 85t-95.5 226h188q5 -52 40 -81t100 -29q129 0 139 110h188q-6 -139 -95.5 -225t-231.5 -86z" />
    <glyph glyph-name="dotaccent" unicode="&#x2d9;" horiz-adv-x="491" 
d="M410 1174h-328v290h328v-290z" />
    <glyph glyph-name="ring" unicode="&#x2da;" horiz-adv-x="581" 
d="M291 1059q-94 0 -159.5 60.5t-65.5 160.5q0 98 65.5 159.5t159.5 61.5q95 0 160 -61t65 -160q0 -100 -65 -160.5t-160 -60.5zM291 1186q42 0 65 24.5t23 69.5t-23 69.5t-65 24.5q-38 0 -62 -25t-24 -69t24 -69t62 -25z" />
    <glyph glyph-name="ogonek" unicode="&#x2db;" horiz-adv-x="563" 
d="M315 -362q-115 0 -174 44t-59 128q0 66 42 114t101 76h207q-36 -30 -51 -44.5t-31 -37.5t-16 -43q0 -45 63 -45q33 0 84 14v-184q-86 -22 -166 -22z" />
    <glyph glyph-name="tilde" unicode="&#x2dc;" horiz-adv-x="872" 
d="M260 1143h-178q0 301 182 301q59 0 150.5 -41t128.5 -41q71 0 71 82h177q0 -301 -183 -301q-59 0 -150.5 40t-127.5 40q-70 0 -70 -80z" />
    <glyph glyph-name="hungarumlaut" unicode="&#x2dd;" horiz-adv-x="1071" 
d="M369 1174h-236l125 311h317zM729 1174h-235l165 311h318z" />
    <glyph glyph-name="gravecomb" unicode="&#x300;" 
d="M539 1174h-246l-191 311h328z" />
    <glyph glyph-name="acutecomb" unicode="&#x301;" 
d="M328 1174h-246l108 311h369z" />
    <glyph glyph-name="uni0302" unicode="&#x302;" 
d="M367 1174h-285l219 311h320l219 -311h-285l-92 165h-4z" />
    <glyph glyph-name="tildecomb" unicode="&#x303;" 
d="M260 1143h-178q0 301 182 301q59 0 150.5 -41t128.5 -41q71 0 71 82h177q0 -301 -183 -301q-59 0 -150.5 40t-127.5 40q-70 0 -70 -80z" />
    <glyph glyph-name="uni0304" unicode="&#x304;" 
d="M668 1174h-586v204h586v-204z" />
    <glyph glyph-name="uni0306" unicode="&#x306;" 
d="M410 1153q-141 0 -232.5 85t-95.5 226h188q5 -52 40 -81t100 -29q129 0 139 110h188q-6 -139 -95.5 -225t-231.5 -86z" />
    <glyph glyph-name="uni0307" unicode="&#x307;" 
d="M410 1174h-328v290h328v-290z" />
    <glyph glyph-name="uni0308" unicode="&#x308;" 
d="M424 1174h-328v290h328v-290zM850 1174h-328v290h328v-290z" />
    <glyph glyph-name="uni030A" unicode="&#x30a;" 
d="M291 1100q-94 0 -159.5 60.5t-65.5 160.5q0 98 65.5 159.5t159.5 61.5q95 0 160 -61t65 -160q0 -100 -65 -160.5t-160 -60.5zM291 1227q42 0 65 24.5t23 69.5t-23 69.5t-65 24.5q-38 0 -62 -25t-24 -69t24 -69t62 -25z" />
    <glyph glyph-name="uni030B" unicode="&#x30b;" 
d="M369 1174h-236l125 311h317zM729 1174h-235l165 311h318z" />
    <glyph glyph-name="uni030C" unicode="&#x30c;" 
d="M621 1174h-320l-219 311h285l92 -166h4l92 166h285z" />
    <glyph glyph-name="uni0312" unicode="&#x312;" 
d="M393 1616v-96q-147 -17 -147 -136h147v-210h-311v210q0 95 81 157t230 75z" />
    <glyph glyph-name="uni0326" unicode="&#x326;" 
d="M82 -309v209h311v-209q0 -93 -81 -154t-230 -76v97q147 17 147 133h-147z" />
    <glyph glyph-name="uni0327" unicode="&#x327;" 
d="M334 -406q-131 0 -230 68l62 72q67 -31 129 -31q41 0 67.5 14.5t26.5 44.5q0 56 -70 56q-32 0 -75 -15l-49 70l120 127h148l-80 -98v-4q89 10 154 -26.5t65 -111.5q0 -77 -77 -121.5t-191 -44.5z" />
    <glyph glyph-name="uni0328" unicode="&#x328;" 
d="M315 -362q-115 0 -174 44t-59 128q0 66 42 114t101 76h207q-36 -30 -51 -44.5t-31 -37.5t-16 -43q0 -45 63 -45q33 0 84 14v-184q-86 -22 -166 -22z" />
    <glyph glyph-name="uni0335" unicode="&#x335;" 
d="M999 666h-917v184h917v-184z" />
    <glyph glyph-name="uni0336" unicode="&#x336;" 
d="M1188 586h-1106v301h1106v-301z" />
    <glyph glyph-name="uni0337" unicode="&#x337;" 
d="M1180 987l-1012 -1014l-86 88l1010 1012z" />
    <glyph glyph-name="uni0338" unicode="&#x338;" 
d="M1180 987l-1012 -1014l-86 88l1010 1012z" />
    <glyph glyph-name="uni0394" unicode="&#x394;" horiz-adv-x="1404" 
d="M502 1464h401l459 -1163v-301h-1319v301zM711 1126h-19l-307 -835h633z" />
    <glyph glyph-name="uni03A9" unicode="&#x3a9;" horiz-adv-x="1638" 
d="M717 0h-647v299h313q-139 85 -213 221t-74 316q0 298 194 477.5t529 179.5t529 -179.5t194 -477.5q0 -180 -74 -316t-213 -221h314v-299h-647v276q264 169 264 506q0 208 -96 312t-271 104q-174 0 -270 -104t-96 -312q0 -337 264 -506v-276z" />
    <glyph glyph-name="uni03BC" unicode="&#x3bc;" horiz-adv-x="1196" 
d="M778 442v607h328v-1049h-328v152h-4q-41 -84 -112.5 -128t-149.5 -44q-53 0 -94 20v-362h-328v1411h328v-605q0 -115 39.5 -163t124.5 -48q196 0 196 209z" />
    <glyph glyph-name="pi" unicode="&#x3c0;" horiz-adv-x="1263" 
d="M1206 1049v-246h-166v-455q0 -78 21.5 -100.5t68.5 -22.5q27 0 68 8v-231q-84 -22 -174 -22q-164 0 -237.5 84.5t-73.5 275.5v463h-191v-803h-327v803h-162v246h1173z" />
    <glyph glyph-name="uni0400" unicode="&#x400;" horiz-adv-x="1314" 
d="M803 1593h-246l-190 312h327zM1245 0h-1122v1464h1110v-301h-741v-260h638v-301h-638v-301h753v-301z" />
    <glyph glyph-name="uni0401" unicode="&#x401;" horiz-adv-x="1314" 
d="M635 1589h-328v291h328v-291zM1061 1589h-328v291h328v-291zM1245 0h-1122v1464h1110v-301h-741v-260h638v-301h-638v-301h753v-301z" />
    <glyph glyph-name="uni0402" unicode="&#x402;" horiz-adv-x="1579" 
d="M1112 -375q-130 0 -244 31v311q32 -11 80 -20.5t70 -9.5q29 0 45 3t33.5 13.5t25.5 35.5t8 66v408q0 99 -55 154t-162 55q-104 0 -168.5 -62.5t-64.5 -167.5v-442h-369v1163h-276v301h1093v-301h-448v-393h4q61 95 169.5 152t223.5 57q201 0 311.5 -117t110.5 -338v-510
q0 -189 -102.5 -289t-284.5 -100z" />
    <glyph glyph-name="uni0403" unicode="&#x403;" horiz-adv-x="1107" 
d="M776 1589h-246l109 312h369zM492 0h-369v1464h954v-301h-585v-1163z" />
    <glyph glyph-name="uni0404" unicode="&#x404;" horiz-adv-x="1488" 
d="M776 272q128 0 208.5 68.5t88.5 175.5h373q-9 -240 -185.5 -392.5t-465.5 -152.5q-153 0 -287.5 54t-233.5 151.5t-156 242.5t-57 318q0 227 97 400t264.5 264.5t378.5 91.5q129 0 243.5 -39.5t197.5 -108t136.5 -162.5t67.5 -202h-373q-18 90 -91.5 150.5t-186.5 60.5
q-134 0 -224.5 -82.5t-119.5 -232.5h430v-246h-437q19 -175 102 -267t230 -92z" />
    <glyph glyph-name="uni0405" unicode="&#x405;" horiz-adv-x="1345" 
d="M713 -33q-193 0 -344 62t-239.5 183.5t-88.5 285.5h373q0 -121 80.5 -177.5t214.5 -56.5q100 0 153 36t53 95q0 28 -9 51.5t-30.5 42t-44.5 32.5t-62.5 28.5t-72 25t-85.5 26.5q-29 8 -44 13q-87 27 -149 51t-129 62t-108 81t-68 106t-27 139q0 93 28.5 168t79.5 126
t122.5 85t154.5 49.5t180 15.5q172 0 310 -56.5t222 -166t89 -254.5h-373q-12 85 -77 132.5t-171 47.5q-87 0 -137.5 -30t-50.5 -91q0 -69 57.5 -105t210.5 -81q213 -63 297 -102q189 -86 241 -226q23 -61 23 -135q0 -213 -153.5 -338t-425.5 -125z" />
    <glyph glyph-name="uni0406" unicode="&#x406;" horiz-adv-x="614" 
d="M492 0h-369v1464h369v-1464z" />
    <glyph glyph-name="uni0407" unicode="&#x407;" horiz-adv-x="614" 
d="M258 1589h-328v291h328v-291zM684 1589h-328v291h328v-291zM492 0h-369v1464h369v-1464z" />
    <glyph glyph-name="uni0408" unicode="&#x408;" horiz-adv-x="1148" 
d="M535 -33q-117 0 -206 27.5t-144.5 73.5t-90 114t-48 141.5t-13.5 163.5v123h327v-123q0 -111 34 -165t120 -54t120 54t34 165v977h368v-977q0 -90 -13.5 -163.5t-48 -141.5t-89.5 -114t-144 -73.5t-206 -27.5z" />
    <glyph glyph-name="uni0409" unicode="&#x409;" horiz-adv-x="2095" 
d="M225 -31q-163 0 -211 25v315q58 -20 129 -20q56 0 84.5 39t32.5 123l64 1013h981v-452h223q245 0 389.5 -136.5t144.5 -363.5q0 -240 -149 -376t-406 -136h-571v1163h-293l-47 -755q-26 -439 -371 -439zM1305 711v-410h192q89 0 139 54.5t50 156.5q0 87 -46.5 143
t-123.5 56h-211z" />
    <glyph glyph-name="uni040A" unicode="&#x40a;" horiz-adv-x="2193" 
d="M492 0h-369v1464h369v-514h501v514h369v-514h264q249 0 392 -123t143 -346q0 -237 -147 -359t-408 -122h-613v649h-501v-649zM1362 649v-348h233q93 0 141 41t48 139q0 84 -45 126t-125 42h-252z" />
    <glyph glyph-name="uni040B" unicode="&#x40b;" horiz-adv-x="1579" 
d="M680 0h-369v1163h-276v301h1093v-301h-448v-393h4q63 95 170.5 152t222.5 57q201 0 311.5 -117t110.5 -338v-524h-369v463q0 99 -55 154t-162 55q-104 0 -168.5 -62.5t-64.5 -167.5v-442z" />
    <glyph glyph-name="uni040C" unicode="&#x40c;" horiz-adv-x="1474" 
d="M725 1901h369l-232 -312h-246zM1477 1464l-584 -723l620 -741h-462l-455 555h-104v-555h-369v1464h369v-608h104l483 608h398z" />
    <glyph glyph-name="uni040D" unicode="&#x40d;" horiz-adv-x="1546" 
d="M885 1593h-246l-190 312h327zM492 0h-369v1464h369v-909h4l559 909h368v-1464h-368v909h-4z" />
    <glyph glyph-name="uni040E" unicode="&#x40e;" horiz-adv-x="1372" 
d="M684 1573q-141 0 -232.5 85t-95.5 226h189q10 -110 139 -110t139 110h189q-6 -139 -96 -225t-232 -86zM616 0h-356l225 438l-469 1026h369l293 -641h4l322 641h352z" />
    <glyph glyph-name="uni040F" unicode="&#x40f;" horiz-adv-x="1464" 
d="M897 -268h-328v268h-446v1464h369v-1163h481v1163h368v-1464h-444v-268z" />
    <glyph glyph-name="uni0410" unicode="&#x410;" horiz-adv-x="1466" 
d="M385 0h-395l557 1464h371l561 -1464h-404l-94 305h-502zM729 1126l-166 -540h336l-166 540h-4z" />
    <glyph glyph-name="uni0411" unicode="&#x411;" horiz-adv-x="1304" 
d="M715 0h-592v1464h995v-301h-626v-213h243q256 0 395.5 -125.5t139.5 -339.5q0 -231 -143.5 -358t-411.5 -127zM492 649v-348h213q92 0 140 46.5t48 137.5q0 72 -44 118t-126 46h-231z" />
    <glyph glyph-name="uni0412" unicode="&#x412;" horiz-adv-x="1413" 
d="M854 0h-731v1464h711q464 0 464 -368q0 -126 -63 -202t-164 -110v-4q126 -22 205.5 -108t79.5 -240q0 -432 -502 -432zM492 872h245q87 0 136 31t49 115q0 44 -14 73.5t-41 44.5t-57.5 21t-72.5 6h-245v-291zM492 301h256q121 0 176 37.5t55 136.5t-54.5 135.5
t-176.5 36.5h-256v-346z" />
    <glyph glyph-name="uni0413" unicode="&#x413;" horiz-adv-x="1107" 
d="M492 0h-369v1464h954v-301h-585v-1163z" />
    <glyph glyph-name="uni0414" unicode="&#x414;" horiz-adv-x="1574" 
d="M340 -266h-328v565h107q85 0 118 81.5t44 287.5l41 796h1044v-1165h154v-565h-328v264h-852v-264zM524 303v-4h473v864h-348l-41 -579q-14 -196 -84 -281z" />
    <glyph glyph-name="uni0415" unicode="&#x415;" horiz-adv-x="1314" 
d="M1245 0h-1122v1464h1110v-301h-741v-260h638v-301h-638v-301h753v-301z" />
    <glyph glyph-name="uni0416" unicode="&#x416;" horiz-adv-x="2048" 
d="M2036 1464l-439 -731l463 -733h-415l-332 555h-105v-555h-368v555h-105l-332 -555h-415l463 733l-439 731h383l340 -608h105v608h368v-608h105l340 608h383z" />
    <glyph glyph-name="uni0417" unicode="&#x417;" horiz-adv-x="1300" 
d="M649 -35q-286 0 -448 128t-162 345h377q16 -84 71 -128t172 -44q89 0 149 48.5t60 117.5q0 87 -57.5 129.5t-159.5 42.5h-174v246h166q81 0 122.5 48t41.5 122q0 69 -52.5 122.5t-129.5 53.5q-80 0 -136.5 -47.5t-56.5 -116.5h-377q15 207 168 336t402 129
q252 0 405.5 -112t153.5 -306q0 -127 -72.5 -213t-183.5 -135v-4q60 -10 113.5 -33t101 -61.5t75 -100t27.5 -139.5q0 -98 -48 -180t-130.5 -135.5t-190 -83t-227.5 -29.5z" />
    <glyph glyph-name="uni0418" unicode="&#x418;" horiz-adv-x="1546" 
d="M492 0h-369v1464h369v-909h4l559 909h368v-1464h-368v909h-4z" />
    <glyph glyph-name="uni0419" unicode="&#x419;" horiz-adv-x="1546" 
d="M766 1573q-141 0 -232.5 85t-95.5 226h189q10 -110 139 -110t139 110h189q-6 -139 -96 -225t-232 -86zM492 0h-369v1464h369v-909h4l559 909h368v-1464h-368v909h-4z" />
    <glyph glyph-name="uni041A" unicode="&#x41a;" horiz-adv-x="1474" 
d="M1477 1464l-584 -723l620 -741h-462l-455 555h-104v-555h-369v1464h369v-608h104l483 608h398z" />
    <glyph glyph-name="uni041B" unicode="&#x41b;" horiz-adv-x="1462" 
d="M225 -31q-163 0 -211 25v315q58 -20 129 -20q56 0 84.5 39t32.5 123l64 1013h1015v-1464h-368v1163h-328l-47 -755q-26 -439 -371 -439z" />
    <glyph glyph-name="uni041C" unicode="&#x41c;" horiz-adv-x="1753" 
d="M471 0h-348v1464h450l301 -934h5l301 934h450v-1464h-348v911h-4l-272 -911h-258l-273 911h-4v-911z" />
    <glyph glyph-name="uni041D" unicode="&#x41d;" horiz-adv-x="1484" 
d="M492 0h-369v1464h369v-573h501v573h369v-1464h-369v590h-501v-590z" />
    <glyph glyph-name="uni041E" unicode="&#x41e;" horiz-adv-x="1572" 
d="M786 -33q-171 0 -309 57.5t-228.5 160t-139 242.5t-48.5 306q0 222 83 393t249 271t393 100q225 0 391 -99.5t250 -271.5t84 -393q0 -166 -49 -306.5t-140 -242.5t-228.5 -159.5t-307.5 -57.5zM786 268q97 0 166.5 36t108.5 101.5t56.5 146t17.5 181.5q0 100 -17.5 180
t-56.5 145.5t-108.5 101.5t-166.5 36q-348 0 -348 -463q0 -465 348 -465z" />
    <glyph glyph-name="uni041F" unicode="&#x41f;" horiz-adv-x="1464" 
d="M492 0h-369v1464h1218v-1464h-368v1163h-481v-1163z" />
    <glyph glyph-name="uni0420" unicode="&#x420;" horiz-adv-x="1361" 
d="M492 0h-369v1464h711q233 0 364 -120t131 -347t-131 -347t-364 -120h-342v-530zM492 831h256q100 0 152 38.5t52 127.5t-52 127.5t-152 38.5h-256v-332z" />
    <glyph glyph-name="uni0421" unicode="&#x421;" horiz-adv-x="1464" 
d="M762 -33q-137 0 -251 37t-197 105t-140 162.5t-85 209t-28 246.5q0 169 46.5 310t135 243.5t224 159.5t305.5 57q147 0 264 -42t196.5 -119t126.5 -182t60 -234h-377q-11 64 -29 111t-50.5 86t-84 59t-122.5 20q-89 0 -152 -33t-98.5 -96.5t-51.5 -145t-16 -188.5
q0 -108 15.5 -190t51.5 -145.5t99 -96.5t152 -33q72 0 124 20t84 59.5t50 87.5t28 114h377q-26 -262 -195.5 -422t-461.5 -160z" />
    <glyph glyph-name="uni0422" unicode="&#x422;" horiz-adv-x="1280" 
d="M825 0h-368v1163h-426v301h1218v-301h-424v-1163z" />
    <glyph glyph-name="uni0423" unicode="&#x423;" horiz-adv-x="1372" 
d="M616 0h-356l225 438l-469 1026h369l293 -641h4l322 641h352z" />
    <glyph glyph-name="uni0424" unicode="&#x424;" horiz-adv-x="1662" 
d="M1610 723q0 -235 -161 -388t-443 -190v-145h-349v145q-282 37 -443 190t-161 388t160.5 386.5t443.5 188.5v166h349v-166q283 -37 443.5 -188.5t160.5 -386.5zM430 723q0 -108 59.5 -184.5t167.5 -112.5v592q-108 -34 -167.5 -110.5t-59.5 -184.5zM1006 1018v-592
q108 36 167.5 112.5t59.5 184.5t-59.5 184.5t-167.5 110.5z" />
    <glyph glyph-name="uni0425" unicode="&#x425;" horiz-adv-x="1366" 
d="M391 0h-409l485 748l-444 716h389l268 -446h4l270 446h389l-444 -712l485 -752h-409l-291 475h-4z" />
    <glyph glyph-name="uni0426" unicode="&#x426;" horiz-adv-x="1558" 
d="M1505 -268h-327v268h-1055v1464h369v-1163h481v1163h368v-1163h164v-569z" />
    <glyph glyph-name="uni0427" unicode="&#x427;" horiz-adv-x="1372" 
d="M1249 0h-368v633h-4q-63 -96 -166.5 -152.5t-216.5 -56.5q-187 0 -299.5 123.5t-112.5 331.5v585h369v-524q0 -97 55.5 -153t150.5 -56q134 0 224 131v602h368v-1464z" />
    <glyph glyph-name="uni0428" unicode="&#x428;" horiz-adv-x="1986" 
d="M1864 0h-1741v1464h369v-1163h317v1163h369v-1163h317v1163h369v-1464z" />
    <glyph glyph-name="uni0429" unicode="&#x429;" horiz-adv-x="2080" 
d="M2028 -268h-328v268h-1577v1464h369v-1163h317v1163h369v-1163h317v1163h369v-1163h164v-569z" />
    <glyph glyph-name="uni042A" unicode="&#x42a;" horiz-adv-x="1513" 
d="M926 0h-613v1163h-286v301h655v-452h264q245 0 390 -136.5t145 -363.5q0 -240 -149 -376t-406 -136zM682 711v-410h233q89 0 139 54.5t50 156.5q0 87 -46.5 143t-123.5 56h-252z" />
    <glyph glyph-name="uni042B" unicode="&#x42b;" horiz-adv-x="1863" 
d="M694 0h-571v1464h369v-452h223q245 0 389.5 -136.5t144.5 -363.5q0 -240 -149 -376t-406 -136zM1741 0h-369v1464h369v-1464zM492 711v-410h192q89 0 138.5 54.5t49.5 156.5q0 87 -46.5 143t-123.5 56h-210z" />
    <glyph glyph-name="uni042C" unicode="&#x42c;" horiz-adv-x="1323" 
d="M735 0h-612v1464h369v-452h264q245 0 389.5 -136.5t144.5 -363.5q0 -240 -149 -376t-406 -136zM492 711v-410h233q89 0 138.5 54.5t49.5 156.5q0 87 -46.5 143t-123.5 56h-251z" />
    <glyph glyph-name="uni042D" unicode="&#x42d;" horiz-adv-x="1488" 
d="M721 1493q317 0 511.5 -204.5t194.5 -549.5q0 -174 -53 -318.5t-147 -242.5t-224.5 -152.5t-283.5 -54.5q-291 0 -479 153.5t-197 391.5h373q8 -106 91 -175t212 -69q146 0 226.5 92.5t98.5 266.5h-436v246h432q-25 153 -107.5 234t-217.5 81q-124 0 -202.5 -60
t-96.5 -151h-373q14 108 70 202t143.5 162.5t208 108t256.5 39.5z" />
    <glyph glyph-name="uni042E" unicode="&#x42e;" horiz-adv-x="2048" 
d="M1339 1497q309 0 476 -198.5t167 -565.5q0 -369 -167 -567.5t-476 -198.5q-278 0 -442 162t-195 467h-210v-596h-369v1464h369v-567h215q35 291 198 445.5t434 154.5zM1339 268q125 0 196 120t71 345t-71 344t-196 119t-195.5 -119t-70.5 -344t70.5 -345t195.5 -120z" />
    <glyph glyph-name="uni042F" unicode="&#x42f;" horiz-adv-x="1411" 
d="M430 0h-403v12q17 30 33.5 91.5t29 123.5t38.5 133.5t59 128.5t93 102t138 60v4q-309 74 -309 389q0 183 139 301.5t370 118.5h670v-1464h-368v510h-175q-73 0 -127 -30t-82.5 -75.5t-47.5 -106t-26 -113.5t-15 -107t-17 -78zM662 791h258v372h-285q-67 0 -108.5 -50
t-41.5 -124q0 -93 45.5 -145.5t131.5 -52.5z" />
    <glyph glyph-name="uni0430" unicode="&#x430;" horiz-adv-x="1155" 
d="M381 -33q-153 0 -243.5 83.5t-90.5 223.5q0 79 30.5 139t88 100t125 65.5t158.5 44.5q15 3 50.5 10t55 11.5t50.5 13t48.5 18t36 22.5t27 30.5t8.5 39.5q0 44 -35 69t-104 25q-90 0 -134.5 -37t-52.5 -114h-311q4 78 35 143.5t91 117.5t158.5 81.5t227.5 29.5
q222 0 332 -101t110 -335v-405q0 -44 7.5 -62t31.5 -18q15 0 27 2v-156q-99 -18 -180 -18q-94 0 -139 34t-58 103h-4q-59 -73 -148 -116.5t-198 -43.5zM518 193q94 0 150.5 68t56.5 163v88q-55 -20 -178 -49q-88 -21 -126 -58.5t-38 -95.5q0 -116 135 -116z" />
    <glyph glyph-name="uni0431" unicode="&#x431;" horiz-adv-x="1212" 
d="M623 -35q-266 0 -415 174.5t-149 505.5q0 328 133.5 518.5t370.5 218.5l205 25q72 8 107.5 24t35.5 33h246q0 -76 -21.5 -132t-61.5 -89.5t-87 -51.5t-108 -26l-254 -32q-131 -16 -213.5 -104.5t-96.5 -252.5h4q48 144 169.5 225.5t261.5 81.5q188 0 300.5 -148
t112.5 -411t-144 -411t-396 -148zM623 211q89 0 148.5 87.5t59.5 225.5q0 140 -59.5 227t-148.5 87q-98 0 -165 -88.5t-67 -227.5q0 -138 66.5 -224.5t165.5 -86.5z" />
    <glyph glyph-name="uni0432" unicode="&#x432;" horiz-adv-x="1120" 
d="M655 0h-565v1049h541q173 0 279 -79.5t106 -195.5q0 -97 -58 -159t-151 -68v-4q50 -4 95.5 -18t87 -39t66.5 -69t25 -100q0 -317 -426 -317zM418 803v-172h205q82 0 82 88q0 84 -82 84h-205zM418 426v-180h219q113 0 113 94q0 86 -95 86h-237z" />
    <glyph glyph-name="uni0433" unicode="&#x433;" horiz-adv-x="856" 
d="M418 0h-328v1049h746v-246h-418v-803z" />
    <glyph glyph-name="uni0434" unicode="&#x434;" horiz-adv-x="1298" 
d="M1114 1049v-803h143v-512h-307v266h-626v-266h-308v512h82q64 0 96.5 32.5t36.5 106.5l43 664h840zM516 250v-4h270v557h-211l-26 -410q-6 -90 -33 -143z" />
    <glyph glyph-name="uni0435" unicode="&#x435;" horiz-adv-x="1173" 
d="M1126 485v-49h-753q0 -105 64.5 -165t160.5 -60q146 0 186 106h334q-46 -165 -179.5 -258.5t-348.5 -93.5q-251 0 -398 154.5t-147 404.5q0 116 36 217t103.5 177.5t172 120.5t233.5 44q265 0 400.5 -153t135.5 -445zM375 639h422q0 100 -55 153.5t-152 53.5
q-95 0 -152 -53.5t-63 -153.5z" />
    <glyph glyph-name="uni0436" unicode="&#x436;" horiz-adv-x="1646" 
d="M369 0h-383l342 526l-330 523h352l248 -412h61v412h328v-412h62l247 412h353l-330 -523l342 -526h-383l-236 391h-55v-391h-328v391h-55z" />
    <glyph glyph-name="uni0437" unicode="&#x437;" horiz-adv-x="1060" 
d="M530 -35q-220 0 -357.5 97.5t-137.5 261.5h327q0 -52 45.5 -82.5t122.5 -30.5q61 0 105.5 26.5t44.5 77.5q0 49 -31 80t-98 31h-148v205h142q121 0 121 104q0 45 -47 74t-103 29q-68 0 -111 -29t-43 -78h-327q0 156 135 254t358 98q120 0 224 -33t174.5 -105t70.5 -171
q0 -87 -78 -158.5t-204 -83.5v-2q297 -29 297 -235q0 -99 -63.5 -175t-172.5 -115.5t-246 -39.5z" />
    <glyph glyph-name="uni0438" unicode="&#x438;" horiz-adv-x="1257" 
d="M418 0h-328v1044h328v-614l422 614h327v-1044h-327v614z" />
    <glyph glyph-name="uni0439" unicode="&#x439;" horiz-adv-x="1257" 
d="M645 1153q-141 0 -232.5 85t-95.5 226h189q10 -110 139 -110t139 110h189q-6 -139 -96 -225t-232 -86zM418 0h-328v1044h328v-614l422 614h327v-1044h-327v614z" />
    <glyph glyph-name="uni043A" unicode="&#x43a;" horiz-adv-x="1161" 
d="M1184 1049l-383 -514l387 -535h-395l-279 391h-96v-391h-328v1049h328v-412h102l275 412h389z" />
    <glyph glyph-name="uni043B" unicode="&#x43b;" horiz-adv-x="1189" 
d="M176 -31q-100 0 -149 19v241q44 -14 82 -14q80 0 90 160l41 669h860v-1044h-328v799h-240l-28 -461q-11 -177 -91.5 -273t-236.5 -96z" />
    <glyph glyph-name="uni043C" unicode="&#x43c;" horiz-adv-x="1441" 
d="M418 0h-328v1049h303l330 -676h4l350 676h275v-1049h-328v426h-4l-207 -426h-205l-186 426h-4v-426z" />
    <glyph glyph-name="uni043D" unicode="&#x43d;" horiz-adv-x="1216" 
d="M799 649v400h327v-1049h-327v403h-381v-403h-328v1049h328v-400h381z" />
    <glyph glyph-name="uni043E" unicode="&#x43e;" horiz-adv-x="1210" 
d="M602 -35q-257 0 -407 152.5t-150 404.5q0 251 151.5 406t411.5 155q257 0 407 -152.5t150 -402.5q0 -253 -151.5 -408t-411.5 -155zM606 211q109 0 168.5 80.5t59.5 232.5t-59.5 233t-168.5 81q-110 0 -169.5 -81t-59.5 -233t59 -232.5t170 -80.5z" />
    <glyph glyph-name="uni043F" unicode="&#x43f;" horiz-adv-x="1196" 
d="M418 0h-328v1049h1016v-1049h-328v803h-360v-803z" />
    <glyph glyph-name="uni0440" unicode="&#x440;" horiz-adv-x="1230" 
d="M725 1081q210 0 333.5 -150t123.5 -407t-123.5 -407t-333.5 -150q-103 0 -184 43t-119 94h-4v-466h-328v1411h328v-105h4q38 51 119 94t184 43zM635 213q101 0 156 79.5t55 231.5t-55 232t-156 80t-156 -80t-55 -232t55 -231.5t156 -79.5z" />
    <glyph glyph-name="uni0441" unicode="&#x441;" horiz-adv-x="1124" 
d="M586 -35q-246 0 -393.5 155t-147.5 404q0 247 146 403t387 156q221 0 357 -118t157 -308h-330q-21 181 -178 181q-100 0 -151.5 -82t-51.5 -232t51 -231.5t152 -81.5q159 0 178 184h330q-12 -191 -148 -310.5t-358 -119.5z" />
    <glyph glyph-name="uni0442" unicode="&#x442;" horiz-adv-x="1036" 
d="M682 0h-328v803h-334v246h996v-246h-334v-803z" />
    <glyph glyph-name="uni0443" unicode="&#x443;" horiz-adv-x="1124" 
d="M315 -362q-96 0 -196 20v250q52 -6 98 -6q21 0 34 0.5t34.5 3.5t36.5 10.5t31.5 19t28.5 31.5t19 47l-417 1035h338l245 -691h4l226 691h323l-383 -1051q-46 -126 -97.5 -201.5t-131.5 -117t-193 -41.5z" />
    <glyph glyph-name="uni0444" unicode="&#x444;" horiz-adv-x="1474" 
d="M1430 524q0 -220 -141.5 -363.5t-391.5 -180.5v-342h-317v342q-251 35 -393 179t-142 365q0 224 142 369t393 180v391h317v-391q250 -37 391.5 -181.5t141.5 -367.5zM367 524q0 -109 56 -186t157 -109v594q-101 -34 -157 -112t-56 -187zM897 823v-594q100 32 155.5 109.5
t55.5 185.5q0 110 -55.5 187.5t-155.5 111.5z" />
    <glyph glyph-name="uni0445" unicode="&#x445;" horiz-adv-x="1064" 
d="M342 0h-369l361 535l-320 514h348l168 -304h5l167 304h349l-320 -514l361 -535h-369l-188 324h-5z" />
    <glyph glyph-name="uni0446" unicode="&#x446;" horiz-adv-x="1290" 
d="M1249 -266h-307v266h-852v1049h328v-803h360v803h328v-803h143v-512z" />
    <glyph glyph-name="uni0447" unicode="&#x447;" horiz-adv-x="1126" 
d="M1036 0h-327v416h-4q-47 -64 -129.5 -102t-174.5 -38q-157 0 -248.5 87.5t-91.5 236.5v444h328v-321q0 -83 43 -131.5t115 -48.5q48 0 85 22t77 70v409h327v-1044z" />
    <glyph glyph-name="uni0448" unicode="&#x448;" horiz-adv-x="1568" 
d="M1479 0h-1389v1049h307v-803h234v803h307v-803h233v803h308v-1049z" />
    <glyph glyph-name="uni0449" unicode="&#x449;" horiz-adv-x="1662" 
d="M1622 -266h-307v266h-1225v1049h307v-803h234v803h307v-803h233v803h308v-803h143v-512z" />
    <glyph glyph-name="uni044A" unicode="&#x44a;" horiz-adv-x="1175" 
d="M727 0h-524v803h-183v246h510v-316h205q192 0 305 -98.5t113 -265.5q0 -170 -114.5 -269.5t-311.5 -99.5zM530 487v-241h158q62 0 97.5 31t35.5 85q0 57 -36 91t-97 34h-158z" />
    <glyph glyph-name="uni044B" unicode="&#x44b;" horiz-adv-x="1519" 
d="M573 0h-483v1049h328v-316h164q192 0 304.5 -98.5t112.5 -265.5q0 -170 -114.5 -269.5t-311.5 -99.5zM1430 0h-328v1049h328v-1049zM418 487v-241h117q62 0 97.5 31t35.5 85q0 57 -36 91t-97 34h-117z" />
    <glyph glyph-name="uni044C" unicode="&#x44c;" horiz-adv-x="1062" 
d="M614 0h-524v1049h328v-316h205q192 0 304.5 -98.5t112.5 -265.5q0 -170 -114.5 -269.5t-311.5 -99.5zM418 487v-241h157q62 0 98 31t36 85q0 57 -36.5 91t-97.5 34h-157z" />
    <glyph glyph-name="uni044D" unicode="&#x44d;" horiz-adv-x="1132" 
d="M541 1083q250 0 399.5 -154t149.5 -407q0 -126 -32 -226.5t-97.5 -175.5t-172.5 -115t-251 -40q-222 0 -352.5 107t-157.5 293h327q11 -69 59 -111.5t134 -42.5q97 0 149 52.5t66 160.5h-320v205h320q-15 106 -67 157.5t-148 51.5q-86 0 -134 -40.5t-59 -109.5h-327
q20 84 59.5 153.5t101 125t151.5 86t202 30.5z" />
    <glyph glyph-name="uni044E" unicode="&#x44e;" horiz-adv-x="1507" 
d="M985 1083q212 0 343.5 -149.5t131.5 -405.5q0 -259 -133 -411t-348 -152q-185 0 -310.5 116t-156.5 320h-94v-401h-328v1049h328v-402h94q32 204 159 320t314 116zM983 211q145 0 145 313q0 314 -145 314q-147 0 -147 -314q0 -313 147 -313z" />
    <glyph glyph-name="uni044F" unicode="&#x44f;" horiz-adv-x="1112" 
d="M369 0h-355v8q17 34 34 86t28.5 92.5t34 87t50.5 79t78 58t117 33.5v2q-124 22 -203 91t-79 188q0 59 22 115t64.5 103.5t114 76.5t161.5 29h586v-1049h-328v326h-100q-51 0 -90 -28t-60.5 -72.5t-35 -87.5t-23.5 -85t-16 -53zM530 551h164v252h-168q-54 0 -87 -32
t-33 -85q0 -61 33 -98t91 -37z" />
    <glyph glyph-name="uni0450" unicode="&#x450;" horiz-adv-x="1173" 
d="M596 1489l109 -311h-246l-191 311h328zM1126 485v-49h-753q0 -105 64.5 -165t160.5 -60q146 0 186 106h334q-46 -165 -179.5 -258.5t-348.5 -93.5q-251 0 -398 154.5t-147 404.5q0 116 36 217t103.5 177.5t172 120.5t233.5 44q265 0 400.5 -153t135.5 -445zM375 639h422
q0 100 -55 153.5t-152 53.5q-95 0 -152 -53.5t-63 -153.5z" />
    <glyph glyph-name="uni0451" unicode="&#x451;" horiz-adv-x="1173" 
d="M209 1464h328v-290h-328v290zM635 1464h328v-290h-328v290zM1126 485v-49h-753q0 -105 64.5 -165t160.5 -60q146 0 186 106h334q-46 -165 -179.5 -258.5t-348.5 -93.5q-251 0 -398 154.5t-147 404.5q0 116 36 217t103.5 177.5t172 120.5t233.5 44q265 0 400.5 -153
t135.5 -445zM375 639h422q0 100 -55 153.5t-152 53.5q-95 0 -152 -53.5t-63 -153.5z" />
    <glyph glyph-name="uni0452" unicode="&#x452;" horiz-adv-x="1189" 
d="M739 -375q-79 0 -178 21v250q58 -7 111 -7q106 0 106 125v590q0 115 -39.5 163t-124.5 48q-196 0 -196 -209v-606h-328v1178h-125v184h125v102h328v-102h317v-184h-317v-281h4q105 184 344 184q155 0 247.5 -97.5t92.5 -274.5v-678q0 -194 -94.5 -300t-272.5 -106z" />
    <glyph glyph-name="uni0453" unicode="&#x453;" horiz-adv-x="856" 
d="M598 1169h-246l109 312h368zM418 0h-328v1049h746v-246h-418v-803z" />
    <glyph glyph-name="uni0454" unicode="&#x454;" horiz-adv-x="1134" 
d="M588 211q86 0 133.5 42t58.5 112h328q-27 -186 -157.5 -293t-352.5 -107q-144 0 -251 40t-172.5 115t-97.5 175.5t-32 226.5q0 253 149.5 407t399.5 154q112 0 202 -30.5t151.5 -86t101 -125t59.5 -153.5h-328q-11 69 -58.5 109.5t-133.5 40.5q-96 0 -148 -51.5
t-67 -157.5h319v-205h-319q14 -108 66 -160.5t149 -52.5z" />
    <glyph glyph-name="uni0455" unicode="&#x455;" horiz-adv-x="1064" 
d="M555 -33q-133 0 -234 30t-160.5 84t-90 120.5t-33.5 146.5h307q15 -155 205 -155q139 0 139 90q0 15 -3.5 28t-12 23.5t-16.5 18.5t-25 15.5t-29.5 12t-36.5 11t-39 10t-45.5 10t-48.5 10.5q-62 15 -110.5 30.5t-100.5 43t-86 61t-56 83.5t-22 112q0 150 120.5 239.5
t338.5 89.5q121 0 214 -29t147.5 -79.5t83 -112t32.5 -133.5h-307q-8 65 -46.5 97t-117.5 32q-129 0 -129 -84q0 -42 32 -58.5t129 -38.5q37 -8 58 -13q52 -12 88.5 -22t83 -27t78 -34.5t65 -44.5t53 -58.5t32 -74.5t12.5 -94q0 -164 -121 -252t-348 -88z" />
    <glyph glyph-name="uni0456" unicode="&#x456;" horiz-adv-x="507" 
d="M418 1174h-328v290h328v-290zM418 0h-328v1049h328v-1049z" />
    <glyph glyph-name="uni0457" unicode="&#x457;" horiz-adv-x="507" 
d="M225 1192h-245v254h245v-254zM528 1192h-245v254h245v-254zM418 0h-328v1049h328v-1049z" />
    <glyph glyph-name="uni0458" unicode="&#x458;" horiz-adv-x="507" 
d="M418 1174h-328v290h328v-290zM90 -375q-83 0 -182 21v250q58 -7 76 -7q55 0 80.5 23.5t25.5 101.5v1035h328v-1018q0 -200 -77 -303t-251 -103z" />
    <glyph glyph-name="uni0459" unicode="&#x459;" horiz-adv-x="1652" 
d="M176 -27q-100 0 -149 19v241q44 -14 82 -14q80 0 90 160l41 670h809v-316h163q192 0 305 -98.5t113 -265.5q0 -170 -114.5 -269.5t-311.5 -99.5h-483v803h-189l-28 -461q-11 -177 -91.5 -273t-236.5 -96zM1049 487v-241h116q62 0 97.5 31t35.5 85q0 57 -36 91t-97 34
h-116z" />
    <glyph glyph-name="uni045A" unicode="&#x45a;" horiz-adv-x="1644" 
d="M1040 692h164q195 0 306.5 -87.5t111.5 -252.5q0 -168 -113.5 -260t-312.5 -92h-483v446h-295v-446h-328v1049h328v-357h295v357h327v-357zM1040 246h117q133 0 133 100q0 54 -34 77t-99 23h-117v-200z" />
    <glyph glyph-name="uni045B" unicode="&#x45b;" horiz-adv-x="1189" 
d="M766 1081q155 0 247.5 -97.5t92.5 -274.5v-709h-328v604q0 115 -39.5 163t-124.5 48q-196 0 -196 -209v-606h-328v1178h-125v184h125v102h328v-102h317v-184h-317v-281h4q105 184 344 184z" />
    <glyph glyph-name="uni045C" unicode="&#x45c;" horiz-adv-x="1161" 
d="M565 1481h369l-232 -312h-245zM1184 1049l-383 -514l387 -535h-395l-279 391h-96v-391h-328v1049h328v-412h102l275 412h389z" />
    <glyph glyph-name="uni045D" unicode="&#x45d;" horiz-adv-x="1257" 
d="M764 1174h-246l-190 311h327zM418 0h-328v1044h328v-614l422 614h327v-1044h-327v614z" />
    <glyph glyph-name="uni045E" unicode="&#x45e;" horiz-adv-x="1124" 
d="M553 1157q-141 0 -232.5 85t-95.5 226h189q10 -110 139 -110t139 110h189q-6 -139 -96 -225t-232 -86zM315 -362q-96 0 -196 20v250q52 -6 98 -6q21 0 34 0.5t34.5 3.5t36.5 10.5t31.5 19t28.5 31.5t19 47l-417 1035h338l245 -691h4l226 691h323l-383 -1051
q-46 -126 -97.5 -201.5t-131.5 -117t-193 -41.5z" />
    <glyph glyph-name="uni045F" unicode="&#x45f;" horiz-adv-x="1196" 
d="M752 -266h-308v266h-354v1049h328v-803h360v803h328v-1049h-354v-266z" />
    <glyph glyph-name="uni0490" unicode="&#x490;" horiz-adv-x="1138" 
d="M492 0h-369v1464h657v203h328v-504h-616v-1163z" />
    <glyph glyph-name="uni0491" unicode="&#x491;" horiz-adv-x="950" 
d="M418 0h-328v1049h533v221h307v-467h-512v-803z" />
    <glyph glyph-name="uni0492" unicode="&#x492;" horiz-adv-x="1232" 
d="M1198 1464v-301h-586v-336h377v-245h-377v-582h-368v582h-205v245h205v637h954z" />
    <glyph glyph-name="uni0493" unicode="&#x493;" horiz-adv-x="958" 
d="M936 1049v-246h-418v-203h287v-205h-287v-395h-328v395h-163v205h163v449h746z" />
    <glyph glyph-name="uni0496" unicode="&#x496;" horiz-adv-x="2048" 
d="M1597 733l394 -622h106v-377h-328v266h-124l-332 555h-105v-555h-368v555h-105l-332 -555h-415l463 733l-439 731h383l340 -608h105v608h368v-608h105l340 608h383z" />
    <glyph glyph-name="uni0497" unicode="&#x497;" horiz-adv-x="1646" 
d="M1319 526l209 -321h186v-471h-307v266h-129l-236 391h-55v-391h-328v391h-55l-235 -391h-383l342 526l-330 523h352l248 -412h61v412h328v-412h62l247 412h353z" />
    <glyph glyph-name="uni049A" unicode="&#x49a;" horiz-adv-x="1474" 
d="M893 741l528 -630h135v-377h-327v266h-178l-455 555h-104v-555h-369v1464h369v-608h104l483 608h398z" />
    <glyph glyph-name="uni049B" unicode="&#x49b;" horiz-adv-x="1161" 
d="M801 535l237 -330h181v-471h-308v266h-118l-279 391h-96v-391h-328v1049h328v-412h102l275 412h389z" />
    <glyph glyph-name="uni04A2" unicode="&#x4a2;" horiz-adv-x="1484" 
d="M1362 1464v-1353h115v-377h-328v266h-156v590h-501v-590h-369v1464h369v-573h501v573h369z" />
    <glyph glyph-name="uni04A3" unicode="&#x4a3;" horiz-adv-x="1216" 
d="M1126 1049v-844h134v-471h-308v266h-153v403h-381v-403h-328v1049h328v-400h381v400h327z" />
    <glyph glyph-name="uni04AE" unicode="&#x4ae;" horiz-adv-x="1366" 
d="M868 0h-368v541l-500 923h397l285 -622h4l287 622h389l-494 -923v-541z" />
    <glyph glyph-name="uni04AF" unicode="&#x4af;" horiz-adv-x="1126" 
d="M727 -362h-328v466l-415 945h348l231 -600h4l254 600h320l-414 -945v-466z" />
    <glyph glyph-name="uni04B0" unicode="&#x4b0;" horiz-adv-x="1353" 
d="M1356 1464l-494 -923v-66h266v-246h-266v-229h-368v229h-267v246h267v66l-500 923h397l285 -622h4l287 622h389z" />
    <glyph glyph-name="uni04B1" unicode="&#x4b1;" horiz-adv-x="1126" 
d="M1141 1049l-414 -945v-71h246v-205h-246v-190h-328v190h-245v205h245v71l-415 945h348l231 -600h4l254 600h320z" />
    <glyph glyph-name="uni04B2" unicode="&#x4b2;" horiz-adv-x="1366" 
d="M899 752l414 -641h119v-377h-328v266h-129l-291 475h-4l-289 -475h-409l485 748l-444 716h389l268 -446h4l270 446h389z" />
    <glyph glyph-name="uni04B3" unicode="&#x4b3;" horiz-adv-x="1064" 
d="M731 535l223 -330h195v-471h-307v266h-119l-188 324h-5l-188 -324h-369l361 535l-320 514h348l168 -304h5l167 304h349z" />
    <glyph glyph-name="uni04B6" unicode="&#x4b6;" horiz-adv-x="1372" 
d="M1249 1464v-1353h146v-377h-328v266h-186v633h-4q-63 -96 -166.5 -152.5t-216.5 -56.5q-187 0 -299.5 123.5t-112.5 331.5v585h369v-524q0 -97 55.5 -153t150.5 -56q134 0 224 131v602h368z" />
    <glyph glyph-name="uni04B7" unicode="&#x4b7;" horiz-adv-x="1126" 
d="M1036 1044v-839h131v-471h-307v266h-151v416h-4q-47 -64 -129.5 -102t-174.5 -38q-157 0 -248.5 87.5t-91.5 236.5v444h328v-321q0 -83 43 -131.5t115 -48.5q48 0 85 22t77 70v409h327z" />
    <glyph glyph-name="uni04BA" unicode="&#x4ba;" horiz-adv-x="1394" 
d="M492 0h-369v1464h369v-633h4q44 103 155.5 156t237.5 53q201 0 311.5 -116.5t110.5 -337.5v-586h-369v524q0 99 -55 154t-162 55q-104 0 -168.5 -62t-64.5 -167v-504z" />
    <glyph glyph-name="uni04BB" unicode="&#x4bb;" horiz-adv-x="1189" 
d="M766 1081q155 0 247.5 -97.5t92.5 -274.5v-709h-328v604q0 115 -39.5 163t-124.5 48q-196 0 -196 -209v-606h-328v1464h328v-567h4q105 184 344 184z" />
    <glyph glyph-name="uni04D8" unicode="&#x4d8;" horiz-adv-x="1525" 
d="M772 1493q200 0 357.5 -94.5t246 -267.5t88.5 -396q0 -167 -53.5 -310t-147.5 -243t-225.5 -156.5t-283.5 -56.5q-150 0 -280.5 59t-218.5 157.5t-138.5 227t-50.5 265.5q0 134 4 172h1020q-28 170 -125.5 256t-221.5 86q-119 0 -195.5 -52t-90.5 -130h-377
q24 144 122.5 254.5t247 169.5t322.5 59zM741 270q123 0 212 68t124 211h-651q0 -113 96.5 -196t218.5 -83z" />
    <glyph glyph-name="uni04D9" unicode="&#x4d9;" horiz-adv-x="1157" 
d="M582 1083q250 0 390 -152t140 -409q0 -157 -69.5 -284t-193.5 -200t-278 -73q-239 0 -382.5 153.5t-143.5 399.5q0 38 6 84h725q-12 112 -67 174t-136 62q-75 0 -124 -30.5t-64 -82.5h-328q18 91 66.5 160.5t119 112t156 64t183.5 21.5zM573 211q70 0 119.5 48.5
t71.5 137.5h-387q0 -85 53 -135.5t143 -50.5z" />
    <glyph glyph-name="uni04E2" unicode="&#x4e2;" horiz-adv-x="1546" 
d="M1059 1589h-586v205h586v-205zM492 0h-369v1464h369v-909h4l559 909h368v-1464h-368v909h-4z" />
    <glyph glyph-name="uni04E3" unicode="&#x4e3;" horiz-adv-x="1257" 
d="M938 1169h-586v205h586v-205zM418 0h-328v1044h328v-614l422 614h327v-1044h-327v614z" />
    <glyph glyph-name="uni04E8" unicode="&#x4e8;" horiz-adv-x="1572" 
d="M786 1497q225 0 391 -99.5t250 -271.5t84 -393q0 -166 -49 -306.5t-140 -242.5t-228.5 -159.5t-307.5 -57.5q-171 0 -309 57.5t-228.5 160t-139 242.5t-48.5 306q0 222 83 393t249 271t393 100zM786 1196q-296 0 -340 -340h680q-44 340 -340 340zM786 268q297 0 340 342
h-682q43 -342 342 -342z" />
    <glyph glyph-name="uni04E9" unicode="&#x4e9;" horiz-adv-x="1210" 
d="M608 1083q257 0 407 -152.5t150 -402.5q0 -253 -151.5 -408t-411.5 -155q-257 0 -407 152.5t-150 404.5q0 251 151.5 406t411.5 155zM606 838q-182 0 -221 -211h440q-39 211 -219 211zM606 211q180 0 219 211h-440q39 -211 221 -211z" />
    <glyph glyph-name="uni04EE" unicode="&#x4ee;" horiz-adv-x="1372" 
d="M977 1589h-586v205h586v-205zM616 0h-356l225 438l-469 1026h369l293 -641h4l322 641h352z" />
    <glyph glyph-name="uni04EF" unicode="&#x4ef;" horiz-adv-x="1124" 
d="M846 1174h-586v204h586v-204zM315 -362q-96 0 -196 20v250q52 -6 98 -6q21 0 34 0.5t34.5 3.5t36.5 10.5t31.5 19t28.5 31.5t19 47l-417 1035h338l245 -691h4l226 691h323l-383 -1051q-46 -126 -97.5 -201.5t-131.5 -117t-193 -41.5z" />
    <glyph glyph-name="uni139A" unicode="&#x139a;" horiz-adv-x="1331" 
 />
    <glyph glyph-name="Wgrave" unicode="&#x1e80;" horiz-adv-x="1957" 
d="M1098 1593h-246l-190 312h327zM758 0h-369l-373 1464h369l188 -993h5l227 993h348l227 -993h4l189 993h369l-373 -1464h-369l-219 913h-4z" />
    <glyph glyph-name="wgrave" unicode="&#x1e81;" horiz-adv-x="1617" 
d="M928 1178h-246l-190 311h327zM604 0h-307l-293 1049h328l157 -639h5l176 639h286l177 -639h6l157 639h318l-293 -1049h-307l-203 664h-4z" />
    <glyph glyph-name="Wacute" unicode="&#x1e82;" horiz-adv-x="1957" 
d="M1102 1589h-246l109 312h368zM758 0h-369l-373 1464h369l188 -993h5l227 993h348l227 -993h4l189 993h369l-373 -1464h-369l-219 913h-4z" />
    <glyph glyph-name="wacute" unicode="&#x1e83;" horiz-adv-x="1617" 
d="M932 1174h-246l109 311h368zM604 0h-307l-293 1049h328l157 -639h5l176 639h286l177 -639h6l157 639h318l-293 -1049h-307l-203 664h-4z" />
    <glyph glyph-name="Wdieresis" unicode="&#x1e84;" horiz-adv-x="1957" 
d="M930 1589h-328v291h328v-291zM1356 1589h-328v291h328v-291zM758 0h-369l-373 1464h369l188 -993h5l227 993h348l227 -993h4l189 993h369l-373 -1464h-369l-219 913h-4z" />
    <glyph glyph-name="wdieresis" unicode="&#x1e85;" horiz-adv-x="1617" 
d="M760 1174h-328v290h328v-290zM1186 1174h-328v290h328v-290zM604 0h-307l-293 1049h328l157 -639h5l176 639h286l177 -639h6l157 639h318l-293 -1049h-307l-203 664h-4z" />
    <glyph glyph-name="Ygrave" unicode="&#x1ef2;" horiz-adv-x="1366" 
d="M805 1593h-246l-190 312h327zM868 0h-368v541l-500 923h397l285 -622h4l287 622h389l-494 -923v-541z" />
    <glyph glyph-name="ygrave" unicode="&#x1ef3;" horiz-adv-x="1124" 
d="M672 1178h-246l-190 311h327zM315 -362q-96 0 -196 20v250q52 -6 98 -6q21 0 34 0.5t34.5 3.5t36.5 10.5t31.5 19t28.5 31.5t19 47l-417 1035h338l245 -691h4l226 691h323l-383 -1051q-46 -126 -97.5 -201.5t-131.5 -117t-193 -41.5z" />
    <glyph glyph-name="uni2000" unicode="&#x2000;" horiz-adv-x="1024" 
 />
    <glyph glyph-name="uni2001" unicode="&#x2001;" horiz-adv-x="2048" 
 />
    <glyph glyph-name="uni2002" unicode="&#x2002;" horiz-adv-x="1024" 
 />
    <glyph glyph-name="uni2003" unicode="&#x2003;" horiz-adv-x="2048" 
 />
    <glyph glyph-name="uni2004" unicode="&#x2004;" horiz-adv-x="681" 
 />
    <glyph glyph-name="uni2005" unicode="&#x2005;" horiz-adv-x="512" 
 />
    <glyph glyph-name="uni2006" unicode="&#x2006;" horiz-adv-x="342" 
 />
    <glyph glyph-name="uni2007" unicode="&#x2007;" horiz-adv-x="1638" 
 />
    <glyph glyph-name="uni2008" unicode="&#x2008;" horiz-adv-x="466" 
 />
    <glyph glyph-name="uni2009" unicode="&#x2009;" horiz-adv-x="256" 
 />
    <glyph glyph-name="uni200A" unicode="&#x200a;" horiz-adv-x="86" 
 />
    <glyph glyph-name="uni200B" unicode="&#x200b;" 
 />
    <glyph glyph-name="endash" unicode="&#x2013;" horiz-adv-x="1187" 
d="M1106 377h-1024v280h1024v-280z" />
    <glyph glyph-name="emdash" unicode="&#x2014;" horiz-adv-x="2211" 
d="M2130 377h-2048v280h2048v-280z" />
    <glyph glyph-name="quoteleft" unicode="&#x2018;" horiz-adv-x="466" 
d="M383 1464v-143q-147 -24 -147 -199h147v-311h-311v311q0 139 81 229.5t230 112.5z" />
    <glyph glyph-name="quoteright" unicode="&#x2019;" horiz-adv-x="454" 
d="M84 811v143q147 24 147 199h-147v311h311v-311q0 -139 -81 -229.5t-230 -112.5z" />
    <glyph glyph-name="quotesinglbase" unicode="&#x201a;" horiz-adv-x="475" 
d="M82 -342v143q147 24 147 199h-147v311h311v-311q0 -139 -81 -229.5t-230 -112.5z" />
    <glyph glyph-name="quotedblleft" unicode="&#x201c;" horiz-adv-x="876" 
d="M72 817v311q0 139 81 229.5t230 112.5v-143q-147 -24 -147 -199h147v-311h-311zM793 1470v-143q-148 -24 -148 -199h148v-311h-312v311q0 139 81.5 229.5t230.5 112.5z" />
    <glyph glyph-name="quotedblright" unicode="&#x201d;" horiz-adv-x="864" 
d="M84 811v143q147 24 147 199h-147v311h311v-311q0 -139 -81 -229.5t-230 -112.5zM494 811v143q147 24 147 199h-147v311h311v-311q0 -139 -81 -229.5t-230 -112.5z" />
    <glyph glyph-name="quotedblbase" unicode="&#x201e;" horiz-adv-x="884" 
d="M82 -342v143q147 24 147 199h-147v311h311v-311q0 -139 -81 -229.5t-230 -112.5zM492 -342v143q147 24 147 199h-147v311h311v-311q0 -139 -81 -229.5t-230 -112.5z" />
    <glyph glyph-name="dagger" unicode="&#x2020;" horiz-adv-x="1130" 
d="M739 -362h-348v1130h-358v281h358v415h348v-415h359v-281h-359v-1130z" />
    <glyph glyph-name="daggerdbl" unicode="&#x2021;" horiz-adv-x="1220" 
d="M784 -362h-348v475h-358v280h358v375h-358v281h358v415h348v-415h359v-281h-359v-375h359v-280h-359v-475z" />
    <glyph glyph-name="bullet" unicode="&#x2022;" horiz-adv-x="851" 
d="M713 319h-574v574h574v-574z" />
    <glyph glyph-name="ellipsis" unicode="&#x2026;" horiz-adv-x="1335" 
d="M389 0h-311v311h311v-311zM823 0h-311v311h311v-311zM1257 0h-311v311h311v-311z" />
    <glyph glyph-name="perthousand" unicode="&#x2030;" horiz-adv-x="2713" 
d="M449 627q-189 0 -300.5 110t-111.5 299t111.5 300.5t300.5 111.5t299 -111.5t110 -300.5t-110 -299t-299 -110zM645 0h-219l784 1415h220zM449 831q54 0 78 48.5t24 156.5q0 109 -24 158t-78 49q-55 0 -80 -49t-25 -158q0 -108 25 -156.5t80 -48.5zM1407 -33
q-189 0 -299.5 111.5t-110.5 300.5t110.5 299t299.5 110t300.5 -110t111.5 -299t-111.5 -300.5t-300.5 -111.5zM2263 -33q-189 0 -299.5 111.5t-110.5 300.5t110.5 299t299.5 110t300.5 -110t111.5 -299t-111.5 -300.5t-300.5 -111.5zM1407 172q55 0 79.5 49t24.5 158
q0 108 -24.5 156.5t-79.5 48.5q-54 0 -78 -48.5t-24 -156.5q0 -109 24 -158t78 -49zM2263 172q55 0 79.5 49t24.5 158q0 108 -24.5 156.5t-79.5 48.5q-54 0 -78 -48.5t-24 -156.5q0 -109 24 -158t78 -49z" />
    <glyph glyph-name="guilsinglleft" unicode="&#x2039;" horiz-adv-x="577" 
d="M485 375v-320l-407 316v321l407 316v-320l-227 -153v-7z" />
    <glyph glyph-name="guilsinglright" unicode="&#x203a;" horiz-adv-x="577" 
d="M500 371l-408 -316v320l227 153v7l-227 153v320l408 -316v-321z" />
    <glyph glyph-name="fraction" unicode="&#x2044;" horiz-adv-x="491" 
d="M-80 0h-287l928 1464h287z" />
    <glyph glyph-name="uni2070" unicode="&#x2070;" horiz-adv-x="864" 
d="M434 737q-95 0 -170.5 35t-122 95.5t-70.5 138t-24 165.5q0 119 41 216t130.5 159t215.5 62q77 0 140.5 -23t108 -63.5t75 -96t45 -119.5t14.5 -135q0 -89 -23.5 -166.5t-69.5 -138t-120.5 -95t-169.5 -34.5zM434 936q74 0 100.5 57t26.5 178q0 122 -26.5 179t-100.5 57
q-75 0 -103 -55.5t-28 -180.5q0 -122 27.5 -178.5t103.5 -56.5z" />
    <glyph glyph-name="uni2074" unicode="&#x2074;" horiz-adv-x="829" 
d="M662 745h-248v166h-367v246l367 420h248v-469h122v-197h-122v-166zM414 1319l-193 -211h193v211z" />
    <glyph glyph-name="uni2075" unicode="&#x2075;" horiz-adv-x="802" 
d="M418 725q-184 0 -282 76.5t-101 210.5h252q5 -37 34.5 -63.5t81.5 -26.5q48 0 73.5 28t25.5 82q0 117 -109 117q-58 0 -102 -49h-232l101 477h559v-197h-391l-25 -114v-2q77 51 170 51q128 0 204.5 -74.5t76.5 -210.5q0 -150 -93 -227.5t-243 -77.5z" />
    <glyph glyph-name="uni2076" unicode="&#x2076;" horiz-adv-x="817" 
d="M416 735q-104 0 -178.5 36t-114 98.5t-57 132.5t-17.5 153q0 218 100.5 336.5t264.5 118.5q134 0 219.5 -64.5t109.5 -169.5h-239q-31 56 -96 56q-125 0 -138 -144l-2 -24l8 -2q24 26 78.5 47.5t118.5 21.5q136 0 217.5 -80.5t81.5 -210.5q0 -138 -98 -221.5t-258 -83.5z
M414 918q57 0 90 33t33 85q0 48 -30.5 82.5t-88.5 34.5t-90.5 -34.5t-32.5 -82.5q0 -52 31.5 -85t87.5 -33z" />
    <glyph glyph-name="uni2077" unicode="&#x2077;" horiz-adv-x="681" 
d="M414 745h-260q0 195 67.5 370t167.5 263v2h-366v197h626v-182q-123 -101 -179 -271.5t-56 -378.5z" />
    <glyph glyph-name="uni2078" unicode="&#x2078;" horiz-adv-x="808" 
d="M403 735q-157 0 -257.5 68t-100.5 192q0 139 156 209v2q-121 68 -121 176q0 105 93.5 166.5t229.5 61.5q139 0 232.5 -62t93.5 -166q0 -110 -121 -176v-2q158 -71 158 -209q0 -124 -103 -192t-260 -68zM403 1268q53 0 79 26.5t26 63.5q0 34 -26.5 60t-78.5 26t-78 -26
t-26 -60q0 -37 25 -63.5t79 -26.5zM403 915q52 0 79.5 32t27.5 75q0 41 -27.5 70.5t-79.5 29.5t-79 -29.5t-27 -70.5q0 -42 26.5 -74.5t79.5 -32.5z" />
    <glyph glyph-name="uni2079" unicode="&#x2079;" horiz-adv-x="821" 
d="M403 735q-128 0 -219.5 65.5t-115.5 168.5h251q28 -54 91 -54q54 0 85 35.5t31 102.5v10l-2 2q-23 -22 -72 -38.5t-110 -16.5q-134 0 -215.5 82t-81.5 213q0 138 98 221.5t258 83.5q85 0 151 -25.5t106.5 -67.5t67 -100.5t36.5 -118.5t10 -129q0 -208 -102 -321
t-267 -113zM406 1192q58 0 87 34t29 83q0 52 -31.5 85t-87.5 33q-57 0 -89.5 -33t-32.5 -85q0 -48 33.5 -82.5t91.5 -34.5z" />
    <glyph glyph-name="uni2080" unicode="&#x2080;" horiz-adv-x="864" 
d="M434 -223q-95 0 -170.5 35t-122 95.5t-70.5 138t-24 165.5t24 165.5t70.5 138.5t122 96.5t170.5 35.5t170 -35t120.5 -96t69 -138.5t23.5 -166.5t-23.5 -166.5t-69.5 -138t-120.5 -95t-169.5 -34.5zM434 -25q74 0 100.5 57t26.5 179q0 121 -26.5 178t-100.5 57
q-75 0 -103 -55.5t-28 -179.5q0 -122 27.5 -179t103.5 -57z" />
    <glyph glyph-name="uni2081" unicode="&#x2081;" horiz-adv-x="546" 
d="M203 -205v518q-40 -18 -176 -18v188q93 0 157.5 39.5t63.5 104.5h217v-832h-262z" />
    <glyph glyph-name="uni2082" unicode="&#x2082;" horiz-adv-x="768" 
d="M711 -205h-670q0 45 2.5 75t14.5 60t23.5 48.5t42 48t57.5 51t83 63.5q7 5 36 26.5t40 30t34.5 28.5t34 33.5t24 33t19 39.5t5.5 41q0 39 -19.5 58.5t-54.5 19.5q-46 0 -71 -29.5t-25 -108.5h-238q0 162 84.5 249t257.5 87q146 0 231 -68.5t85 -189.5q0 -47 -14.5 -91.5
t-31.5 -74t-51 -65t-52 -51t-56 -46.5q-65 -53 -76 -67v-2h285v-199z" />
    <glyph glyph-name="uni2083" unicode="&#x2083;" horiz-adv-x="786" 
d="M399 -225q-175 0 -269.5 83t-94.5 238h237q0 -66 26 -95.5t91 -29.5q96 0 96 82q0 44 -31.5 64t-103.5 20h-28v164h24q117 0 117 82q0 33 -21.5 50.5t-54.5 17.5q-41 0 -66.5 -20t-25.5 -62h-236q0 124 92 202t246 78q137 0 228.5 -62t91.5 -169q0 -112 -117 -182v-3
q139 -47 139 -196q0 -127 -91 -194.5t-249 -67.5z" />
    <glyph glyph-name="uni2084" unicode="&#x2084;" horiz-adv-x="829" 
d="M662 -205h-248v166h-367v246l367 420h248v-469h122v-197h-122v-166zM414 369l-193 -211h193v211z" />
    <glyph glyph-name="uni2085" unicode="&#x2085;" horiz-adv-x="802" 
d="M418 -225q-184 0 -282 76.5t-101 209.5h252q5 -37 34.5 -63.5t81.5 -26.5q47 0 73 28.5t26 82.5q0 117 -109 117q-58 0 -102 -49h-232l101 477h559v-197h-391l-25 -115v-2q79 52 170 52q128 0 204.5 -74.5t76.5 -210.5q0 -150 -93 -227.5t-243 -77.5z" />
    <glyph glyph-name="uni2086" unicode="&#x2086;" horiz-adv-x="817" 
d="M416 -225q-104 0 -178.5 36t-114 98.5t-57 132.5t-17.5 153q0 218 100.5 336t264.5 118q134 0 219.5 -64t109.5 -169h-239q-30 55 -96 55q-125 0 -138 -143l-2 -25l8 -2q24 26 78.5 48t118.5 22q136 0 217.5 -80.5t81.5 -210.5q0 -138 -98 -221.5t-258 -83.5zM414 -43
q57 0 90 33.5t33 85.5q0 48 -30.5 82.5t-88.5 34.5t-90.5 -34.5t-32.5 -82.5q0 -52 31.5 -85.5t87.5 -33.5z" />
    <glyph glyph-name="uni2087" unicode="&#x2087;" horiz-adv-x="681" 
d="M414 -205h-260q0 195 67.5 370t167.5 263v2h-366v197h626v-183q-123 -101 -179 -271t-56 -378z" />
    <glyph glyph-name="uni2088" unicode="&#x2088;" horiz-adv-x="808" 
d="M403 -225q-157 0 -257.5 68t-100.5 192q0 139 156 209v2q-121 68 -121 176q0 105 93.5 166t229.5 61q140 0 233 -61.5t93 -165.5q0 -110 -121 -176v-2q158 -71 158 -209q0 -124 -103 -192t-260 -68zM403 307q53 0 79 26.5t26 63.5q0 34 -26.5 60t-78.5 26t-78 -26
t-26 -60q0 -37 25 -63.5t79 -26.5zM403 -45q52 0 79.5 31.5t27.5 74.5q0 41 -27.5 71t-79.5 30t-79 -30t-27 -71q0 -42 26.5 -74t79.5 -32z" />
    <glyph glyph-name="uni2089" unicode="&#x2089;" horiz-adv-x="821" 
d="M403 -225q-129 0 -220 65t-115 168h251q27 -53 91 -53q54 0 85 35t31 102v10l-2 2q-23 -22 -72 -38.5t-110 -16.5q-134 0 -215.5 82t-81.5 213q0 138 98 221.5t258 83.5q85 0 151 -25.5t106.5 -67t67 -100t36.5 -118.5t10 -129q0 -208 -102 -321t-267 -113zM406 231
q58 0 87 34t29 83q0 52 -31.5 85.5t-87.5 33.5q-57 0 -89.5 -33.5t-32.5 -85.5q0 -48 33.5 -82.5t91.5 -34.5z" />
    <glyph glyph-name="Euro" unicode="&#x20ac;" horiz-adv-x="1435" 
d="M793 248q117 0 169 69t58 201h348q-5 -124 -41 -223.5t-104 -173.5t-175 -114t-247 -40t-248.5 39.5t-180.5 113t-115 168t-62 212.5h-109v137h96q-2 23 -2 65v35h-94v137h104q13 98 42 181t78.5 154.5t117 121t162.5 77.5t211 28q273 0 414.5 -148t152.5 -399h-348
q-8 129 -60 197.5t-167 68.5q-114 0 -174 -72t-80 -209h325v-137h-336v-35q0 -45 2 -65h334v-137h-321q23 -124 82.5 -188t167.5 -64z" />
    <glyph glyph-name="trademark" unicode="&#x2122;" horiz-adv-x="1439" 
d="M395 899h-205v385h-149v180h504v-180h-150v-385zM805 899h-184v565h256l100 -319h4l102 319h258v-565h-188v346h-4l-105 -346h-133l-102 346h-4v-346z" />
    <glyph glyph-name="uni2126" unicode="&#x2126;" horiz-adv-x="1638" 
d="M717 0h-647v299h313q-139 85 -213 221t-74 316q0 298 194 477.5t529 179.5t529 -179.5t194 -477.5q0 -180 -74 -316t-213 -221h314v-299h-647v276q264 169 264 506q0 208 -96 312t-271 104q-174 0 -270 -104t-96 -312q0 -337 264 -506v-276z" />
    <glyph glyph-name="oneeighth" unicode="&#x215b;" horiz-adv-x="1761" 
d="M203 633v518q-41 -18 -176 -18v188q93 0 157.5 39t63.5 104h217v-831h-262zM489 0h-286l927 1464h287zM1362 -20q-157 0 -257.5 68t-100.5 192q0 140 155 209v2q-121 68 -121 176q0 105 93.5 166t230.5 61q140 0 233 -61.5t93 -165.5q0 -110 -121 -176v-2
q157 -71 157 -209q0 -124 -102.5 -192t-259.5 -68zM1362 512q53 0 78.5 26.5t25.5 63.5q0 34 -26 60t-78 26t-78.5 -26t-26.5 -60q0 -37 25.5 -63.5t79.5 -26.5zM1362 160q52 0 79 31.5t27 74.5q0 41 -27 71t-79 30t-79.5 -30t-27.5 -71q0 -42 27 -74t80 -32z" />
    <glyph glyph-name="threeeighths" unicode="&#x215c;" horiz-adv-x="2029" 
d="M420 612q-175 0 -270 83.5t-95 238.5h238q0 -66 26 -95.5t91 -29.5q96 0 96 82q0 44 -31.5 64t-103.5 20h-29v164h25q116 0 116 82q0 33 -21 50t-54 17q-41 0 -67 -20t-26 -62h-235q0 124 92 202.5t246 78.5q137 0 228 -62.5t91 -169.5q0 -112 -116 -182v-2
q139 -47 139 -197q0 -127 -91 -194.5t-249 -67.5zM707 0h-287l928 1464h286zM1620 -20q-157 0 -257.5 68t-100.5 192q0 140 155 209v2q-121 68 -121 176q0 105 93.5 166t230.5 61q140 0 233 -61.5t93 -165.5q0 -110 -121 -176v-2q157 -71 157 -209q0 -124 -102.5 -192
t-259.5 -68zM1620 512q53 0 78.5 26.5t25.5 63.5q0 34 -26 60t-78 26t-78 -26t-26 -60q0 -37 25 -63.5t79 -26.5zM1620 160q52 0 79 31.5t27 74.5q0 41 -27 71t-79 30t-79.5 -30t-27.5 -71q0 -42 27 -74t80 -32z" />
    <glyph glyph-name="fiveeighths" unicode="&#x215d;" horiz-adv-x="2021" 
d="M426 612q-184 0 -282 76.5t-101 210.5h252q5 -37 35 -63.5t82 -26.5q47 0 72.5 28.5t25.5 82.5q0 116 -109 116q-58 0 -102 -49h-231l100 477h559v-196h-391l-25 -115v-2q77 51 170 51q129 0 205 -74.5t76 -209.5q0 -150 -93 -228t-243 -78zM700 0h-286l927 1464h287z
M1614 -20q-158 0 -258.5 68t-100.5 192q0 139 156 209v2q-121 68 -121 176q0 105 93.5 166t230.5 61q140 0 232.5 -61.5t92.5 -165.5q0 -110 -120 -176v-2q157 -71 157 -209q0 -124 -102.5 -192t-259.5 -68zM1614 512q53 0 78.5 26.5t25.5 63.5q0 34 -26 60t-78 26
t-78.5 -26t-26.5 -60q0 -37 25.5 -63.5t79.5 -26.5zM1614 160q52 0 79 31.5t27 74.5q0 41 -27 71t-79 30t-79.5 -30t-27.5 -71q0 -42 27 -74t80 -32z" />
    <glyph glyph-name="seveneighths" unicode="&#x215e;" horiz-adv-x="1822" 
d="M418 633h-260q0 195 67.5 370t167.5 263v2h-366v196h626v-182q-123 -101 -179 -271t-56 -378zM510 0h-287l928 1464h287zM1423 -20q-157 0 -257.5 68t-100.5 192q0 139 156 209v2q-121 68 -121 176q0 105 93.5 166t229.5 61q140 0 233 -61.5t93 -165.5q0 -110 -121 -176
v-2q158 -71 158 -209q0 -124 -103 -192t-260 -68zM1423 512q53 0 79 26.5t26 63.5q0 34 -26.5 60t-78.5 26t-78 -26t-26 -60q0 -37 25 -63.5t79 -26.5zM1423 160q52 0 79.5 31.5t27.5 74.5q0 41 -27.5 71t-79.5 30t-79 -30t-27 -71q0 -42 26.5 -74t79.5 -32z" />
    <glyph glyph-name="arrowleft" unicode="&#x2190;" horiz-adv-x="1579" 
d="M821 182l-157 -162l-588 635l588 635l157 -162l-327 -350h997v-246h-997z" />
    <glyph glyph-name="arrowup" unicode="&#x2191;" horiz-adv-x="1363" 
d="M805 0h-246v997l-350 -327l-162 157l635 588l635 -588l-162 -157l-350 327v-997z" />
    <glyph glyph-name="arrowright" unicode="&#x2192;" horiz-adv-x="1579" 
d="M1503 655l-588 -635l-157 162l327 350h-997v246h997l-327 350l157 162z" />
    <glyph glyph-name="arrowdown" unicode="&#x2193;" horiz-adv-x="1363" 
d="M1317 506l-635 -588l-635 588l162 158l350 -328v997h246v-997l350 328z" />
    <glyph glyph-name="arrowboth" unicode="&#x2194;" horiz-adv-x="2349" 
d="M813 182l-158 -164l-587 635l587 637l158 -162l-328 -350h1377l-326 350l156 162l587 -635l-585 -635l-158 162l328 350h-1379z" />
    <glyph glyph-name="arrowupdn" unicode="&#x2195;" horiz-adv-x="1351" 
d="M1311 225l-635 -587l-635 587l162 158l350 -328v1137l-350 -328l-162 158l635 588l635 -588l-162 -158l-350 328v-1137l350 328z" />
    <glyph glyph-name="uni2196" unicode="&#x2196;" horiz-adv-x="1247" 
d="M1196 317l-174 -174l-696 705v-479l-217 -2v864h864l-4 -209h-490z" />
    <glyph glyph-name="uni2197" unicode="&#x2197;" horiz-adv-x="1247" 
d="M922 848l-697 -705l-174 174l717 705h-489l-5 209h865v-864l-217 2v479z" />
    <glyph glyph-name="uni2198" unicode="&#x2198;" horiz-adv-x="1236" 
d="M1135 88h-865l4 209h490l-717 704l174 175l697 -705v479l217 2v-864z" />
    <glyph glyph-name="uni2199" unicode="&#x2199;" horiz-adv-x="1236" 
d="M967 88h-865v864l217 -2v-479l697 705l174 -175l-717 -704h490z" />
    <glyph glyph-name="partialdiff" unicode="&#x2202;" horiz-adv-x="1196" 
d="M545 -33q-233 0 -371.5 129t-138.5 348q0 100 35.5 195t95.5 167t144.5 115.5t176.5 43.5q113 0 181.5 -34t115.5 -95q-38 171 -157.5 259.5t-304.5 88.5v280q169 0 305.5 -42t230 -115.5t156 -177.5t91 -224t28.5 -258q0 -102 -19 -197t-63 -184t-110 -154.5t-168 -105
t-228 -39.5zM553 227q110 0 170.5 75t60.5 185q0 93 -48 155.5t-142 62.5q-109 0 -170.5 -75.5t-61.5 -183.5q0 -94 49 -156.5t142 -62.5z" />
    <glyph glyph-name="emptyset" unicode="&#x2205;" horiz-adv-x="1679" 
d="M1554 1321l-131 -131q170 -204 170 -483q0 -161 -58.5 -300t-159.5 -235t-239.5 -150.5t-295.5 -54.5q-275 0 -482 158l-133 -133l-102 102l131 131q-170 200 -170 482q0 214 101 384.5t273 263.5t382 93q275 0 479 -158l133 133zM227 707q0 -218 129 -379l858 858
q-160 119 -374 119q-169 0 -308.5 -74.5t-222 -212t-82.5 -311.5zM840 111q168 0 307 74.5t221 211.5t82 310q0 219 -129 380l-858 -858q158 -118 377 -118z" />
    <glyph glyph-name="uni2206" unicode="&#x2206;" horiz-adv-x="1404" 
d="M502 1464h401l459 -1163v-301h-1319v301zM711 1126h-19l-307 -835h633z" />
    <glyph glyph-name="product" unicode="&#x220f;" horiz-adv-x="1501" 
d="M471 -205h-348v1669h1255v-1669h-348v1389h-559v-1389z" />
    <glyph glyph-name="summation" unicode="&#x2211;" horiz-adv-x="1241" 
d="M1188 -205h-1127v287l517 563v4l-517 531v284h1106v-280h-698v-4l457 -455v-143l-471 -502v-4h733v-281z" />
    <glyph glyph-name="minus" unicode="&#x2212;" horiz-adv-x="1175" 
d="M1085 532h-995v283h995v-283z" />
    <glyph glyph-name="uni2219" unicode="&#x2219;" horiz-adv-x="700" 
d="M506 553h-311v311h311v-311z" />
    <glyph glyph-name="radical" unicode="&#x221a;" horiz-adv-x="1400" 
d="M825 -205h-327l-260 670h-158v280h383l196 -536h5l360 1255h348z" />
    <glyph glyph-name="infinity" unicode="&#x221e;" horiz-adv-x="1562" 
d="M434 244q-68 0 -130 24t-111.5 69.5t-79 120t-29.5 167.5q0 95 29.5 169.5t79 119.5t111 68.5t130.5 23.5q200 0 346 -175h4q146 175 344 175q69 0 130.5 -23.5t111.5 -68.5t79.5 -119.5t29.5 -169.5q0 -93 -29.5 -167.5t-79.5 -120t-112 -69.5t-130 -24
q-103 0 -186.5 54.5t-157.5 143.5h-4q-166 -198 -346 -198zM449 469q35 0 66 12t60 38.5t47 47t48 58.5q-30 38 -48 58.5t-47 46.5t-60 38t-66 12q-69 0 -104.5 -45.5t-35.5 -109.5q0 -65 35.5 -110.5t104.5 -45.5zM1114 469q69 0 104 45.5t35 110.5t-35 110t-104 45
q-35 0 -66 -12t-60 -38t-47 -46.5t-48 -58.5q30 -38 48 -58.5t47 -47t60 -38.5t66 -12z" />
    <glyph glyph-name="integral" unicode="&#x222b;" horiz-adv-x="827" 
d="M260 -362q-135 0 -233 20v246q47 -13 79 -13q134 0 134 177v1087q0 183 76 273t251 90q131 0 234 -21v-246q-47 13 -80 13q-133 0 -133 -177v-1087q0 -183 -76.5 -272.5t-251.5 -89.5z" />
    <glyph glyph-name="approxequal" unicode="&#x2248;" horiz-adv-x="1173" 
d="M299 670h-205q0 182 60 270t184 88q75 0 248.5 -46t214.5 -46q84 0 84 92h205q0 -182 -60 -270t-184 -88q-75 0 -248.5 46t-214.5 46q-84 0 -84 -92zM299 229h-205q0 182 60 270.5t184 88.5q75 0 248.5 -46t214.5 -46q84 0 84 92h205q0 -182 -60 -270.5t-184 -88.5
q-75 0 -248.5 46.5t-214.5 46.5q-84 0 -84 -93z" />
    <glyph glyph-name="notequal" unicode="&#x2260;" horiz-adv-x="1144" 
d="M1055 1032v-282h-346l-72 -152h418v-283h-553l-74 -157h-205l74 157h-207v283h342l72 152h-414v282h547l76 160h205l-76 -160h213z" />
    <glyph glyph-name="lessequal" unicode="&#x2264;" horiz-adv-x="1011" 
d="M920 547v-281l-844 283v307l844 283v-281l-568 -153v-5zM920 0h-844v246h844v-246z" />
    <glyph glyph-name="greaterequal" unicode="&#x2265;" horiz-adv-x="1011" 
d="M936 549l-844 -283v281l567 153v5l-567 153v281l844 -283v-307zM936 0h-844v246h844v-246z" />
    <glyph glyph-name="uni2266" unicode="&#x2266;" horiz-adv-x="1142" 
d="M1038 1434v-260l-630 -193v-4l630 -193v-450h-946v239h799l-799 269v276zM1038 0h-946v240h946v-240z" />
    <glyph glyph-name="uni2267" unicode="&#x2267;" horiz-adv-x="1142" 
d="M104 1434l947 -316v-276l-799 -269h799v-239h-947v450l631 193v4l-631 193v260zM1051 0h-947v240h947v-240z" />
    <glyph glyph-name="uni2460" unicode="&#x2460;" horiz-adv-x="1703" 
d="M852 -33q-353 0 -559.5 206t-206.5 558q0 353 206.5 559.5t559.5 206.5t559.5 -206.5t206.5 -559.5q0 -352 -206.5 -558t-559.5 -206zM852 162q254 0 397.5 151.5t143.5 417.5t-143.5 419t-397.5 153t-397.5 -153t-143.5 -419t143.5 -417.5t397.5 -151.5zM748 319v519
q-43 -19 -177 -19v189q93 0 158 39t64 104h217v-832h-262z" />
    <glyph glyph-name="uni2461" unicode="&#x2461;" horiz-adv-x="1703" 
d="M852 -33q-353 0 -559.5 206t-206.5 558q0 353 206.5 559.5t559.5 206.5t559.5 -206.5t206.5 -559.5q0 -352 -206.5 -558t-559.5 -206zM852 162q254 0 397.5 151.5t143.5 417.5t-143.5 419t-397.5 153t-397.5 -153t-143.5 -419t143.5 -417.5t397.5 -151.5zM1188 319h-670
q0 45 2.5 75t14 60t23.5 49t42.5 48t58 51t82.5 64q9 6 36.5 26.5t39 29.5t34.5 28.5t34 33.5t24.5 33t19 39t5.5 41q0 39 -19.5 58.5t-54.5 19.5q-46 0 -71 -29t-25 -108h-238q0 162 84.5 249t257.5 87q146 0 231 -69t85 -190q0 -47 -14.5 -91.5t-31.5 -73.5t-51.5 -65
t-52 -51t-55.5 -46q-63 -51 -76 -68v-2h285v-199z" />
    <glyph glyph-name="uni2462" unicode="&#x2462;" horiz-adv-x="1703" 
d="M852 -33q-353 0 -559.5 206t-206.5 558q0 353 206.5 559.5t559.5 206.5t559.5 -206.5t206.5 -559.5q0 -352 -206.5 -558t-559.5 -206zM852 162q254 0 397.5 151.5t143.5 417.5t-143.5 419t-397.5 153t-397.5 -153t-143.5 -419t143.5 -417.5t397.5 -151.5zM864 295
q-175 0 -269.5 83t-94.5 238h237q0 -66 26 -95t91 -29q96 0 96 81q0 44 -31.5 64t-103.5 20h-29v164h25q117 0 117 82q0 33 -21.5 50.5t-54.5 17.5q-41 0 -66.5 -20t-25.5 -62h-236q0 124 92 202t246 78q137 0 228.5 -62t91.5 -169q0 -112 -117 -182v-2q139 -47 139 -197
q0 -127 -91 -194.5t-249 -67.5z" />
    <glyph glyph-name="uni2463" unicode="&#x2463;" horiz-adv-x="1703" 
d="M852 -33q-353 0 -559.5 206t-206.5 558q0 353 206.5 559.5t559.5 206.5t559.5 -206.5t206.5 -559.5q0 -352 -206.5 -558t-559.5 -206zM852 162q254 0 397.5 151.5t143.5 417.5t-143.5 419t-397.5 153t-397.5 -153t-143.5 -419t143.5 -417.5t397.5 -151.5zM1098 315h-248
v166h-367v246l367 420h248v-469h123v-197h-123v-166zM850 889l-193 -211h193v211z" />
    <glyph glyph-name="uni2464" unicode="&#x2464;" horiz-adv-x="1703" 
d="M852 -33q-353 0 -559.5 206t-206.5 558q0 353 206.5 559.5t559.5 206.5t559.5 -206.5t206.5 -559.5q0 -352 -206.5 -558t-559.5 -206zM852 162q254 0 397.5 151.5t143.5 417.5t-143.5 419t-397.5 153t-397.5 -153t-143.5 -419t143.5 -417.5t397.5 -151.5zM877 295
q-184 0 -282 76.5t-101 210.5h251q5 -37 35 -63.5t82 -26.5q48 0 73.5 28t25.5 82q0 117 -109 117q-58 0 -102 -49h-232l100 477h560v-197h-392l-24 -114v-2q77 51 170 51q128 0 204 -74.5t76 -210.5q0 -150 -92.5 -227.5t-242.5 -77.5z" />
    <glyph glyph-name="uni2465" unicode="&#x2465;" horiz-adv-x="1703" 
d="M852 -33q-353 0 -559.5 206t-206.5 558q0 353 206.5 559.5t559.5 206.5t559.5 -206.5t206.5 -559.5q0 -352 -206.5 -558t-559.5 -206zM852 162q254 0 397.5 151.5t143.5 417.5t-143.5 419t-397.5 153t-397.5 -153t-143.5 -419t143.5 -417.5t397.5 -151.5zM858 295
q-84 0 -149 24.5t-105 64t-66 95.5t-36 113.5t-10 122.5q0 218 100 336t264 118q134 0 220 -64t110 -169h-240q-30 55 -96 55q-124 0 -137 -143l-2 -25l8 -2q24 26 78 48t118 22q136 0 217.5 -80.5t81.5 -210.5q0 -138 -98 -221.5t-258 -83.5zM856 477q57 0 90 33.5t33 85.5
q0 48 -30.5 82.5t-88.5 34.5t-90.5 -34.5t-32.5 -82.5q0 -52 31.5 -85.5t87.5 -33.5z" />
    <glyph glyph-name="uni2466" unicode="&#x2466;" horiz-adv-x="1703" 
d="M852 -33q-353 0 -559.5 206t-206.5 558q0 353 206.5 559.5t559.5 206.5t559.5 -206.5t206.5 -559.5q0 -352 -206.5 -558t-559.5 -206zM852 162q254 0 397.5 151.5t143.5 417.5t-143.5 419t-397.5 153t-397.5 -153t-143.5 -419t143.5 -417.5t397.5 -151.5zM930 293h-260
q0 195 67.5 370t167.5 263v2h-366v196h626v-182q-123 -101 -179 -271t-56 -378z" />
    <glyph glyph-name="uni2467" unicode="&#x2467;" horiz-adv-x="1703" 
d="M852 -33q-353 0 -559.5 206t-206.5 558q0 353 206.5 559.5t559.5 206.5t559.5 -206.5t206.5 -559.5q0 -352 -206.5 -558t-559.5 -206zM852 162q254 0 397.5 151.5t143.5 417.5t-143.5 419t-397.5 153t-397.5 -153t-143.5 -419t143.5 -417.5t397.5 -151.5zM850 295
q-157 0 -257.5 68t-100.5 192q0 140 155 209v2q-121 68 -121 176q0 105 93.5 166t230.5 61q140 0 233 -61.5t93 -165.5q0 -110 -121 -176v-2q157 -71 157 -209q0 -124 -102.5 -192t-259.5 -68zM850 827q53 0 78.5 27t25.5 64q0 34 -26 60t-78 26t-78.5 -26t-26.5 -60
q0 -37 25.5 -64t79.5 -27zM850 475q52 0 79 32t27 75q0 41 -27 70.5t-79 29.5t-79.5 -29.5t-27.5 -70.5q0 -42 27 -74.5t80 -32.5z" />
    <glyph glyph-name="uni2468" unicode="&#x2468;" horiz-adv-x="1703" 
d="M852 -33q-353 0 -559.5 206t-206.5 558q0 353 206.5 559.5t559.5 206.5t559.5 -206.5t206.5 -559.5q0 -352 -206.5 -558t-559.5 -206zM852 162q254 0 397.5 151.5t143.5 417.5t-143.5 419t-397.5 153t-397.5 -153t-143.5 -419t143.5 -417.5t397.5 -151.5zM848 295
q-129 0 -220.5 65t-115.5 168h252q27 -53 90 -53q54 0 85.5 35t31.5 102v11l-2 2q-23 -22 -72.5 -39t-110.5 -17q-134 0 -215.5 82t-81.5 213q0 138 98.5 221.5t258.5 83.5q85 0 151 -25.5t106.5 -67t67 -100t36.5 -118.5t10 -129q0 -208 -102 -321t-267 -113zM850 752
q58 0 87.5 33.5t29.5 82.5q0 52 -31.5 85.5t-87.5 33.5q-57 0 -90 -33.5t-33 -85.5q0 -47 33.5 -81.5t91.5 -34.5z" />
    <glyph glyph-name="uni24EA" unicode="&#x24ea;" horiz-adv-x="1703" 
d="M852 -33q-353 0 -559.5 206t-206.5 558q0 353 206.5 559.5t559.5 206.5t559.5 -206.5t206.5 -559.5q0 -352 -206.5 -558t-559.5 -206zM852 162q254 0 397.5 151.5t143.5 417.5t-143.5 419t-397.5 153t-397.5 -153t-143.5 -419t143.5 -417.5t397.5 -151.5zM854 297
q-95 0 -170.5 35t-122 95.5t-70.5 138t-24 165.5t24 165.5t70.5 138.5t122 96.5t170.5 35.5t170 -35t120.5 -96t69 -138.5t23.5 -166.5t-23.5 -166.5t-69.5 -138t-120.5 -95t-169.5 -34.5zM854 496q74 0 100.5 57t26.5 178q0 122 -26.5 179t-100.5 57q-75 0 -103 -55.5
t-28 -180.5q0 -122 27.5 -178.5t103.5 -56.5z" />
    <glyph glyph-name="upblock" unicode="&#x2580;" horiz-adv-x="1673" 
d="M1569 731h-1465v733h1465v-733z" />
    <glyph glyph-name="dnblock" unicode="&#x2584;" horiz-adv-x="1677" 
d="M1571 0h-1465v733h1465v-733z" />
    <glyph glyph-name="block" unicode="&#x2588;" horiz-adv-x="1710" 
d="M1587 0h-1464v1464h1464v-1464z" />
    <glyph glyph-name="filledbox" unicode="&#x25a0;" horiz-adv-x="1710" 
d="M1587 0h-1464v1464h1464v-1464z" />
    <glyph glyph-name="uni25A1" unicode="&#x25a1;" horiz-adv-x="1710" 
d="M1587 0h-1464v1464h1464v-1464zM369 1219v-973h972v973h-972z" />
    <glyph glyph-name="uni25AA" unicode="&#x25aa;" horiz-adv-x="774" 
d="M674 369h-574v573h574v-573z" />
    <glyph glyph-name="uni25AB" unicode="&#x25ab;" horiz-adv-x="856" 
d="M756 328h-656v655h656v-655zM346 737v-164h164v164h-164z" />
    <glyph glyph-name="triagup" unicode="&#x25b2;" horiz-adv-x="1687" 
d="M1663 0h-1638l819 1464z" />
    <glyph glyph-name="triagrt" unicode="&#x25ba;" horiz-adv-x="1669" 
d="M1610 731l-1465 -819v1638z" />
    <glyph glyph-name="triagdn" unicode="&#x25bc;" horiz-adv-x="1687" 
d="M1663 1464l-819 -1464l-819 1464h1638z" />
    <glyph glyph-name="triaglf" unicode="&#x25c4;" horiz-adv-x="1669" 
d="M1524 1550v-1638l-1465 819z" />
    <glyph glyph-name="lozenge" unicode="&#x25ca;" horiz-adv-x="1290" 
d="M811 0h-330l-413 731l411 733h330l414 -733zM416 731l229 -450h4l225 450l-229 453h-4z" />
    <glyph glyph-name="circle" unicode="&#x25cb;" horiz-adv-x="1703" 
d="M852 -33q-353 0 -559.5 206t-206.5 558q0 353 206.5 559.5t559.5 206.5t559.5 -206.5t206.5 -559.5q0 -352 -206.5 -558t-559.5 -206zM852 162q254 0 397.5 151.5t143.5 417.5t-143.5 419t-397.5 153t-397.5 -153t-143.5 -419t143.5 -417.5t397.5 -151.5z" />
    <glyph glyph-name="uni25CF" unicode="&#x25cf;" horiz-adv-x="1697" 
d="M850 -33q-156 0 -298 60.5t-244.5 163t-163 244t-60.5 296.5q0 208 102.5 384t279 279t384.5 103q155 0 296.5 -61t244 -163.5t163 -244.5t60.5 -297t-60.5 -296.5t-163 -244t-244 -163t-296.5 -60.5z" />
    <glyph glyph-name="uni2B0E" unicode="&#x2b0e;" horiz-adv-x="1454" 
d="M881 377l350 328l162 -158l-635 -588l-635 588l162 158l350 -328v446h-594v226h840v-672z" />
    <glyph glyph-name="uni2B0F" unicode="&#x2b0f;" horiz-adv-x="1458" 
d="M123 502l635 588l635 -588l-162 -158l-350 328v-672h-840v225h594v447l-350 -328z" />
    <glyph glyph-name="uni2B10" unicode="&#x2b10;" horiz-adv-x="1454" 
d="M1411 1040v-225h-594v-446l350 327l162 -157l-635 -588l-635 588l162 157l350 -327v671h840z" />
    <glyph glyph-name="uni2B11" unicode="&#x2b11;" horiz-adv-x="1458" 
d="M823 672v-447h594v-225h-839v672l-351 -328l-161 158l634 588l635 -588l-161 -158z" />
    <glyph glyph-name="uni2BA0" unicode="&#x2ba0;" horiz-adv-x="1261" 
d="M932 639v594h225v-840h-672l328 -350l-158 -162l-587 635l587 635l158 -162l-328 -350h447z" />
    <glyph glyph-name="uni2BA1" unicode="&#x2ba1;" horiz-adv-x="1261" 
d="M449 989l157 162l588 -635l-588 -635l-157 162l327 350h-672v840h226v-594h446z" />
    <glyph glyph-name="uni2BA2" unicode="&#x2ba2;" horiz-adv-x="1253" 
d="M811 1020l-328 -350h672v-840h-225v594h-447l328 -350l-158 -162l-587 635l587 635z" />
    <glyph glyph-name="uni2BA3" unicode="&#x2ba3;" horiz-adv-x="1253" 
d="M442 1020l158 162l588 -635l-588 -635l-158 162l328 350h-446v-594h-226v840h672z" />
    <glyph glyph-name="uni2BA4" unicode="&#x2ba4;" horiz-adv-x="1454" 
d="M819 668v-447h594v-225h-840v672l-350 -328l-162 158l635 587l635 -587l-162 -158z" />
    <glyph glyph-name="uni2BA5" unicode="&#x2ba5;" horiz-adv-x="1458" 
d="M123 502l635 588l635 -588l-162 -158l-350 328v-672h-840v225h594v447l-350 -328z" />
    <glyph glyph-name="uni2BA6" unicode="&#x2ba6;" horiz-adv-x="1454" 
d="M1411 1040v-225h-594v-446l350 327l162 -157l-635 -588l-635 588l162 157l350 -327v671h840z" />
    <glyph glyph-name="uni2BA7" unicode="&#x2ba7;" horiz-adv-x="1454" 
d="M881 377l350 328l162 -158l-635 -588l-635 588l162 158l350 -328v446h-594v226h840v-672z" />
    <glyph glyph-name="fi" unicode="&#xfb01;" horiz-adv-x="1220" 
d="M182 1049v73q0 191 77 276t247 85q81 0 186 -21v-231q-59 6 -82 6q-51 0 -75.5 -23t-24.5 -100v-65h182v-246h-182v-803h-328v803h-141v246h141zM803 1174v290h327v-290h-327zM1130 0h-327v1049h327v-1049z" />
    <glyph glyph-name="fl" unicode="&#xfb02;" horiz-adv-x="1220" 
d="M182 1049v73q0 191 77 276t247 85q81 0 186 -21v-231q-59 6 -82 6q-51 0 -75.5 -23t-24.5 -100v-65h182v-246h-182v-803h-328v803h-141v246h141zM803 0v1464h327v-1464h-327z" />
    <glyph glyph-name="uniFEFF" unicode="&#xfeff;" 
 />
    <glyph glyph-name="u1F150" unicode="&#x1f150;" horiz-adv-x="1204" 
d="M602 498q-209 0 -354.5 143t-145.5 356t145.5 356.5t354.5 143.5t354.5 -143.5t145.5 -356.5t-145.5 -356t-354.5 -143z" />
    <glyph glyph-name="Adieresis.ss02" horiz-adv-x="1466" 
d="M532 1579q-74 0 -115.5 45t-41.5 111t42.5 110.5t114.5 44.5t114 -44.5t42 -110.5t-42 -111t-114 -45zM932 1579q-74 0 -116 45t-42 111t42.5 110.5t115.5 44.5q72 0 113.5 -44.5t41.5 -110.5t-41.5 -111t-113.5 -45zM385 0h-395l557 1464h371l561 -1464h-404l-94 305
h-502zM729 1126l-166 -540h336l-166 540h-4z" />
    <glyph glyph-name="Cdotaccent.ss02" horiz-adv-x="1464" 
d="M782 1565q-77 0 -120.5 46t-43.5 115t44.5 116.5t119.5 47.5t119.5 -47.5t44.5 -116.5t-44 -115t-120 -46zM762 -33q-137 0 -251 37t-197 105t-140 162.5t-85 209t-28 246.5q0 169 46.5 310t135 243.5t224 159.5t305.5 57q147 0 264 -42t196.5 -119t126.5 -182t60 -234
h-377q-11 64 -29 111t-50.5 86t-84 59t-122.5 20q-89 0 -152 -33t-98.5 -96.5t-51.5 -145t-16 -188.5q0 -108 15.5 -190t51.5 -145.5t99 -96.5t152 -33q72 0 124 20t84 59.5t50 87.5t28 114h377q-26 -262 -195.5 -422t-461.5 -160z" />
    <glyph glyph-name="Edieresis.ss02" horiz-adv-x="1314" 
d="M485 1579q-74 0 -115.5 45t-41.5 111t42.5 110.5t114.5 44.5t114 -44.5t42 -110.5t-42 -111t-114 -45zM885 1579q-74 0 -116 45t-42 111t42.5 110.5t115.5 44.5q72 0 113.5 -44.5t41.5 -110.5t-41.5 -111t-113.5 -45zM1245 0h-1122v1464h1110v-301h-741v-260h638v-301
h-638v-301h753v-301z" />
    <glyph glyph-name="Edotaccent.ss02" horiz-adv-x="1314" 
d="M684 1565q-77 0 -120.5 46t-43.5 115t44.5 116.5t119.5 47.5t119.5 -47.5t44.5 -116.5t-44 -115t-120 -46zM1245 0h-1122v1464h1110v-301h-741v-260h638v-301h-638v-301h753v-301z" />
    <glyph glyph-name="uni0122.ss02" horiz-adv-x="1538" 
d="M725 -33q-153 0 -278.5 57.5t-210 159.5t-130 243t-45.5 306q0 222 80 393t242 271t387 100q146 0 266.5 -41t201.5 -113t130 -164.5t62 -199.5h-377q-12 44 -29 77.5t-48.5 67.5t-85.5 53t-126 19q-326 0 -326 -463q0 -108 17.5 -190t56 -145.5t105.5 -96.5t161 -33
q127 0 208.5 69t84.5 175h-278v266h659v-778h-264l-37 186h-4q-55 -104 -160.5 -161.5t-261.5 -57.5zM612 -584v105q82 9 130.5 38.5t48.5 78.5q-85 -15 -141 21t-56 110q0 64 46 101.5t120 37.5q86 0 132 -51t46 -140q0 -117 -83.5 -202t-242.5 -99z" />
    <glyph glyph-name="Gdotaccent.ss02" horiz-adv-x="1538" 
d="M768 1565q-77 0 -120.5 46t-43.5 115t44.5 116.5t119.5 47.5t119.5 -47.5t44.5 -116.5t-44 -115t-120 -46zM725 -33q-153 0 -278.5 57.5t-210 159.5t-130 243t-45.5 306q0 222 80 393t242 271t387 100q146 0 266.5 -41t201.5 -113t130 -164.5t62 -199.5h-377
q-12 44 -29 77.5t-48.5 67.5t-85.5 53t-126 19q-326 0 -326 -463q0 -108 17.5 -190t56 -145.5t105.5 -96.5t161 -33q127 0 208.5 69t84.5 175h-278v266h659v-778h-264l-37 186h-4q-55 -104 -160.5 -161.5t-261.5 -57.5z" />
    <glyph glyph-name="Idieresis.ss02" horiz-adv-x="614" 
d="M109 1579q-74 0 -116 45t-42 111t42.5 110.5t115.5 44.5q72 0 113.5 -44.5t41.5 -110.5t-41.5 -111t-113.5 -45zM508 1579q-74 0 -116 45t-42 111t42.5 110.5t115.5 44.5q72 0 114 -44.5t42 -110.5t-42 -111t-114 -45zM492 0h-369v1464h369v-1464z" />
    <glyph glyph-name="Idotaccent.ss02" horiz-adv-x="614" 
d="M307 1565q-77 0 -120.5 46t-43.5 115t44.5 116.5t119.5 47.5t119.5 -47.5t44.5 -116.5t-44 -115t-120 -46zM492 0h-369v1464h369v-1464z" />
    <glyph glyph-name="uni0136.ss02" horiz-adv-x="1413" 
d="M1411 1464l-551 -641l592 -823h-430l-379 571l-151 -176v-395h-369v1464h369v-624l524 624h395zM741 -92q86 0 132.5 -51t46.5 -140q0 -117 -83.5 -202t-242.5 -99v105q178 21 178 117q-85 -15 -141 21t-56 110q0 64 46 101.5t120 37.5z" />
    <glyph glyph-name="uni013B.ss02" horiz-adv-x="1173" 
d="M1143 0h-1020v1464h369v-1163h651v-301zM479 -584v105q178 21 178 117q-84 -15 -140 21t-56 110q0 64 46 101.5t120 37.5q86 0 132 -51t46 -140q0 -117 -83.5 -202t-242.5 -99z" />
    <glyph glyph-name="uni0145.ss02" horiz-adv-x="1499" 
d="M492 0h-369v1464h369l512 -870h4v870h368v-1464h-368l-512 870h-4v-870zM596 -584v105q178 21 178 117q-84 -15 -140 21t-56 110q0 64 45.5 101.5t119.5 37.5q86 0 132.5 -51t46.5 -140q0 -117 -83.5 -202t-242.5 -99z" />
    <glyph glyph-name="Odieresis.ss02" horiz-adv-x="1572" 
d="M588 1579q-74 0 -116 45t-42 111t42.5 110.5t115.5 44.5q72 0 113.5 -44.5t41.5 -110.5t-41.5 -111t-113.5 -45zM987 1579q-74 0 -116 45t-42 111t42.5 110.5t115.5 44.5q72 0 114 -44.5t42 -110.5t-42 -111t-114 -45zM786 -33q-171 0 -309 57.5t-228.5 160t-139 242.5
t-48.5 306q0 222 83 393t249 271t393 100q225 0 391 -99.5t250 -271.5t84 -393q0 -166 -49 -306.5t-140 -242.5t-228.5 -159.5t-307.5 -57.5zM786 268q97 0 166.5 36t108.5 101.5t56.5 146t17.5 181.5q0 100 -17.5 180t-56.5 145.5t-108.5 101.5t-166.5 36q-348 0 -348 -463
q0 -465 348 -465z" />
    <glyph glyph-name="uni0156.ss02" horiz-adv-x="1409" 
d="M492 0h-369v1464h690q246 0 384 -109.5t138 -307.5q0 -150 -78.5 -242.5t-218.5 -124.5v-4q75 -13 128.5 -54.5t80.5 -98.5t43 -123.5t21.5 -131t9 -118.5t11.5 -89.5t24 -40.5v-20h-383q-16 14 -22 59t-5.5 100.5t-8.5 118t-27.5 114t-66.5 85t-122 33.5h-229v-510z
M492 811h249q226 0 226 176t-226 176h-249v-352zM586 -584v105q178 21 178 117q-85 -15 -141 21t-56 110q0 64 46 101.5t120 37.5q86 0 132 -51t46 -140q0 -75 -33.5 -138t-109 -108t-182.5 -55z" />
    <glyph glyph-name="uni0218.ss02" horiz-adv-x="1345" 
d="M713 -33q-193 0 -344 62t-239.5 183.5t-88.5 285.5h373q0 -121 80.5 -177.5t214.5 -56.5q100 0 153 36t53 95q0 28 -9 51.5t-30.5 42t-44.5 32.5t-62.5 28.5t-72 25t-85.5 26.5q-29 8 -44 13q-87 27 -149 51t-129 62t-108 81t-68 106t-27 139q0 93 28.5 168t79.5 126
t122.5 85t154.5 49.5t180 15.5q172 0 310 -56.5t222 -166t89 -254.5h-373q-12 85 -77 132.5t-171 47.5q-87 0 -137.5 -30t-50.5 -91q0 -69 57.5 -105t210.5 -81q213 -63 297 -102q189 -86 241 -226q23 -61 23 -135q0 -213 -153.5 -338t-425.5 -125zM557 -584v105
q178 21 178 117q-84 -15 -140 21t-56 110q0 64 46 101.5t120 37.5q86 0 132 -51t46 -140q0 -117 -83.5 -202t-242.5 -99z" />
    <glyph glyph-name="uni021A.ss02" horiz-adv-x="1280" 
d="M825 0h-368v1163h-426v301h1218v-301h-424v-1163zM487 -584v105q82 9 130.5 38.5t48.5 78.5q-85 -15 -141 21t-56 110q0 64 46 101.5t120 37.5q86 0 132 -51t46 -140q0 -117 -83.5 -202t-242.5 -99z" />
    <glyph glyph-name="Udieresis.ss02" horiz-adv-x="1445" 
d="M524 1579q-74 0 -115.5 45t-41.5 111t42.5 110.5t114.5 44.5t114 -44.5t42 -110.5t-42 -111t-114 -45zM924 1579q-74 0 -116 45t-42 111t42.5 110.5t115.5 44.5q72 0 113.5 -44.5t41.5 -110.5t-41.5 -111t-113.5 -45zM723 -33q-323 0 -467.5 139.5t-144.5 421.5v936h368
v-936q0 -139 59.5 -199.5t184.5 -60.5t184.5 60.5t59.5 199.5v936h368v-936q0 -282 -144.5 -421.5t-467.5 -139.5z" />
    <glyph glyph-name="Wdieresis.ss02" horiz-adv-x="1957" 
d="M780 1579q-74 0 -115.5 45t-41.5 111t42.5 110.5t114.5 44.5t114 -44.5t42 -110.5t-42 -111t-114 -45zM1180 1579q-74 0 -116 45t-42 111t42.5 110.5t115.5 44.5q72 0 113.5 -44.5t41.5 -110.5t-41.5 -111t-113.5 -45zM758 0h-369l-373 1464h369l188 -993h5l227 993h348
l227 -993h4l189 993h369l-373 -1464h-369l-219 913h-4z" />
    <glyph glyph-name="Ydieresis.ss02" horiz-adv-x="1366" 
d="M487 1579q-74 0 -115.5 45t-41.5 111t42.5 110.5t114.5 44.5t114 -44.5t42 -110.5t-42 -111t-114 -45zM887 1579q-74 0 -116 45t-42 111t42.5 110.5t115.5 44.5q72 0 113.5 -44.5t41.5 -110.5t-41.5 -111t-113.5 -45zM868 0h-368v541l-500 923h397l285 -622h4l287 622
h389l-494 -923v-541z" />
    <glyph glyph-name="Zdotaccent.ss02" horiz-adv-x="1255" 
d="M645 1565q-77 0 -120.5 46t-43.5 115t44.5 116.5t119.5 47.5t119.5 -47.5t44.5 -116.5t-44 -115t-120 -46zM1194 0h-1141v301l670 858v4h-629v301h1080v-301l-670 -858v-4h690v-301z" />
    <glyph glyph-name="i.latn_TRK" horiz-adv-x="507" 
d="M418 1174h-328v290h328v-290zM418 0h-328v1049h328v-1049z" />
    <glyph glyph-name="a.ss01" horiz-adv-x="1228" 
d="M811 944v105h328v-1049h-328v104h-4q-38 -51 -119 -94t-184 -43q-210 0 -333.5 150t-123.5 407t123.5 407t333.5 150q103 0 184 -43t119 -94h4zM594 213q101 0 156 79.5t55 231.5t-55 232t-156 80t-156 -80t-55 -232t55 -231.5t156 -79.5z" />
    <glyph glyph-name="aacute.ss01" horiz-adv-x="1228" 
d="M567 1485h369l-231 -311h-246zM811 944v105h328v-1049h-328v104h-4q-38 -51 -119 -94t-184 -43q-210 0 -333.5 150t-123.5 407t123.5 407t333.5 150q103 0 184 -43t119 -94h4zM594 213q101 0 156 79.5t55 231.5t-55 232t-156 80t-156 -80t-55 -232t55 -231.5t156 -79.5z
" />
    <glyph glyph-name="abreve.ss01" horiz-adv-x="1228" 
d="M582 1157q-141 0 -232.5 85t-95.5 226h188q5 -52 40 -81t100 -29q129 0 139 110h188q-6 -139 -95.5 -225t-231.5 -86zM811 944v105h328v-1049h-328v104h-4q-38 -51 -119 -94t-184 -43q-210 0 -333.5 150t-123.5 407t123.5 407t333.5 150q103 0 184 -43t119 -94h4z
M594 213q101 0 156 79.5t55 231.5t-55 232t-156 80t-156 -80t-55 -232t55 -231.5t156 -79.5z" />
    <glyph glyph-name="acircumflex.ss01" horiz-adv-x="1228" 
d="M584 1339h-4l-93 -165h-284l219 311h319l220 -311h-285zM811 944v105h328v-1049h-328v104h-4q-38 -51 -119 -94t-184 -43q-210 0 -333.5 150t-123.5 407t123.5 407t333.5 150q103 0 184 -43t119 -94h4zM594 213q101 0 156 79.5t55 231.5t-55 232t-156 80t-156 -80
t-55 -232t55 -231.5t156 -79.5z" />
    <glyph glyph-name="adieresis.ss01" horiz-adv-x="1228" 
d="M205 1464h327v-290h-327v290zM631 1464h327v-290h-327v290zM811 944v105h328v-1049h-328v104h-4q-38 -51 -119 -94t-184 -43q-210 0 -333.5 150t-123.5 407t123.5 407t333.5 150q103 0 184 -43t119 -94h4zM594 213q101 0 156 79.5t55 231.5t-55 232t-156 80t-156 -80
t-55 -232t55 -231.5t156 -79.5z" />
    <glyph glyph-name="agrave.ss01" horiz-adv-x="1228" 
d="M592 1489l108 -311h-245l-191 311h328zM811 944v105h328v-1049h-328v104h-4q-38 -51 -119 -94t-184 -43q-210 0 -333.5 150t-123.5 407t123.5 407t333.5 150q103 0 184 -43t119 -94h4zM594 213q101 0 156 79.5t55 231.5t-55 232t-156 80t-156 -80t-55 -232t55 -231.5
t156 -79.5z" />
    <glyph glyph-name="amacron.ss01" horiz-adv-x="1228" 
d="M289 1378h585v-204h-585v204zM811 944v105h328v-1049h-328v104h-4q-38 -51 -119 -94t-184 -43q-210 0 -333.5 150t-123.5 407t123.5 407t333.5 150q103 0 184 -43t119 -94h4zM594 213q101 0 156 79.5t55 231.5t-55 232t-156 80t-156 -80t-55 -232t55 -231.5t156 -79.5z
" />
    <glyph glyph-name="aogonek.ss01" horiz-adv-x="1228" 
d="M1139 0h-88q-37 -32 -51 -44.5t-30 -35.5t-16 -43q0 -45 64 -45q33 0 84 14v-184q-86 -22 -166 -22q-115 0 -174.5 44t-59.5 128q0 65 41 113t99 75h-31v104h-4q-38 -51 -119 -94t-184 -43q-210 0 -333.5 150t-123.5 407t123.5 407t333.5 150q103 0 184 -43t119 -94h4
v105h328v-1049zM594 213q101 0 156 79.5t55 231.5t-55 232t-156 80t-156 -80t-55 -232t55 -231.5t156 -79.5z" />
    <glyph glyph-name="aring.ss01" horiz-adv-x="1228" 
d="M582 1104q-94 0 -160 60.5t-66 160.5q0 98 66 159.5t160 61.5q95 0 160 -61t65 -160q0 -100 -65 -160.5t-160 -60.5zM582 1419q-38 0 -62 -25t-24 -69t24 -69t62 -25q42 0 65 24.5t23 69.5t-23 69.5t-65 24.5zM811 944v105h328v-1049h-328v104h-4q-38 -51 -119 -94
t-184 -43q-210 0 -333.5 150t-123.5 407t123.5 407t333.5 150q103 0 184 -43t119 -94h4zM594 213q101 0 156 79.5t55 231.5t-55 232t-156 80t-156 -80t-55 -232t55 -231.5t156 -79.5z" />
    <glyph glyph-name="atilde.ss01" horiz-adv-x="1228" 
d="M463 1223q-70 0 -70 -80h-178q0 301 182 301q59 0 150.5 -41t128.5 -41q72 0 72 82h176q0 -301 -183 -301q-59 0 -150.5 40t-127.5 40zM811 944v105h328v-1049h-328v104h-4q-38 -51 -119 -94t-184 -43q-210 0 -333.5 150t-123.5 407t123.5 407t333.5 150q103 0 184 -43
t119 -94h4zM594 213q101 0 156 79.5t55 231.5t-55 232t-156 80t-156 -80t-55 -232t55 -231.5t156 -79.5z" />
    <glyph glyph-name="adieresis.ss02" horiz-adv-x="1155" 
d="M385 1163q-74 0 -116 45t-42 111t43 111t115 45t114 -45t42 -111t-42 -111t-114 -45zM784 1163q-74 0 -115.5 45t-41.5 111t42.5 111t114.5 45t114 -45t42 -111t-42 -111t-114 -45zM381 -33q-153 0 -243.5 83.5t-90.5 223.5q0 79 30.5 139t88 100t125 65.5t158.5 44.5
q15 3 50.5 10t55 11.5t50.5 13t48.5 18t36 22.5t27 30.5t8.5 39.5q0 44 -35 69t-104 25q-90 0 -134.5 -37t-52.5 -114h-311q4 78 35 143.5t91 117.5t158.5 81.5t227.5 29.5q222 0 332 -101t110 -335v-405q0 -44 7.5 -62t31.5 -18q15 0 27 2v-156q-99 -18 -180 -18
q-94 0 -139 34t-58 103h-4q-59 -73 -148 -116.5t-198 -43.5zM518 193q94 0 150.5 68t56.5 163v88q-55 -20 -178 -49q-88 -21 -126 -58.5t-38 -95.5q0 -116 135 -116z" />
    <glyph glyph-name="cdotaccent.ss02" horiz-adv-x="1124" 
d="M578 1149q-77 0 -120.5 46.5t-43.5 115.5t44.5 116.5t119.5 47.5t119 -47.5t44 -116.5t-44 -115.5t-119 -46.5zM586 -35q-246 0 -393.5 155t-147.5 404q0 247 146 403t387 156q221 0 357 -118t157 -308h-330q-21 181 -178 181q-100 0 -151.5 -82t-51.5 -232t51 -231.5
t152 -81.5q159 0 178 184h330q-12 -191 -148 -310.5t-358 -119.5z" />
    <glyph glyph-name="edieresis.ss02" horiz-adv-x="1173" 
d="M387 1163q-74 0 -116 45t-42 111t43 111t115 45t114 -45t42 -111t-42 -111t-114 -45zM786 1163q-74 0 -115.5 45t-41.5 111t42.5 111t114.5 45t114 -45t42 -111t-42 -111t-114 -45zM1126 485v-49h-753q0 -105 64.5 -165t160.5 -60q146 0 186 106h334
q-46 -165 -179.5 -258.5t-348.5 -93.5q-251 0 -398 154.5t-147 404.5q0 116 36 217t103.5 177.5t172 120.5t233.5 44q265 0 400.5 -153t135.5 -445zM375 639h422q0 100 -55 153.5t-152 53.5q-95 0 -152 -53.5t-63 -153.5z" />
    <glyph glyph-name="edotaccent.ss02" horiz-adv-x="1173" 
d="M586 1149q-77 0 -120.5 46.5t-43.5 115.5t44.5 116.5t119.5 47.5t119.5 -47.5t44.5 -116.5t-44.5 -115.5t-119.5 -46.5zM1126 485v-49h-753q0 -105 64.5 -165t160.5 -60q146 0 186 106h334q-46 -165 -179.5 -258.5t-348.5 -93.5q-251 0 -398 154.5t-147 404.5
q0 116 36 217t103.5 177.5t172 120.5t233.5 44q265 0 400.5 -153t135.5 -445zM375 639h422q0 100 -55 153.5t-152 53.5q-95 0 -152 -53.5t-63 -153.5z" />
    <glyph glyph-name="uni0123.ss02" horiz-adv-x="1196" 
d="M573 1165q-81 0 -124 52.5t-43 134.5q0 104 72 173.5t218 82.5v-95q-74 -9 -116.5 -37.5t-42.5 -76.5q78 14 127 -17.5t49 -95.5q0 -54 -38 -87.5t-102 -33.5zM780 944v105h328v-924q0 -138 -36 -236t-106 -155t-163.5 -83t-218.5 -26q-117 0 -211.5 29t-155 78.5
t-96.5 108t-51 124.5h331q36 -104 183 -104q109 0 152.5 61t43.5 203v61h-4q-40 -54 -112 -95.5t-175 -41.5q-199 0 -319.5 143.5t-120.5 372.5t120.5 372.5t319.5 143.5q103 0 175 -41.5t112 -95.5h4zM580 295q194 0 194 270q0 131 -48 201t-146 70t-146.5 -70.5
t-48.5 -200.5t48.5 -200t146.5 -70z" />
    <glyph glyph-name="gdotaccent.ss02" horiz-adv-x="1196" 
d="M559 1149q-77 0 -120.5 46.5t-43.5 115.5t44.5 116.5t119.5 47.5t119.5 -47.5t44.5 -116.5t-44.5 -115.5t-119.5 -46.5zM780 944v105h328v-924q0 -138 -36 -236t-106 -155t-163.5 -83t-218.5 -26q-117 0 -211.5 29t-155 78.5t-96.5 108t-51 124.5h331q36 -104 183 -104
q109 0 152.5 61t43.5 203v61h-4q-40 -54 -112 -95.5t-175 -41.5q-199 0 -319.5 143.5t-120.5 372.5t120.5 372.5t319.5 143.5q103 0 175 -41.5t112 -95.5h4zM580 295q194 0 194 270q0 131 -48 201t-146 70t-146.5 -70.5t-48.5 -200.5t48.5 -200t146.5 -70z" />
    <glyph glyph-name="i.ss02" horiz-adv-x="507" 
d="M254 1139q-80 0 -126 49t-46 123q0 72 46.5 122t125.5 50q80 0 127 -50t47 -122q0 -73 -46.5 -122.5t-127.5 -49.5zM418 0h-328v1049h328v-1049z" />
    <glyph glyph-name="idieresis.ss02" horiz-adv-x="507" 
d="M55 1163q-74 0 -115.5 45t-41.5 111t42.5 111t114.5 45t114 -45t42 -111t-42 -111t-114 -45zM455 1163q-74 0 -116 45t-42 111t43 111t115 45t113.5 -45t41.5 -111t-41.5 -111t-113.5 -45zM418 0h-328v1049h328v-1049z" />
    <glyph glyph-name="iogonek.ss02" horiz-adv-x="507" 
d="M254 1149q-77 0 -120.5 46.5t-43.5 115.5t44.5 116.5t119.5 47.5t119.5 -47.5t44.5 -116.5t-44.5 -115.5t-119.5 -46.5zM158 0h-68v1049h328v-1049h-51q-37 -32 -51 -44.5t-30 -35.5t-16 -43q0 -45 64 -45q33 0 84 14v-184q-86 -22 -166 -22q-115 0 -174.5 44t-59.5 128
q0 65 41 113t99 75z" />
    <glyph glyph-name="j.ss02" horiz-adv-x="507" 
d="M254 1149q-77 0 -120.5 46.5t-43.5 115.5t44.5 116.5t119.5 47.5t119.5 -47.5t44.5 -116.5t-44.5 -115.5t-119.5 -46.5zM90 -375q-83 0 -182 21v250q58 -7 76 -7q55 0 80.5 23.5t25.5 101.5v1035h328v-1018q0 -200 -77 -303t-251 -103z" />
    <glyph glyph-name="uni0137.ss02" horiz-adv-x="1118" 
d="M780 0l-248 432l-114 -121v-311h-328v1464h328v-805l350 390h348l-371 -394l414 -655h-379zM618 -92q86 0 132.5 -51t46.5 -140q0 -117 -83.5 -202t-242.5 -99v105q178 21 178 117q-84 -15 -140 21t-56 110q0 64 45.5 101.5t119.5 37.5z" />
    <glyph glyph-name="uni013C.ss02" horiz-adv-x="507" 
d="M418 0h-328v1464h328v-1464zM100 -584v105q82 9 130.5 38.5t48.5 78.5q-85 -15 -141 21t-56 110q0 64 46 101.5t120 37.5q86 0 132 -51t46 -140q0 -117 -83.5 -202t-242.5 -99z" />
    <glyph glyph-name="uni0146.ss02" horiz-adv-x="1189" 
d="M766 1081q155 0 247.5 -97.5t92.5 -274.5v-709h-328v604q0 115 -39.5 163t-124.5 48q-196 0 -196 -209v-606h-328v1049h328v-152h4q105 184 344 184zM592 -92q86 0 132 -51t46 -140q0 -117 -83.5 -202t-242.5 -99v105q82 9 130.5 38.5t48.5 78.5q-85 -15 -141 21t-56 110
q0 64 46 101.5t120 37.5z" />
    <glyph glyph-name="odieresis.ss02" horiz-adv-x="1210" 
d="M408 1163q-74 0 -116 45t-42 111t43 111t115 45t113.5 -45t41.5 -111t-41.5 -111t-113.5 -45zM807 1163q-74 0 -116 45t-42 111t43 111t115 45t114 -45t42 -111t-42 -111t-114 -45zM602 -35q-257 0 -407 152.5t-150 404.5q0 251 151.5 406t411.5 155q257 0 407 -152.5
t150 -402.5q0 -253 -151.5 -408t-411.5 -155zM606 211q109 0 168.5 80.5t59.5 232.5t-59.5 233t-168.5 81q-110 0 -169.5 -81t-59.5 -233t59 -232.5t170 -80.5z" />
    <glyph glyph-name="uni0157.ss02" horiz-adv-x="788" 
d="M678 1057q53 0 90 -8v-287q-40 6 -68 6q-118 0 -200 -73.5t-82 -207.5v-487h-328v1049h328v-172h4q39 85 105 132.5t151 47.5zM248 -92q86 0 132 -51t46 -140q0 -117 -83.5 -202t-242.5 -99v105q82 9 130.5 38.5t48.5 78.5q-85 -15 -141 21t-56 110q0 64 46 101.5
t120 37.5z" />
    <glyph glyph-name="uni0219.ss02" horiz-adv-x="1064" 
d="M555 -33q-133 0 -234 30t-160.5 84t-90 120.5t-33.5 146.5h307q15 -155 205 -155q139 0 139 90q0 15 -3.5 28t-12 23.5t-16.5 18.5t-25 15.5t-29.5 12t-36.5 11t-39 10t-45.5 10t-48.5 10.5q-62 15 -110.5 30.5t-100.5 43t-86 61t-56 83.5t-22 112q0 150 120.5 239.5
t338.5 89.5q121 0 214 -29t147.5 -79.5t83 -112t32.5 -133.5h-307q-8 65 -46.5 97t-117.5 32q-129 0 -129 -84q0 -42 32 -58.5t129 -38.5q37 -8 58 -13q52 -12 88.5 -22t83 -27t78 -34.5t65 -44.5t53 -58.5t32 -74.5t12.5 -94q0 -164 -121 -252t-348 -88zM412 -584v105
q178 21 178 117q-85 -15 -141 21t-56 110q0 64 46 101.5t120 37.5q86 0 132 -51t46 -140q0 -75 -33.5 -138t-109 -108t-182.5 -55z" />
    <glyph glyph-name="uni021B.ss02" horiz-adv-x="747" 
d="M608 225q36 0 88 8v-231q-96 -22 -194 -22q-173 0 -250.5 84.5t-77.5 275.5v463h-145v246h145v292h328v-292h182v-246h-182v-455q0 -78 25.5 -100.5t80.5 -22.5zM467 -72q86 0 132 -50.5t46 -139.5q0 -117 -83.5 -202t-242.5 -99v104q82 9 130.5 38.5t48.5 78.5
q-85 -15 -141 21t-56 110q0 64 46 101.5t120 37.5z" />
    <glyph glyph-name="udieresis.ss02" horiz-adv-x="1189" 
d="M387 1163q-74 0 -116 45t-42 111t43 111t115 45t114 -45t42 -111t-42 -111t-114 -45zM786 1163q-74 0 -115.5 45t-41.5 111t42.5 111t114.5 45t114 -45t42 -111t-42 -111t-114 -45zM772 442v607h328v-1049h-328v152h-4q-106 -185 -344 -185q-155 0 -247.5 98t-92.5 275
v709h328v-605q0 -115 39.5 -163t123.5 -48q197 0 197 209z" />
    <glyph glyph-name="wdieresis.ss02" horiz-adv-x="1617" 
d="M610 1163q-74 0 -115.5 45t-41.5 111t42.5 111t114.5 45t114 -45t42 -111t-42 -111t-114 -45zM1010 1163q-74 0 -116 45t-42 111t43 111t115 45t113.5 -45t41.5 -111t-41.5 -111t-113.5 -45zM604 0h-307l-293 1049h328l157 -639h5l176 639h286l177 -639h6l157 639h318
l-293 -1049h-307l-203 664h-4z" />
    <glyph glyph-name="ydieresis.ss02" horiz-adv-x="1124" 
d="M354 1163q-74 0 -115.5 45t-41.5 111t42.5 111t114.5 45t114 -45t42 -111t-42 -111t-114 -45zM754 1163q-74 0 -116 45t-42 111t43 111t115 45t113.5 -45t41.5 -111t-41.5 -111t-113.5 -45zM315 -362q-96 0 -196 20v250q52 -6 98 -6q21 0 34 0.5t34.5 3.5t36.5 10.5
t31.5 19t28.5 31.5t19 47l-417 1035h338l245 -691h4l226 691h323l-383 -1051q-46 -126 -97.5 -201.5t-131.5 -117t-193 -41.5z" />
    <glyph glyph-name="zdotaccent.ss02" horiz-adv-x="1026" 
d="M508 1149q-77 0 -120.5 46.5t-43.5 115.5t44.5 116.5t119.5 47.5t119.5 -47.5t44.5 -116.5t-44.5 -115.5t-119.5 -46.5zM979 0h-940v236l510 563v4h-469v246h878v-236l-509 -563v-4h530v-246z" />
    <glyph glyph-name="i.latn_TRK.ss02" horiz-adv-x="507" 
d="M254 1139q-80 0 -126 49t-46 123q0 72 46.5 122t125.5 50q80 0 127 -50t47 -122q0 -73 -46.5 -122.5t-127.5 -49.5zM418 0h-328v1049h328v-1049z" />
    <glyph glyph-name="adieresis.ss01.ss02" horiz-adv-x="1228" 
d="M383 1163q-74 0 -116 45t-42 111t43 111t115 45t114 -45t42 -111t-42 -111t-114 -45zM782 1163q-74 0 -115.5 45t-41.5 111t42.5 111t114.5 45t114 -45t42 -111t-42 -111t-114 -45zM811 944v105h328v-1049h-328v104h-4q-38 -51 -119 -94t-184 -43q-210 0 -333.5 150
t-123.5 407t123.5 407t333.5 150q103 0 184 -43t119 -94h4zM594 213q101 0 156 79.5t55 231.5t-55 232t-156 80t-156 -80t-55 -232t55 -231.5t156 -79.5z" />
    <glyph glyph-name="s_s" horiz-adv-x="2123" 
d="M559 -33q-254 0 -384 103t-138 278h307q15 -155 205 -155q139 0 139 90q0 24 -11 43t-25 30t-43 21.5t-50.5 15.5t-62.5 14t-64 15q-78 19 -137 42.5t-117 62t-89.5 97.5t-31.5 136q0 148 113.5 234.5t314.5 86.5q119 0 213 -32.5t169.5 -102.5t134 -160t120.5 -223
q95 -203 206.5 -286.5t264.5 -83.5q82 0 118 21.5t36 68.5q0 20 -5.5 36t-20 28t-27 20t-41 16.5t-45 12.5t-57 12.5t-60.5 13.5q-82 19 -145 44.5t-117.5 65t-83.5 96.5t-29 130q0 150 120 236.5t337 86.5q122 0 215 -29t148 -79.5t83.5 -112t32.5 -133.5h-307
q-8 65 -46.5 97t-117.5 32q-129 0 -129 -84q0 -44 34 -60.5t139 -39.5q9 -2 14.5 -3t14.5 -3t17 -4q60 -13 103.5 -25.5t94.5 -32t86.5 -45.5t66 -61t46 -83.5t15.5 -107.5q0 -163 -116.5 -251.5t-326.5 -88.5q-80 0 -144 12.5t-117.5 42.5t-95 66.5t-83.5 97.5t-75.5 121
t-77.5 152q-47 98 -101.5 171t-104.5 115t-106 68t-101 34.5t-95 8.5q-146 0 -146 -82q0 -41 40.5 -60t178.5 -52q72 -17 123.5 -33t110 -45.5t94.5 -65.5t60 -92t24 -127q0 -162 -119.5 -247t-345.5 -85z" />
    <glyph glyph-name="w_w_w" horiz-adv-x="4575" 
d="M4096 410l158 639h317l-293 -1049h-307l-203 664h-4l-203 -664h-307l-227 813l-227 -813h-308l-202 664h-4l-203 -664h-307l-228 813l-227 -813h-307l-203 664h-4l-203 -664h-307l-293 1049h328l157 -639h5l176 639h286l177 -639h6l157 639h514l158 -639h4l176 639h287
l176 -639h6l158 639h514l158 -639h4l176 639h287l176 -639h6z" />
    <glyph glyph-name="f_f_i.ss02" horiz-adv-x="1843" 
d="M510 0h-328v803h-141v246h141v73q0 191 77 276t247 85q81 0 186 -21v-231q-59 6 -82 6q-51 0 -75.5 -23t-24.5 -100v-65h297v73q0 191 76.5 276t246.5 85q82 0 187 -21v-231q-58 6 -82 6q-51 0 -75.5 -23t-24.5 -100v-65h182v-246h-182v-803h-328v803h-297v-803z
M1589 1139q-80 0 -126 49t-46 123q0 72 46.5 122t125.5 50q80 0 127 -50t47 -122q0 -73 -46.5 -122.5t-127.5 -49.5zM1753 0h-328v1049h328v-1049z" />
    <glyph glyph-name="f_i.ss02" horiz-adv-x="1220" 
d="M182 1049v73q0 191 77 276t247 85q81 0 186 -21v-231q-59 6 -82 6q-51 0 -75.5 -23t-24.5 -100v-65h182v-246h-182v-803h-328v803h-141v246h141zM967 1139q-80 0 -126 49t-46 123q0 72 46.5 122t125.5 50q80 0 127 -50t47 -122q0 -73 -46.5 -122.5t-127.5 -49.5zM1130 0
h-327v1049h327v-1049z" />
    <glyph glyph-name="zero.zero" horiz-adv-x="1390" 
d="M696 1448q155 0 275 -56t195 -156.5t113 -234t38 -294.5t-38 -294t-113 -233.5t-195 -156.5t-275 -56t-275.5 56t-195.5 156.5t-113 233.5t-38 294q0 128 23.5 239t73.5 204t122.5 159t175 102.5t227.5 36.5zM696 1188q-63 0 -111 -24.5t-79 -66.5t-50.5 -104.5
t-27.5 -131.5t-8 -154q0 -197 45 -312l303 785q-46 8 -72 8zM696 227q78 0 133 36t85.5 103.5t43.5 150.5t13 190q0 176 -35 288l-297 -762q27 -6 57 -6z" />
    <glyph glyph-name="zero.slash" horiz-adv-x="1390" 
d="M696 1448q155 0 275 -56t195 -156.5t113 -234t38 -294.5t-38 -294t-113 -233.5t-195 -156.5t-275 -56t-275.5 56t-195.5 156.5t-113 233.5t-38 294q0 128 23.5 239t73.5 204t122.5 159t175 102.5t227.5 36.5zM696 1188q-63 0 -111 -24.5t-79 -66.5t-50.5 -104.5
t-27.5 -131.5t-8 -154q0 -197 45 -312l303 785q-46 8 -72 8zM696 227q78 0 133 36t85.5 103.5t43.5 150.5t13 190q0 176 -35 288l-297 -762q27 -6 57 -6z" />
    <glyph glyph-name="zero.tf" horiz-adv-x="1638" 
d="M821 -33q-155 0 -275.5 56t-195.5 156.5t-113 233.5t-38 294q0 128 23.5 239t73.5 204t122.5 159t175 102.5t227.5 36.5q155 0 275 -56t195 -156.5t113 -234t38 -294.5t-38 -294t-113 -233.5t-195 -156.5t-275 -56zM821 254q74 0 125.5 34t80 97.5t40.5 141.5t12 180
t-12 180t-40.5 142t-80 98t-125.5 34t-126 -34t-80.5 -98t-41 -142t-12.5 -180t12.5 -180t41 -141.5t80.5 -97.5t126 -34z" />
    <glyph glyph-name="one.tf" horiz-adv-x="1638" 
d="M1028 1415v-1134h299v-281h-946v281h299v669q-75 -59 -299 -59v272q103 0 182 26t128.5 84t49.5 142h287z" />
    <glyph glyph-name="two.tf" horiz-adv-x="1638" 
d="M1348 0h-1090q0 64 11 119.5t27 100t50.5 92.5t64.5 82.5t88 83.5t102 83.5t124 93.5q137 102 201.5 176t64.5 162q0 83 -41 128.5t-123 45.5q-104 0 -158.5 -63.5t-54.5 -204.5h-335q0 257 140 403t419 146q232 0 371 -115t139 -315q0 -57 -14 -112.5t-35 -100
t-57.5 -91.5t-68 -81t-81 -75.5t-83 -66.5t-85.5 -63q-118 -85 -176 -143v-4h600v-281z" />
    <glyph glyph-name="three.tf" horiz-adv-x="1638" 
d="M827 -33q-284 0 -440 139t-156 394h336q0 -127 58 -189.5t190 -62.5q111 0 161 43.5t50 128.5q0 98 -63 142t-189 44h-72v240h64q99 0 159 43.5t60 130.5q0 71 -44 109t-130 38q-90 0 -146.5 -45t-56.5 -141h-336q0 206 148 336.5t399 130.5q108 0 202.5 -26t166 -74.5
t112.5 -123t41 -165.5q0 -204 -204 -309v-5q245 -77 245 -339q0 -212 -148.5 -325.5t-406.5 -113.5z" />
    <glyph glyph-name="four.tf" horiz-adv-x="1638" 
d="M1212 0h-348v299h-641v342l641 774h348v-835h209v-281h-209v-299zM864 1036l-385 -456h385v456z" />
    <glyph glyph-name="five.tf" horiz-adv-x="1638" 
d="M831 -33q-279 0 -430 127.5t-159 343.5h336q8 -82 68 -136t165 -54q100 0 157.5 60t57.5 175t-55 176.5t-166 61.5q-133 0 -215 -103h-328l164 797h895v-280h-657l-54 -271v-4q129 101 303 101q213 0 341 -128.5t128 -353.5q0 -125 -42 -223t-116.5 -161t-174 -95.5
t-218.5 -32.5z" />
    <glyph glyph-name="six.tf" horiz-adv-x="1638" 
d="M854 -33q-136 0 -243 40t-176.5 107t-115 161t-64.5 196t-19 217q0 374 163 567t443 193q203 0 347.5 -109.5t178.5 -281.5h-352q-4 21 -14.5 41.5t-30 42t-54.5 34.5t-81 13q-127 0 -189.5 -86.5t-62.5 -231.5v-22l8 -6q130 123 330 123q216 0 351.5 -137t135.5 -343
q0 -236 -150.5 -377t-404.5 -141zM834 227q111 0 175 67t64 173q0 104 -64 171t-175 67q-113 0 -177.5 -67t-64.5 -171q0 -106 64.5 -173t177.5 -67z" />
    <glyph glyph-name="seven.tf" horiz-adv-x="1638" 
d="M885 0h-369q0 335 126.5 650.5t318.5 479.5v5h-670v280h1038v-260q-117 -94 -204.5 -227t-139 -286t-76 -313t-24.5 -329z" />
    <glyph glyph-name="eight.tf" horiz-adv-x="1638" 
d="M819 -33q-165 0 -295.5 48t-210.5 149t-80 242q0 239 267 356v4q-205 109 -205 299q0 119 71 207t188.5 132t264.5 44t264.5 -44t188.5 -132t71 -207q0 -189 -204 -299v-4q266 -118 266 -356q0 -141 -80 -242t-210.5 -149t-295.5 -48zM819 858q102 0 155.5 49.5
t53.5 126.5q0 74 -53.5 124t-155.5 50t-155.5 -50t-53.5 -124q0 -77 53.5 -126.5t155.5 -49.5zM819 227q108 0 169 60.5t61 150.5q0 88 -61 147.5t-169 59.5t-168.5 -59.5t-60.5 -147.5q0 -91 60.5 -151t168.5 -60z" />
    <glyph glyph-name="nine.tf" horiz-adv-x="1638" 
d="M797 -33q-203 0 -348 109.5t-179 281.5h353q4 -21 14.5 -41.5t30 -42t54.5 -34.5t81 -13q127 0 189.5 86.5t62.5 231.5v22l-8 6q-129 -122 -330 -122q-143 0 -255.5 63.5t-172.5 172t-60 243.5q0 236 150.5 377t404.5 141q136 0 243.5 -40t176.5 -107t115 -161t65 -196
t19 -217q0 -374 -163 -567t-443 -193zM805 711q113 0 177.5 66.5t64.5 170.5q0 106 -64.5 173t-177.5 67q-111 0 -175.5 -67.5t-64.5 -172.5q0 -104 64.5 -170.5t175.5 -66.5z" />
    <glyph glyph-name="zero.tf.zero" horiz-adv-x="1638" 
d="M819 1448q155 0 275 -56t195 -156.5t113 -234t38 -294.5t-38 -294t-113 -233.5t-195 -156.5t-275 -56t-275.5 56t-195.5 156.5t-113 233.5t-38 294q0 128 23.5 239t73.5 204t122.5 159t175 102.5t227.5 36.5zM819 1188q-63 0 -111 -24.5t-79 -66.5t-50.5 -104.5
t-27.5 -131.5t-8 -154q0 -197 45 -312l303 785q-46 8 -72 8zM819 227q78 0 133 36t85.5 103.5t43.5 150.5t13 190q0 176 -35 288l-297 -762q27 -6 57 -6z" />
    <glyph glyph-name="zero.dnom" horiz-adv-x="864" 
d="M434 -18q-95 0 -170.5 35t-122 95.5t-70.5 138t-24 165.5t24 165.5t70.5 138.5t122 96.5t170.5 35.5t170 -35t120.5 -96t69 -138.5t23.5 -166.5t-23.5 -166.5t-69.5 -138t-120.5 -95t-169.5 -34.5zM434 180q74 0 100.5 57t26.5 179q0 121 -26.5 178t-100.5 57
q-75 0 -103 -55.5t-28 -179.5q0 -122 27.5 -179t103.5 -57z" />
    <glyph glyph-name="one.dnom" horiz-adv-x="546" 
d="M203 0v518q-40 -18 -176 -18v188q93 0 157.5 39t63.5 104h217v-831h-262z" />
    <glyph glyph-name="two.dnom" horiz-adv-x="768" 
d="M711 0h-670q0 45 2.5 75t14.5 60t23.5 48.5t42 48t57.5 51t83 63.5q7 5 36 26.5t40 30t34.5 28.5t34 33.5t24 33t19 39.5t5.5 41q0 77 -74 77q-46 0 -71 -29t-25 -108h-238q0 162 84.5 249t257.5 87q146 0 231 -68.5t85 -189.5q0 -47 -14.5 -91.5t-31.5 -74t-51 -65
t-52 -51t-56 -46.5q-65 -53 -76 -67v-2h285v-199z" />
    <glyph glyph-name="three.dnom" horiz-adv-x="786" 
d="M399 -20q-175 0 -269.5 83t-94.5 238h237q0 -66 26 -95.5t91 -29.5q96 0 96 82q0 44 -31.5 64t-103.5 20h-28v164h24q117 0 117 82q0 33 -21.5 50t-54.5 17q-41 0 -66.5 -20t-25.5 -62h-236q0 124 92 202.5t246 78.5q137 0 228.5 -62t91.5 -169q0 -113 -117 -183v-2
q139 -47 139 -196q0 -127 -91 -194.5t-249 -67.5z" />
    <glyph glyph-name="four.dnom" horiz-adv-x="829" 
d="M662 0h-248v166h-367v246l367 419h248v-469h122v-196h-122v-166zM414 573l-193 -211h193v211z" />
    <glyph glyph-name="five.dnom" horiz-adv-x="802" 
d="M418 -20q-184 0 -282 76.5t-101 209.5h252q5 -37 34.5 -63.5t81.5 -26.5q47 0 73 28.5t26 82.5q0 116 -109 116q-58 0 -102 -49h-232l101 477h559v-196h-391l-25 -115v-2q77 51 170 51q129 0 205 -74.5t76 -209.5q0 -150 -93 -227.5t-243 -77.5z" />
    <glyph glyph-name="six.dnom" horiz-adv-x="817" 
d="M416 -20q-84 0 -149 24.5t-105.5 64t-66.5 95t-36 113t-10 122.5q0 218 100.5 336.5t264.5 118.5q134 0 219.5 -64t109.5 -169h-239q-30 55 -96 55q-125 0 -138 -144l-2 -24l8 -2q24 26 78.5 47.5t118.5 21.5q136 0 217.5 -80t81.5 -210q0 -138 -98 -221.5t-258 -83.5z
M414 162q57 0 90 33.5t33 85.5q0 48 -30.5 82t-88.5 34t-90.5 -34t-32.5 -82q0 -52 31.5 -85.5t87.5 -33.5z" />
    <glyph glyph-name="seven.dnom" horiz-adv-x="681" 
d="M414 0h-260q0 195 67.5 370t167.5 263v2h-366v196h626v-182q-123 -101 -179 -271t-56 -378z" />
    <glyph glyph-name="eight.dnom" horiz-adv-x="808" 
d="M403 -20q-157 0 -257.5 68t-100.5 192q0 139 156 209v2q-121 68 -121 176q0 105 93.5 166t229.5 61q140 0 233 -61.5t93 -165.5q0 -110 -121 -176v-2q158 -71 158 -209q0 -124 -103 -192t-260 -68zM403 512q53 0 79 26.5t26 63.5q0 34 -26.5 60t-78.5 26t-78 -26t-26 -60
q0 -37 25 -63.5t79 -26.5zM403 160q52 0 79.5 31.5t27.5 74.5q0 41 -27.5 71t-79.5 30t-79 -30t-27 -71q0 -42 26.5 -74t79.5 -32z" />
    <glyph glyph-name="nine.dnom" horiz-adv-x="821" 
d="M403 -20q-129 0 -220 65t-115 168h251q27 -53 91 -53q54 0 85 35t31 102v10l-2 2q-23 -22 -72 -38.5t-110 -16.5q-134 0 -215.5 82t-81.5 213q0 138 98 221.5t258 83.5q85 0 151 -25.5t106.5 -67t67 -100t36.5 -118.5t10 -129q0 -208 -102 -321t-267 -113zM406 436
q58 0 87 34t29 83q0 52 -31.5 85.5t-87.5 33.5q-57 0 -89.5 -33.5t-32.5 -85.5q0 -48 33.5 -82.5t91.5 -34.5z" />
    <glyph glyph-name="zero.numr" horiz-adv-x="864" 
d="M434 616q-126 0 -215.5 61.5t-130.5 158t-41 215.5q0 88 24 165.5t70.5 138.5t122 96.5t170.5 35.5t170 -35t120.5 -96t69 -138.5t23.5 -166.5t-23.5 -166.5t-69 -138t-120.5 -95.5t-170 -35zM434 815q74 0 100.5 57t26.5 179q0 121 -26.5 178t-100.5 57
q-75 0 -103 -55.5t-28 -179.5q0 -122 27.5 -179t103.5 -57z" />
    <glyph glyph-name="one.numr" horiz-adv-x="546" 
d="M203 633v518q-41 -18 -176 -18v188q93 0 157.5 39t63.5 104h217v-831h-262z" />
    <glyph glyph-name="two.numr" horiz-adv-x="768" 
d="M711 635h-670q0 45 2.5 75t14.5 60t23.5 48.5t42 48t57.5 51t83 63.5q9 6 36.5 26.5t39 29.5t34.5 28.5t34 33.5t24.5 33t19 39t5.5 41q0 39 -19.5 58.5t-54.5 19.5q-46 0 -71 -29t-25 -108h-238q0 162 84.5 249t257.5 87q146 0 231 -68.5t85 -189.5q0 -47 -14.5 -91.5
t-31.5 -74t-51 -65t-52 -51t-56 -46.5q-65 -53 -76 -67v-2h285v-199z" />
    <glyph glyph-name="three.numr" horiz-adv-x="786" 
d="M399 612q-175 0 -269.5 83.5t-94.5 238.5h237q0 -66 26 -95.5t91 -29.5q96 0 96 82q0 44 -31.5 64t-103.5 20h-28v164h24q117 0 117 82q0 33 -21.5 50t-54.5 17q-41 0 -66.5 -20t-25.5 -62h-236q0 124 92 202.5t246 78.5q137 0 228.5 -62.5t91.5 -169.5q0 -112 -117 -182
v-2q139 -47 139 -197q0 -127 -91 -194.5t-249 -67.5z" />
    <glyph glyph-name="four.numr" horiz-adv-x="829" 
d="M662 635h-248v166h-367v246l367 419h248v-469h122v-196h-122v-166zM414 1208l-193 -211h193v211z" />
    <glyph glyph-name="five.numr" horiz-adv-x="802" 
d="M418 612q-184 0 -282 76.5t-101 210.5h252q5 -37 34.5 -63.5t81.5 -26.5q47 0 73 28.5t26 82.5q0 116 -109 116q-58 0 -102 -49h-232l101 477h559v-196h-391l-25 -115v-2q77 51 170 51q129 0 205 -74.5t76 -209.5q0 -150 -93 -228t-243 -78z" />
    <glyph glyph-name="six.numr" horiz-adv-x="817" 
d="M416 612q-104 0 -178.5 36t-114 98.5t-57 132.5t-17.5 153q0 218 100.5 336.5t264.5 118.5q134 0 219.5 -64.5t109.5 -169.5h-239q-31 56 -96 56q-125 0 -138 -144l-2 -24l8 -2q24 26 78.5 47.5t118.5 21.5q136 0 217.5 -80t81.5 -210q0 -138 -98 -222t-258 -84zM414 795
q57 0 90 33t33 85q0 48 -30.5 82.5t-88.5 34.5t-90.5 -34.5t-32.5 -82.5q0 -52 31.5 -85t87.5 -33z" />
    <glyph glyph-name="seven.numr" horiz-adv-x="681" 
d="M414 633h-260q0 195 67.5 370t167.5 263v2h-366v196h626v-182q-123 -101 -179 -271t-56 -378z" />
    <glyph glyph-name="eight.numr" horiz-adv-x="808" 
d="M403 612q-157 0 -257.5 68t-100.5 192q0 139 156 209v2q-121 68 -121 177q0 105 93.5 166t229.5 61q140 0 233 -61.5t93 -165.5q0 -111 -121 -177v-2q158 -71 158 -209q0 -124 -103 -192t-260 -68zM403 1145q53 0 79 26.5t26 63.5q0 34 -26.5 60t-78.5 26t-78 -26
t-26 -60q0 -37 25 -63.5t79 -26.5zM403 793q52 0 79.5 31.5t27.5 74.5q0 41 -27.5 70.5t-79.5 29.5t-79 -29.5t-27 -70.5q0 -42 26.5 -74t79.5 -32z" />
    <glyph glyph-name="nine.numr" horiz-adv-x="821" 
d="M403 612q-128 0 -219.5 65.5t-115.5 168.5h251q27 -53 91 -53q54 0 85 35t31 102v10l-2 2q-23 -22 -72 -38.5t-110 -16.5q-134 0 -215.5 82t-81.5 213q0 138 98 221.5t258 83.5q85 0 151 -25.5t106.5 -67t67 -100t36.5 -118.5t10 -129q0 -208 -102 -321.5t-267 -113.5z
M406 1069q58 0 87 34t29 83q0 52 -31.5 85.5t-87.5 33.5q-57 0 -89.5 -33.5t-32.5 -85.5q0 -48 33.5 -82.5t91.5 -34.5z" />
    <glyph glyph-name="space.frac" horiz-adv-x="77" 
 />
    <glyph glyph-name="uni2007.tf" horiz-adv-x="1638" 
 />
    <glyph glyph-name="periodcentered.case" horiz-adv-x="512" 
d="M412 578h-312v311h312v-311z" />
    <glyph glyph-name="bullet.case" horiz-adv-x="856" 
d="M715 446h-574v574h574v-574z" />
    <glyph glyph-name="period.ss02" horiz-adv-x="436" 
d="M219 -10q-79 0 -123.5 47.5t-44.5 118.5q0 69 45.5 117.5t122.5 48.5q75 0 120.5 -48.5t45.5 -117.5q0 -70 -45 -118t-121 -48z" />
    <glyph glyph-name="comma.ss02" horiz-adv-x="448" 
d="M74 -291v129q80 13 127 52.5t47 105.5q-83 -19 -138 22.5t-55 126.5q0 77 45.5 124.5t118.5 47.5q83 0 128.5 -63t45.5 -172q0 -145 -81.5 -250t-237.5 -123z" />
    <glyph glyph-name="colon.ss02" horiz-adv-x="497" 
d="M250 625q-79 0 -123.5 47.5t-44.5 118.5q0 69 45.5 117t122.5 48q75 0 120.5 -48t45.5 -117q0 -70 -45 -118t-121 -48zM250 -10q-79 0 -123.5 47.5t-44.5 118.5q0 69 45.5 117.5t122.5 48.5q75 0 120.5 -48.5t45.5 -117.5q0 -70 -45 -118t-121 -48z" />
    <glyph glyph-name="semicolon.ss02" horiz-adv-x="497" 
d="M250 625q-79 0 -123.5 47.5t-44.5 118.5q0 69 45.5 117t122.5 48q75 0 120.5 -48t45.5 -117q0 -70 -45 -118t-121 -48zM98 -291v129q80 13 127 52.5t47 105.5q-83 -19 -137.5 22.5t-54.5 126.5q0 77 45.5 124.5t118.5 47.5q83 0 128.5 -63t45.5 -172q0 -145 -82 -250
t-238 -123z" />
    <glyph glyph-name="ellipsis.ss02" horiz-adv-x="1304" 
d="M219 -10q-79 0 -123.5 47.5t-44.5 118.5q0 69 45.5 117.5t122.5 48.5q75 0 120.5 -48.5t45.5 -117.5q0 -70 -45 -118t-121 -48zM653 -10q-79 0 -123.5 47.5t-44.5 118.5q0 69 45.5 117.5t122.5 48.5q75 0 120.5 -48.5t45.5 -117.5q0 -70 -45 -118t-121 -48zM1087 -10
q-79 0 -123 47.5t-44 118.5q0 69 45 117.5t122 48.5q75 0 120.5 -48.5t45.5 -117.5q0 -70 -45 -118t-121 -48z" />
    <glyph glyph-name="exclam.ss02" horiz-adv-x="516" 
d="M340 479h-164l-92 666v319h348v-319zM262 -10q-79 0 -123.5 47.5t-44.5 118.5q0 69 45.5 117.5t122.5 48.5q75 0 120.5 -48.5t45.5 -117.5q0 -70 -45 -118t-121 -48z" />
    <glyph glyph-name="exclamdown.ss02" horiz-adv-x="514" 
d="M258 874q-79 0 -123.5 47.5t-44.5 118.5q0 69 45.5 117.5t122.5 48.5q75 0 120.5 -48.5t45.5 -117.5q0 -70 -45 -118t-121 -48zM430 -266h-348v319l92 666h164l92 -666v-319z" />
    <glyph glyph-name="question.ss02" horiz-adv-x="1101" 
d="M647 479h-270q0 69 1.5 110t10 81t18.5 62t35 50.5t51.5 49.5t75.5 57q62 45 90.5 71.5t44 57.5t15.5 74q0 54 -36 89.5t-116 35.5q-192 0 -192 -238h-348q0 109 35 202t101.5 164t173 111.5t241.5 40.5q215 0 352 -110t137 -287q0 -119 -55.5 -200t-167.5 -144
q-115 -64 -156 -117t-41 -160zM516 -10q-79 0 -123.5 47.5t-44.5 118.5q0 69 45.5 117.5t122.5 48.5q75 0 120.5 -48.5t45.5 -117.5q0 -70 -45 -118t-121 -48z" />
    <glyph glyph-name="questiondown.ss02" horiz-adv-x="1103" 
d="M590 874q-79 0 -123.5 47.5t-44.5 118.5q0 69 45.5 117.5t122.5 48.5q75 0 120.5 -48.5t45.5 -117.5q0 -70 -45 -118t-121 -48zM524 -295q-215 0 -352 110t-137 287q0 119 55.5 200t167.5 144q115 64 156 117t41 160h270q0 -69 -1.5 -110t-10.5 -81t-19 -62t-35 -50.5
t-51.5 -49.5t-75.5 -57q-90 -65 -119.5 -102.5t-29.5 -99.5q0 -54 36 -89.5t116 -35.5q192 0 192 237h348q0 -109 -35 -202t-101.5 -164t-173 -111.5t-241.5 -40.5z" />
    <glyph glyph-name="periodcentered.ss02" horiz-adv-x="456" 
d="M229 346q-79 0 -123.5 47.5t-44.5 118.5q0 69 45.5 117.5t122.5 48.5q75 0 120.5 -48.5t45.5 -117.5q0 -70 -45 -118t-121 -48z" />
    <glyph glyph-name="bullet.ss02" horiz-adv-x="819" 
d="M410 315q-128 0 -209.5 81.5t-81.5 209.5t81.5 209.5t209.5 81.5q127 0 208.5 -81.5t81.5 -209.5t-81.5 -209.5t-208.5 -81.5z" />
    <glyph glyph-name="periodcentered.case.ss02" horiz-adv-x="481" 
d="M242 567q-79 0 -123.5 47.5t-44.5 118.5q0 69 45.5 117.5t122.5 48.5q75 0 120.5 -48.5t45.5 -117.5q0 -70 -45 -118t-121 -48z" />
    <glyph glyph-name="bullet.case.ss02" horiz-adv-x="815" 
d="M408 438q-128 0 -209.5 82t-81.5 209t81.5 209t209.5 82q127 0 208.5 -81.5t81.5 -209.5t-81.5 -209.5t-208.5 -81.5z" />
    <glyph glyph-name="hyphen.case" horiz-adv-x="737" 
d="M647 592h-557v280h557v-280z" />
    <glyph glyph-name="uni00AD.case" horiz-adv-x="737" 
d="M647 594h-557v280h557v-280z" />
    <glyph glyph-name="endash.case" horiz-adv-x="1204" 
d="M1114 592h-1024v280h1024v-280z" />
    <glyph glyph-name="emdash.case" horiz-adv-x="2228" 
d="M2138 594h-2048v280h2048v-280z" />
    <glyph glyph-name="parenleft.case" horiz-adv-x="649" 
d="M612 -195h-286q-108 174 -184 422.5t-76 507.5q0 266 75 509t185 419h286q-198 -450 -198 -928q0 -480 198 -930z" />
    <glyph glyph-name="parenright.case" horiz-adv-x="649" 
d="M324 -195h-287q199 453 199 928q0 477 -199 930h287q108 -174 184 -422.5t76 -507.5q0 -266 -75 -509t-185 -419z" />
    <glyph glyph-name="braceleft.case" horiz-adv-x="808" 
d="M748 -195h-56q-86 0 -150 6.5t-123.5 22.5t-99.5 45t-70.5 73.5t-44.5 109t-14 149.5v250q0 76 -28 103.5t-111 27.5v282q83 -1 111 27t28 107v258q0 85 14 148.5t44.5 107t70 71.5t100 43.5t123.5 21t150 5.5h56v-281h-56q-153 0 -153 -190v-238q0 -87 -34 -137.5
t-110 -81.5v-4q76 -31 110 -82t34 -139v-225q0 -199 153 -199h56v-281z" />
    <glyph glyph-name="braceright.case" horiz-adv-x="808" 
d="M117 -195h-56v281h56q153 0 153 190v238q0 87 34 137.5t110 81.5v4q-76 31 -110 82t-34 139v226q0 198 -153 198h-56v281h56q104 0 177.5 -9t138 -34.5t103 -70.5t60.5 -117.5t22 -174.5v-249q0 -76 28 -103.5t112 -27.5v-283q-84 1 -112 -26.5t-28 -106.5v-258
q0 -102 -22 -173.5t-60 -115t-103.5 -68t-138 -33t-177.5 -8.5z" />
    <glyph glyph-name="bracketleft.case" horiz-adv-x="796" 
d="M752 -195h-629v1858h629v-281h-281v-1296h281v-281z" />
    <glyph glyph-name="bracketright.case" horiz-adv-x="796" 
d="M674 -195h-629v281h281v1296h-281v281h629v-1858z" />
    <glyph glyph-name="guillemotleft.case" horiz-adv-x="1036" 
d="M485 563v-307l-385 315v322l385 317v-315l-229 -162v-4zM915 563v-307l-385 315v322l385 317v-315l-229 -162v-4z" />
    <glyph glyph-name="guillemotright.case" horiz-adv-x="1036" 
d="M506 573l-385 -317v315l229 162v4l-229 166v307l385 -315v-322zM936 573l-385 -317v315l229 162v4l-229 166v307l385 -315v-322z" />
    <glyph glyph-name="guilsinglleft.case" horiz-adv-x="628" 
d="M508 575v-319l-408 315v322l408 315v-319l-227 -154v-6z" />
    <glyph glyph-name="guilsinglright.case" horiz-adv-x="628" 
d="M528 571l-407 -315v319l227 154v6l-227 154v319l407 -315v-322z" />
    <glyph glyph-name="quotesinglbase.ss02" horiz-adv-x="448" 
d="M74 -291v129q80 13 127 52.5t47 105.5q-83 -19 -138 22.5t-55 126.5q0 77 45.5 124.5t118.5 47.5q83 0 128.5 -63t45.5 -172q0 -145 -81.5 -250t-237.5 -123z" />
    </font>
</defs>
</svg>
